osu file format v12

[General]
AudioFilename: Hana Ranman -Flowers- (2nd EDITION).ogg
AudioLeadIn: 1500
PreviewTime: 37510
Countdown: 0
SampleSet: Soft
StackLeniency: 0.4
Mode: 0
LetterboxInBreaks: 1
WidescreenStoryboard: 1

[Editor]
DistanceSpacing: 1.2
BeatDivisor: 4
GridSize: 4

[Metadata]
Title:Hana Ranman -Flowers- (2nd Edition .Ver)
TitleUnicode:花爛漫 -Flowors- (2nd EDITION)
Artist:TERRA
ArtistUnicode:TERRA
Creator:[ Lost ]
Version:P A N's Insane
Source:Reflec Beat
Tags:Reflec Beat Nichiyouki kantokun P_A_N PAN -_N_a_n_a_k_a_- Nanaka Soldsaga Kung SoldsagaKung Betsuto P_KunG PKung
BeatmapID:333465
BeatmapSetID:131600

[Difficulty]
HPDrainRate:6
CircleSize:4
OverallDifficulty:6
ApproachRate:9
SliderMultiplier:1.7
SliderTickRate:2

[Events]
//Background and Video events
0,0,"bg.png",0,0
//Break Periods
//Storyboard Layer 0 (Background)
//Storyboard Layer 1 (Fail)
//Storyboard Layer 2 (Pass)
//Storyboard Layer 3 (Foreground)
//Storyboard Sound Samples
//Background Colour Transformations
3,100,0,0,0

[TimingPoints]
-740,375,4,2,1,80,1,0
760,-66.6666666666667,4,2,1,80,0,0
1135,-80,4,2,2,80,0,0
1228,-80,4,2,1,80,0,0
1510,-100,4,2,1,80,0,0
1885,-133.333333333333,4,2,2,80,0,0
1978,-133.333333333333,4,2,1,80,0,0
2260,-100,4,2,1,80,0,0
2635,-100,4,2,2,80,0,0
2728,-100,4,2,1,80,0,0
3385,-133.333333333333,4,2,2,80,0,0
3478,-200,4,2,1,80,0,0
3760,-100,4,2,1,80,0,0
4135,-100,4,2,2,80,0,0
4228,-100,4,2,1,80,0,0
4885,-100,4,2,2,80,0,0
4978,-100,4,2,1,80,0,0
5635,-133.333333333333,4,2,2,80,0,0
5728,-133.333333333333,4,2,1,80,0,0
6010,-100,4,2,1,80,0,0
6103,-100,4,2,1,20,0,0
6385,-100,4,2,1,30,0,0
6760,-100,4,2,1,40,0,0
7135,-100,4,2,1,50,0,0
7510,-100,4,2,1,60,0,0
7885,-100,4,2,1,70,0,0
8072,-100,4,2,1,50,0,0
8260,-100,4,2,2,80,0,0
13885,-100,4,2,3,40,0,0
14072,-100,4,2,2,80,0,0
14260,-100,4,2,3,50,0,1
14353,-100,4,2,2,80,0,0
28885,-100,4,2,2,80,0,0
29260,-100,4,2,2,80,0,0
29635,-80,4,2,2,80,0,0
30010,-66.6666666666667,4,2,2,80,0,0
30385,-100,4,2,2,80,0,0
31885,-71.4285714285714,4,2,2,80,0,0
32260,-100,4,2,2,80,0,0
36760,-200,4,2,2,80,0,0
37135,-133.333333333333,4,2,2,80,0,0
37510,-100,4,2,2,60,0,0
37885,-100,4,2,1,70,0,0
37885,-80,4,2,1,70,0,0
38260,-100,4,2,2,80,0,1
46510,-100,4,2,2,80,0,1
49510,-133.333333333333,4,2,2,80,0,1
49885,-100,4,2,2,80,0,1
50260,-200,4,2,3,40,0,0
51760,-200,4,2,3,40,0,0
60760,-100,4,2,2,80,0,0
68260,-200,4,2,2,10,0,0
69385,-100,4,2,1,80,0,0
75010,-100,4,2,2,60,0,0
75760,-100,4,2,2,80,0,1
80260,-133.333333333333,4,2,1,80,0,0
81760,-100,4,2,2,80,0,1
93666,-100,4,2,2,80,0,0
93760,-100,4,2,2,80,0,1
93853,-100,4,2,2,80,0,0
98260,-133.333333333333,4,2,2,80,0,0
98635,-100,4,2,2,80,0,0
99010,-80,4,2,2,80,0,0
99385,-66.6666666666667,4,2,2,80,0,0
99760,-100,4,2,2,80,0,0
104635,-133.333333333333,4,2,2,80,0,0
105010,-100,4,2,2,80,0,0
105760,-200,4,2,2,50,0,0
108010,-200,4,2,2,50,0,1
108103,-200,4,2,2,50,0,0

[Colours]
Combo1 : 128,255,255
Combo2 : 255,128,255
Combo3 : 170,170,255

[HitObjects]
108,72,385,1,0,0:0:0:0:
64,164,572,1,0,0:0:0:0:
164,156,760,6,0,P|244:104|316:160,1,191.250007295609,4|0,0:0|0:0,0:0:0:0:
240,176,1135,6,0,P|268:236|232:328,1,159.375
188,264,1510,6,0,P|132:288|72:264,1,127.5
60,192,1885,6,0,L|56:96,1,95.6250036478044
120,60,2260,6,0,P|180:68|236:24,1,127.5,4|0,0:0|0:0,0:0:0:0:
296,76,2635,2,0,P|268:136|296:200,1,127.5
208,212,3010,2,0,P|176:160|92:144,1,127.5
88,160,3385,1,8,0:0:0:0:
48,256,3572,1,8,0:0:0:0:
116,332,3760,6,0,L|204:336,1,85,4|0,0:0|0:0,0:0:0:0:
292,288,4135,2,0,P|368:256|448:288,1,170,8|8,0:0|0:0,0:0:0:0:
368,352,4697,1,0,0:0:0:0:
292,288,4885,2,0,P|280:244|288:200,1,85
440,148,5260,2,0,P|452:192|444:236,1,85,4|0,0:0|0:0,0:0:0:0:
292,288,5635,6,0,L|192:292,1,95.6250036478044,8|0,0:0|0:0,0:0:0:0:
152,296,6010,6,0,P|84:264|64:164,1,170,8|8,0:0|0:0,0:0:0:0:
360,88,6760,2,0,P|420:116|448:184,1,127.5
448,208,7135,1,0,0:0:0:0:
380,280,7322,2,0,L|384:304,4,21.25
356,256,7603,1,0,0:0:0:0:
324,244,7697,1,0,0:0:0:0:
292,244,7791,1,0,0:0:0:0:
264,256,7885,1,0,0:0:0:0:
240,280,7978,1,0,0:0:0:0:
224,308,8072,1,0,0:0:0:0:
220,340,8166,1,0,0:0:0:0:
232,368,8260,6,0,P|184:340|96:352,1,127.5,4|0,0:0|0:0,0:0:0:0:
56,292,8635,2,0,L|48:160,1,127.5,8|0,0:0|0:0,0:0:0:0:
116,128,9010,2,0,L|124:256,1,127.5,8|0,0:0|0:0,0:0:0:0:
128,328,9385,2,0,P|176:336|212:320,1,85,8|0,0:0|0:0,0:0:0:0:
116,128,9760,6,0,P|68:120|32:136,1,85,4|0,0:0|0:0,0:0:0:0:
212,168,10135,2,0,P|224:120|204:72,1,85,8|0,0:0|0:0,0:0:0:0:
132,216,10510,2,0,P|160:252|216:256,1,85,8|0,0:0|0:0,0:0:0:0:
116,128,10885,2,0,P|88:92|32:88,1,85,8|0,0:0|0:0,0:0:0:0:
32,184,11260,6,0,P|28:256|76:304,1,127.5,4|0,0:0|0:0,0:0:0:0:
128,316,11635,2,0,P|192:308|232:256,1,127.5,8|0,0:0|0:0,0:0:0:0:
236,192,12010,2,0,P|200:132|144:116,1,127.5,4|0,0:0|0:0,0:0:0:0:
76,112,12385,2,0,L|220:92,1,127.5,8|0,0:0|0:0,0:0:0:0:
240,88,12760,5,4,0:0:0:0:
336,64,12947,1,0,0:0:0:0:
328,228,13135,5,4,0:0:0:0:
236,192,13322,1,0,0:0:0:0:
428,104,13510,5,4,0:0:0:0:
424,200,13697,1,8,0:0:0:0:
424,200,13791,1,8,0:0:0:0:
424,200,13885,1,8,0:0:0:0:
240,88,14072,1,8,0:0:0:0:
240,88,14166,1,8,0:0:0:0:
240,88,14260,6,0,P|312:116|340:216,1,170,0|8,0:0|0:0,0:0:0:0:
296,288,14822,1,0,0:0:0:0:
204,328,15010,2,0,P|132:300|104:200,1,170,8|8,0:0|0:0,0:0:0:0:
140,124,15572,2,0,P|184:132|224:120,1,85,0|8,0:0|0:0,0:0:0:0:
348,16,15947,2,0,P|304:8|264:20,1,85,0|8,0:0|0:0,0:0:0:0:
420,92,16322,1,0,0:0:0:0:
484,172,16510,6,0,L|488:216,1,42.5,8|0,0:0|0:0,0:0:0:0:
416,280,16697,2,0,L|412:228,1,42.5
336,160,16885,2,0,L|340:216,1,42.5,8|0,0:0|0:0,0:0:0:0:
284,312,17072,2,0,L|280:256,1,42.5
244,116,17260,6,0,P|188:84|84:116,1,170,8|8,0:0|0:0,0:0:0:0:
48,200,17822,1,0,0:0:0:0:
84,296,18010,2,0,P|140:328|244:296,1,170,8|8,0:0|0:0,0:0:0:0:
320,244,18572,2,0,P|364:232|408:240,1,85,0|8,0:0|0:0,0:0:0:0:
368,336,18947,5,0,0:0:0:0:
196,340,19135,1,8,0:0:0:0:
88,208,19322,1,0,0:0:0:0:
144,36,19510,2,0,P|204:52|272:32,1,127.5,8|0,0:0|0:0,0:0:0:0:
292,12,19885,2,0,L|288:104,1,85,8|0,0:0|0:0,0:0:0:0:
200,148,20260,6,0,L|208:324,1,170,8|8,0:0|0:0,0:0:0:0:
120,368,20822,1,0,0:0:0:0:
288,292,21010,2,0,L|280:116,1,170,8|8,0:0|0:0,0:0:0:0:
204,52,21572,1,0,0:0:0:0:
116,108,21760,1,8,0:0:0:0:
88,204,21947,2,0,L|92:296,1,85,0|8,0:0|0:0,0:0:0:0:
288,292,22322,2,0,L|284:204,1,85,0|8,0:0|0:0,0:0:0:0:
300,156,22603,5,0,0:0:0:0:
340,128,22697,1,0,0:0:0:0:
392,116,22791,1,0,0:0:0:0:
444,124,22885,1,8,0:0:0:0:
484,152,22978,1,0,0:0:0:0:
504,200,23072,1,0,0:0:0:0:
500,252,23166,1,0,0:0:0:0:
484,300,23260,6,0,B|444:312|401:300|401:300|352:288|312:300,1,170,8|8,0:0|0:0,0:0:0:0:
256,216,23822,1,0,0:0:0:0:
28,300,24010,2,0,B|68:312|110:300|110:300|160:288|200:300,1,170,8|8,0:0|0:0,0:0:0:0:
284,352,24572,2,0,P|364:332|400:256,1,170
400,156,25135,1,8,0:0:0:0:
356,64,25322,1,0,0:0:0:0:
260,24,25510,5,8,0:0:0:0:
208,24,25603,1,0,0:0:0:0:
156,32,25697,1,8,0:0:0:0:
108,52,25791,1,8,0:0:0:0:
72,88,25885,5,8,0:0:0:0:
108,52,25978,1,0,0:0:0:0:
156,32,26072,1,8,0:0:0:0:
208,24,26166,1,8,0:0:0:0:
260,24,26260,6,0,P|320:64|392:56,1,127.5,12|0,0:0|0:0,0:0:0:0:
408,128,26635,2,0,P|376:176|380:252,1,127.5,8|0,0:0|0:0,0:0:0:0:
304,264,27010,2,0,P|244:224|172:232,1,127.5,8|0,0:0|0:0,0:0:0:0:
156,160,27385,2,0,P|188:112|184:36,1,127.5,8|0,0:0|0:0,0:0:0:0:
120,16,27760,6,0,P|40:40|4:120,1,170,8|0,0:0|0:0,0:0:0:0:
24,212,28322,1,0,0:0:0:0:
120,248,28510,2,0,P|200:224|228:168,1,127.5,8|0,0:0|0:0,0:0:0:0:
240,144,28885,2,0,P|280:84|352:76,1,127.5,8|0,0:0|0:0,0:0:0:0:
380,80,29260,6,0,L|408:216,1,127.5
448,268,29635,6,0,L|280:300,1,159.375,8|0,0:0|0:0,0:0:0:0:
228,336,30010,6,0,L|192:140,1,191.250007295609,8|0,0:0|0:0,0:0:0:0:
156,84,30385,6,0,L|292:60,1,127.5,8|0,0:0|0:0,0:0:0:0:
352,56,30760,2,0,P|432:72|480:152,1,170,8|8,0:0|0:0,0:0:0:0:
480,244,31322,1,0,0:0:0:0:
404,316,31510,1,8,0:0:0:0:
404,316,31603,1,0,0:0:0:0:
404,316,31697,1,0,0:0:0:0:
296,288,31885,6,0,B|240:272|240:272|112:288,1,178.499994552612,4|8,0:0|0:0,0:0:0:0:
80,348,32260,6,0,B|68:260|68:260|84:204,1,127.5,4|0,0:0|0:0,0:0:0:0:
44,160,32635,2,0,B|88:176|88:176|180:164,1,127.5,8|0,0:0|0:0,0:0:0:0:
220,116,33010,2,0,B|204:160|204:160|208:240,1,127.5,8|0,0:0|0:0,0:0:0:0:
180,308,33385,2,0,B|224:292|224:292|308:296,1,127.5,8|0,0:0|0:0,0:0:0:0:
372,320,33760,2,0,P|456:304|492:220,1,170,8|8,0:0|0:0,0:0:0:0:
408,176,34322,2,0,P|376:120|404:56,1,127.5
448,116,34697,2,0,P|376:132|320:60,1,170,0|0,0:0|0:0,0:0:0:0:
224,28,35260,6,0,L|140:32,1,85,8|0,0:0|0:0,0:0:0:0:
36,44,35635,1,8,0:0:0:0:
8,232,35822,2,0,P|68:256|156:200,1,170
204,116,36385,1,8,0:0:0:0:
256,120,36478,1,8,0:0:0:0:
308,124,36572,1,8,0:0:0:0:
360,128,36666,1,8,0:0:0:0:
404,132,36760,6,0,P|444:136|472:156,1,63.75,12|0,0:0|0:0,0:0:0:0:
496,212,37135,6,0,P|504:256|472:308,1,95.6250036478044,4|0,0:0|0:0,0:0:0:0:
424,344,37510,6,0,P|352:344|296:288,1,127.5
272,248,37885,6,0,P|256:172|300:128,1,127.5
324,196,38260,6,0,P|256:172|252:80,1,170,4|0,0:0|0:0,0:0:0:0:
336,28,38822,1,0,0:0:0:0:
436,48,39010,2,0,B|464:88|464:88|472:220,1,170,8|8,0:0|0:0,0:0:0:0:
476,312,39572,1,0,0:0:0:0:
376,332,39760,2,0,B|316:348|316:348|248:340,1,127.5,8|0,0:0|0:0,0:0:0:0:
200,332,40135,1,8,0:0:0:0:
116,272,40322,2,0,L|108:184,1,85,0|8,0:0|0:0,0:0:0:0:
192,76,40697,1,0,0:0:0:0:
192,76,40791,1,0,0:0:0:0:
192,76,40885,2,0,L|236:164,1,85,8|0,0:0|0:0,0:0:0:0:
320,268,41260,6,0,L|352:92,1,170,8|8,0:0|0:0,0:0:0:0:
468,56,41822,1,0,0:0:0:0:
468,56,42010,2,0,L|484:244,1,170,8|8,0:0|0:0,0:0:0:0:
416,316,42572,1,0,0:0:0:0:
320,268,42760,2,0,L|308:136,1,127.5,8|0,0:0|0:0,0:0:0:0:
304,104,43135,1,8,0:0:0:0:
188,80,43322,1,0,0:0:0:0:
140,188,43510,2,0,P|72:204|0:140,1,170,8|12,0:0|0:0,0:0:0:0:
96,108,44072,1,0,0:0:0:0:
192,112,44260,6,0,P|240:188|200:268,1,170,4|8,0:0|0:0,0:0:0:0:
140,188,44822,1,0,0:0:0:0:
96,108,45010,2,0,P|120:40|220:20,1,170,8|8,0:0|0:0,0:0:0:0:
192,112,45572,1,0,0:0:0:0:
140,188,45760,2,0,P|72:200|20:160,1,127.5,8|0,0:0|0:0,0:0:0:0:
4,124,46135,2,0,L|16:32,1,85,8|0,0:0|0:0,0:0:0:0:
140,188,46510,6,0,L|148:360,1,170,8|8,0:0|0:0,0:0:0:0:
48,260,47072,1,0,0:0:0:0:
68,132,47260,2,0,P|140:96|224:148,1,170,4|8,0:0|0:0,0:0:0:0:
264,224,47822,1,0,0:0:0:0:
212,312,48010,2,0,P|140:348|56:296,1,170,4|8,0:0|0:0,0:0:0:0:
132,212,48572,1,0,0:0:0:0:
264,224,48760,2,0,P|316:264|308:348,1,127.5,12|8,0:0|0:0,0:0:0:0:
300,364,49135,2,0,L|392:372,1,85,8|8,0:0|0:0,0:0:0:0:
496,296,49510,6,0,L|384:284,1,95.6250036478044,4|8,0:0|0:0,0:0:0:0:
356,264,49885,1,8,0:0:0:0:
324,224,49978,1,8,0:0:0:0:
308,176,50072,1,8,0:0:0:0:
308,124,50166,1,8,0:0:0:0:
328,76,50260,6,0,L|384:72,1,42.5,4|4,0:0|0:0,0:0:0:0:
244,44,50635,2,0,L|196:40,1,42.5,8|0,0:0|0:0,0:0:0:0:
120,92,51010,2,0,P|108:128|116:168,1,63.75,8|0,0:0|0:0,0:0:0:0:
116,196,51385,2,0,P|136:224|176:244,1,63.75,8|0,0:0|0:0,0:0:0:0:
200,232,51760,6,0,L|276:228,1,63.75,8|0,0:0|0:0,0:0:0:0:
308,296,52135,2,0,L|232:300,1,63.75,4|0,0:0|0:0,0:0:0:0:
236,160,52510,2,0,L|308:156,1,63.75,4|0,0:0|0:0,0:0:0:0:
288,368,52885,2,0,L|224:372,1,63.75
184,360,53260,6,0,L|136:372,1,42.5,4|0,0:0|0:0,0:0:0:0:
260,264,53635,2,0,L|304:252,1,42.5
132,224,54010,2,0,L|84:236,1,42.5,4|0,0:0|0:0,0:0:0:0:
240,132,54385,2,0,L|284:124,1,42.5
64,80,54760,2,0,L|16:88,1,42.5,4|0,0:0|0:0,0:0:0:0:
248,16,55135,2,0,L|296:8,1,42.5
428,56,55510,2,0,L|360:68,1,63.75
324,92,55885,1,8,0:0:0:0:
296,132,55978,1,8,0:0:0:0:
288,180,56072,1,8,0:0:0:0:
296,228,56166,1,8,0:0:0:0:
320,268,56260,6,0,L|368:272,1,42.5
288,180,56635,2,0,L|340:184,1,42.5
216,112,57010,2,0,L|128:120,1,85
32,264,57666,1,0,0:0:0:0:
32,264,57760,2,0,P|28:300|36:336,1,63.75,8|0,0:0|0:0,0:0:0:0:
96,296,58135,2,0,P|128:288|156:264,1,63.75,12|0,0:0|0:0,0:0:0:0:
92,228,58510,2,0,P|72:204|32:196,1,63.75,8|0,0:0|0:0,0:0:0:0:
0,204,58885,5,0,0:0:0:0:
192,96,59166,1,0,0:0:0:0:
212,72,59260,2,0,L|296:72,1,85,4|0,0:0|0:0,0:0:0:0:
228,184,59822,1,0,0:0:0:0:
120,152,60010,2,0,L|32:152,1,85,4|0,0:0|0:0,0:0:0:0:
112,260,60572,1,0,0:0:0:0:
228,184,60760,6,0,P|284:184|332:120,1,127.5,8|0,0:0|0:0,0:0:0:0:
256,116,61135,2,0,P|192:120|156:172,1,127.5,8|0,0:0|0:0,0:0:0:0:
176,236,61510,2,0,P|220:256|264:248,1,85,8|0,0:0|0:0,0:0:0:0:
316,216,61791,1,0,0:0:0:0:
316,216,61885,2,0,L|324:304,1,85,8|0,0:0|0:0,0:0:0:0:
436,344,62260,6,0,L|420:168,1,170,4|8,0:0|0:0,0:0:0:0:
328,112,62822,1,0,0:0:0:0:
316,216,63010,2,0,P|256:240|156:196,1,170,8|8,0:0|0:0,0:0:0:0:
120,144,63478,1,0,0:0:0:0:
120,144,63572,6,0,L|128:56,1,85,0|8,0:0|0:0,0:0:0:0:
40,240,63947,2,0,L|52:336,1,85,0|8,0:0|0:0,0:0:0:0:
136,144,64322,6,0,L|144:56,1,85,0|8,0:0|0:0,0:0:0:0:
24,240,64697,2,0,L|36:336,1,85,0|8,0:0|0:0,0:0:0:0:
152,372,65072,1,0,0:0:0:0:
152,372,65166,1,0,0:0:0:0:
152,372,65260,2,0,L|160:280,1,85,4|0,0:0|0:0,0:0:0:0:
256,168,65635,2,0,L|268:252,1,85,8|0,0:0|0:0,0:0:0:0:
336,328,66010,6,0,P|412:340|492:276,1,170,4|8,0:0|0:0,0:0:0:0:
444,196,66572,1,8,0:0:0:0:
444,196,66666,1,8,0:0:0:0:
444,196,66760,2,0,L|448:104,1,85,12|8,0:0|0:0,0:0:0:0:
348,20,67135,2,0,L|340:112,1,85,4|8,0:0|0:0,0:0:0:0:
272,180,67510,2,0,P|224:192|176:176,1,85,4|0,0:0|0:0,0:0:0:0:
156,88,67885,5,4,0:0:0:0:
108,96,67978,1,0,0:0:0:0:
76,136,68072,1,0,0:0:0:0:
80,188,68166,1,0,0:0:0:0:
256,192,68260,12,0,69385,0:0:0:0:
92,304,69760,5,4,0:0:0:0:
340,176,70135,6,0,L|352:264,1,85,0|8,0:0|0:0,0:0:0:0:
368,356,70510,1,8,0:0:0:0:
104,124,70885,6,0,L|100:212,1,85
92,304,71260,2,0,P|160:336|220:312,1,127.5,8|0,0:0|0:0,0:0:0:0:
232,252,71635,2,0,P|276:240|312:252,1,85
368,356,72010,1,0,0:0:0:0:
104,124,72385,6,0,L|100:216,1,85,8|0,0:0|0:0,0:0:0:0:
92,304,72760,1,8,0:0:0:0:
340,176,73135,6,0,L|352:264,1,85,8|0,0:0|0:0,0:0:0:0:
368,356,73510,1,0,0:0:0:0:
340,176,73885,6,0,L|352:264,1,85
368,356,74260,2,0,P|292:368|240:344,1,127.5,8|0,0:0|0:0,0:0:0:0:
212,284,74635,2,0,P|196:240|160:212,1,85
92,304,75010,1,0,0:0:0:0:
104,124,75385,6,0,L|100:212,1,85,8|0,0:0|0:0,0:0:0:0:
96,256,75666,1,0,0:0:0:0:
92,304,75760,2,0,P|156:344|248:324,1,170,4|8,0:0|0:0,0:0:0:0:
296,236,76322,1,0,0:0:0:0:
276,136,76510,2,0,P|212:96|120:116,1,170,8|8,0:0|0:0,0:0:0:0:
188,208,77072,1,0,0:0:0:0:
296,236,77260,2,0,P|364:204|380:140,1,127.5,8|0,0:0|0:0,0:0:0:0:
380,88,77635,2,0,P|352:52|312:36,1,85,8|0,0:0|0:0,0:0:0:0:
296,236,78010,2,0,P|364:280|444:256,1,170,8|8,0:0|0:0,0:0:0:0:
381,159,78572,1,0,0:0:0:0:
264,132,78760,6,0,P|196:180|192:272,1,170,8|8,0:0|0:0,0:0:0:0:
296,236,79322,1,0,0:0:0:0:
381,159,79510,2,0,P|380:104|360:68,1,85,8|8,0:0|0:0,0:0:0:0:
328,44,79791,1,8,0:0:0:0:
280,28,79885,1,8,0:0:0:0:
228,32,79978,1,8,0:0:0:0:
184,56,80072,1,8,0:0:0:0:
156,100,80166,1,0,0:0:0:0:
152,152,80260,6,0,L|156:268,1,95.6250036478044
156,292,80635,2,0,P|100:316|44:304,1,95.6250036478044
32,288,81010,2,0,L|28:192,1,95.6250036478044
24,152,81385,1,8,0:0:0:0:
52,40,81572,1,8,0:0:0:0:
156,100,81760,6,0,P|224:140|312:116,1,170,4|8,0:0|0:0,0:0:0:0:
240,28,82322,1,0,0:0:0:0:
124,4,82510,2,0,P|68:56|72:152,1,170,8|8,0:0|0:0,0:0:0:0:
136,224,83072,1,0,0:0:0:0:
232,184,83260,2,0,P|296:168|356:208,1,127.5,8|0,0:0|0:0,0:0:0:0:
388,256,83635,2,0,L|384:344,1,85,8|0,0:0|0:0,0:0:0:0:
480,208,84010,2,0,L|468:36,1,170,8|8,0:0|0:0,0:0:0:0:
368,12,84572,1,0,0:0:0:0:
272,52,84760,6,0,L|284:224,1,170,8|8,0:0|0:0,0:0:0:0:
288,324,85322,1,0,0:0:0:0:
352,176,85510,2,0,P|280:144|196:204,1,170,8|8,0:0|0:0,0:0:0:0:
168,280,86072,1,0,0:0:0:0:
76,328,86260,2,0,B|56:276|56:276|64:184,1,127.5,8|0,0:0|0:0,0:0:0:0:
40,136,86635,2,0,P|84:144|140:112,1,85,8|0,0:0|0:0,0:0:0:0:
192,56,87010,1,0,0:0:0:0:
236,28,87103,1,0,0:0:0:0:
288,16,87197,1,0,0:0:0:0:
340,16,87291,1,0,0:0:0:0:
388,28,87385,1,0,0:0:0:0:
428,60,87478,1,0,0:0:0:0:
452,104,87572,1,0,0:0:0:0:
464,156,87666,1,0,0:0:0:0:
452,208,87760,6,0,P|380:240|376:340,1,170,4|8,0:0|0:0,0:0:0:0:
468,308,88322,1,0,0:0:0:0:
452,208,88510,2,0,P|392:152|300:168,1,170,8|8,0:0|0:0,0:0:0:0:
244,240,89072,1,0,0:0:0:0:
176,316,89260,2,0,P|94:325|44:288,1,127.5,8|0,0:0|0:0,0:0:0:0:
28,236,89635,2,0,L|32:136,1,85,8|0,0:0|0:0,0:0:0:0:
116,96,90010,2,0,P|188:120|264:64,1,170,8|8,0:0|0:0,0:0:0:0:
172,20,90572,1,0,0:0:0:0:
72,8,90760,2,0,P|16:64|32:152,1,170,8|8,0:0|0:0,0:0:0:0:
116,96,91322,1,0,0:0:0:0:
204,44,91510,2,0,P|217:124|160:183,1,170,8|8,0:0|0:0,0:0:0:0:
116,96,92072,1,0,0:0:0:0:
204,44,92260,5,8,0:0:0:0:
252,56,92353,1,8,0:0:0:0:
304,56,92447,1,8,0:0:0:0:
352,44,92541,1,8,0:0:0:0:
400,24,92635,5,8,0:0:0:0:
452,24,92728,1,8,0:0:0:0:
496,48,92822,1,8,0:0:0:0:
512,96,92916,1,8,0:0:0:0:
496,144,93010,5,8,0:0:0:0:
456,176,93103,1,8,0:0:0:0:
440,224,93197,1,8,0:0:0:0:
452,276,93291,1,8,0:0:0:0:
444,328,93385,5,8,0:0:0:0:
404,360,93478,1,8,0:0:0:0:
352,364,93572,1,8,0:0:0:0:
308,340,93666,1,8,0:0:0:0:
284,296,93760,6,0,P|200:272|124:312,1,170,4|0,0:0|0:0,0:0:0:0:
212,364,94322,2,0,L|192:192,1,170
204,92,94885,1,8,0:0:0:0:
304,76,95072,1,0,0:0:0:0:
364,160,95260,2,0,P|448:180|508:116,1,170,8|8,0:0|0:0,0:0:0:0:
304,76,95822,2,0,P|260:128|288:232,1,170
372,260,96385,1,8,0:0:0:0:
468,220,96572,1,0,0:0:0:0:
304,76,96760,6,0,P|224:48|140:84,1,170,8|8,0:0|0:0,0:0:0:0:
100,168,97322,2,0,B|80:276|80:276|96:340,1,170
164,260,97885,2,0,L|184:168,1,85,8|0,0:0|0:0,0:0:0:0:
0,288,98260,6,0,L|20:188,1,95.6250036478044,8|0,0:0|0:0,0:0:0:0:
40,124,98635,6,0,P|96:92|160:120,1,127.5,8|0,0:0|0:0,0:0:0:0:
184,176,99010,6,0,P|264:200|312:148,1,159.375,8|0,0:0|0:0,0:0:0:0:
240,132,99385,6,0,P|272:216|364:204,1,191.250007295609,8|0,0:0|0:0,0:0:0:0:
400,148,99760,6,0,P|356:76|268:76,1,170,4|8,0:0|0:0,0:0:0:0:
192,128,100322,2,0,P|104:152|40:104,1,170
128,52,100885,1,8,0:0:0:0:
228,36,101072,1,0,0:0:0:0:
296,112,101260,2,0,P|288:192|208:232,1,170,8|0,0:0|0:0,0:0:0:0:
228,36,101822,2,0,P|300:8|384:60,1,170
396,152,102385,1,8,0:0:0:0:
312,212,102572,1,0,0:0:0:0:
228,156,102760,6,0,P|136:124|68:176,1,170,8|8,0:0|0:0,0:0:0:0:
84,260,103322,2,0,P|176:292|244:240,1,170
272,160,103885,2,0,L|276:76,1,85,8|8,0:0|0:0,0:0:0:0:
376,224,104260,2,0,L|380:140,1,85,8|8,0:0|0:0,0:0:0:0:
484,292,104635,6,0,L|488:192,1,95.6250036478044,8|8,0:0|0:0,0:0:0:0:
476,148,105010,5,0,0:0:0:0:
452,104,105103,1,8,0:0:0:0:
412,72,105197,1,8,0:0:0:0:
364,56,105291,1,8,0:0:0:0:
312,52,105385,1,8,0:0:0:0:
260,60,105478,1,8,0:0:0:0:
216,84,105572,1,8,0:0:0:0:
184,124,105666,1,8,0:0:0:0:
172,172,105760,5,4,0:0:0:0:
208,268,105947,1,2,0:0:0:0:
312,232,106135,1,0,0:0:0:0:
276,136,106322,1,2,0:0:0:0:
156,168,106510,5,0,0:0:0:0:
198,282,106697,1,2,0:0:0:0:
322,239,106885,1,0,0:0:0:0:
279,125,107072,1,2,0:0:0:0:
139,164,107260,5,0,0:0:0:0:
189,297,107447,1,2,0:0:0:0:
333,247,107635,1,0,0:0:0:0:
283,114,107822,1,2,0:0:0:0:
236,204,108010,5,2,0:0:0:0:
