osu file format v12

[General]
AudioFilename: Hana Ranman -Flowers- (2nd EDITION).ogg
AudioLeadIn: 1500
PreviewTime: 37510
Countdown: 0
SampleSet: Soft
StackLeniency: 0.4
Mode: 0
LetterboxInBreaks: 1
WidescreenStoryboard: 1

[Editor]
DistanceSpacing: 1
BeatDivisor: 4
GridSize: 4

[Metadata]
Title:Hana Ranman -Flowers- (2nd Edition .Ver)
TitleUnicode:花爛漫 -Flowors- (2nd EDITION)
Artist:TERRA
ArtistUnicode:TERRA
Creator:[ Lost ]
Version:Nich's Standard
Source:Reflec Beat
Tags:Reflec Beat Nichiyouki kantokun P_A_N PAN -_N_a_n_a_k_a_- Nanaka Soldsaga Kung SoldsagaKung Betsuto P_KunG PKung
BeatmapID:333475
BeatmapSetID:131600

[Difficulty]
HPDrainRate:4
CircleSize:3
OverallDifficulty:4
ApproachRate:6
SliderMultiplier:1.1
SliderTickRate:2

[Events]
//Background and Video events
0,0,"bg.png",0,0
//Break Periods
//Storyboard Layer 0 (Background)
//Storyboard Layer 1 (Fail)
//Storyboard Layer 2 (Pass)
//Storyboard Layer 3 (Foreground)
//Storyboard Sound Samples
//Background Colour Transformations
3,100,0,0,0

[TimingPoints]
-740,375,4,2,1,80,1,0
1135,-100,4,2,2,80,0,0
1228,-100,4,2,1,80,0,0
1885,-100,4,2,2,80,0,0
1978,-100,4,2,1,80,0,0
2635,-100,4,2,2,80,0,0
2728,-100,4,2,1,80,0,0
3385,-100,4,2,2,80,0,0
3478,-100,4,2,1,80,0,0
4135,-100,4,2,2,80,0,0
4228,-100,4,2,1,80,0,0
4885,-100,4,2,2,80,0,0
4978,-100,4,2,1,80,0,0
5635,-100,4,2,2,80,0,0
5728,-100,4,2,1,80,0,0
6197,-100,4,2,1,20,0,0
6385,-100,4,2,1,30,0,0
6760,-100,4,2,1,40,0,0
7135,-100,4,2,1,50,0,0
7510,-100,4,2,1,60,0,0
7885,-100,4,2,1,70,0,0
8260,-100,4,2,2,80,0,0
13885,-100,4,2,3,40,0,0
14260,-100,4,2,1,50,0,1
14353,-100,4,2,2,80,0,0
25885,-100,4,2,2,70,0,0
26260,-100,4,2,2,80,0,0
37510,-100,4,2,2,60,0,0
37885,-100,4,2,1,70,0,0
38260,-100,4,2,2,80,0,1
50260,-100,4,2,2,50,0,0
60760,-100,4,2,2,70,0,0
62260,-100,4,2,2,80,0,0
68260,-100,4,2,2,10,0,0
69760,-100,4,2,1,80,0,0
75010,-100,4,2,2,60,0,0
75760,-100,4,2,2,80,0,1
80260,-100,4,2,1,80,0,0
81760,-100,4,2,2,80,0,1
93666,-100,4,2,2,80,0,0
93760,-100,4,2,2,80,0,1
93853,-100,4,2,2,80,0,0
105760,-100,4,2,2,50,0,0
108010,-100,4,2,2,50,0,1
108103,-100,4,2,2,50,0,0

[Colours]
Combo1 : 128,255,255
Combo2 : 255,128,255
Combo3 : 170,170,255

[HitObjects]
112,72,385,2,0,L|116:132,1,55,2|0,0:0|0:0,0:0:0:0:
140,176,760,6,0,P|188:200|244:196,1,110,4|2,0:0|0:0,0:0:0:0:
316,116,1510,2,0,P|268:92|212:96,1,110,2|0,0:0|0:0,0:0:0:0:
140,176,2260,2,0,L|148:288,1,110
252,312,3010,1,2,0:0:0:0:
364,285,3385,2,0,L|372:176,1,110,0|2,0:0|0:0,0:0:0:0:
312,84,4135,6,0,P|256:76|204:84,1,110,2|0,0:0|0:0,0:0:0:0:
140,176,4885,1,0,0:0:0:0:
200,268,5260,1,2,0:0:0:0:
312,268,5635,1,2,0:0:0:0:
372,176,6010,1,2,0:0:0:0:
256,192,6197,12,4,8260,0:0:0:0:
200,128,9010,6,0,L|76:132,2,110,0|8|0,0:0|0:0|0:0,0:0:0:0:
300,84,10135,1,8,0:0:0:0:
400,132,10510,2,0,P|424:240|364:324,1,220,0|4,0:0|0:0,0:0:0:0:
256,344,11635,5,8,0:0:0:0:
152,312,12010,2,0,L|80:224,1,110,0|8,0:0|0:0,0:0:0:0:
124,124,12760,2,0,L|196:212,1,110,0|8,0:0|0:0,0:0:0:0:
300,240,13510,1,0,0:0:0:0:
400,192,13885,1,4,0:0:0:0:
404,84,14260,6,0,P|360:48|304:40,1,110,4|8,0:0|0:0,0:0:0:0:
200,40,15010,2,0,P|146:49|104:84,1,110,0|8,0:0|0:0,0:0:0:0:
84,136,15572,2,0,L|108:304,1,165,0|8,0:0|0:0,0:0:0:0:
204,356,16510,2,0,L|228:244,1,110,0|8,0:0|0:0,0:0:0:0:
336,260,17260,6,0,P|392:260|444:248,1,110,0|8,0:0|0:0,0:0:0:0:
444,136,18010,2,0,P|390:123|336:124,1,110,0|8,0:0|0:0,0:0:0:0:
288,152,18572,2,0,P|204:140|168:76,1,165,0|8,0:0|0:0,0:0:0:0:
272,44,19510,2,0,P|328:48|372:76,1,110,0|8,0:0|0:0,0:0:0:0:
396,184,20260,5,0,0:0:0:0:
332,272,20635,1,8,0:0:0:0:
268,360,21010,2,0,L|156:368,1,110,0|8,0:0|0:0,0:0:0:0:
104,356,21572,2,0,P|68:288|100:212,1,165,0|8,0:0|0:0,0:0:0:0:
200,168,22510,1,0,0:0:0:0:
308,168,22885,1,8,0:0:0:0:
411,211,23260,6,0,P|440:252|440:312,1,110,0|8,0:0|0:0,0:0:0:0:
352,376,24010,2,0,P|323:335|323:275,1,110,0|8,0:0|0:0,0:0:0:0:
324,220,24572,2,0,P|336:144|288:72,1,165,0|8,0:0|0:0,0:0:0:0:
180,64,25510,1,0,0:0:0:0:
100,140,25885,1,12,0:0:0:0:
128,248,26260,6,0,L|200:332,1,110,4|8,0:0|0:0,0:0:0:0:
304,296,27010,2,0,L|232:212,1,110,0|8,0:0|0:0,0:0:0:0:
200,108,27760,1,0,0:0:0:0:
300,68,28135,2,0,L|356:64,1,55,8|0,0:0|0:0,0:0:0:0:
408,64,28510,2,0,P|448:100|464:152,1,110,0|8,0:0|0:0,0:0:0:0:
412,248,29260,6,0,L|308:288,1,110,4|8,0:0|0:0,0:0:0:0:
202,287,30010,2,0,L|100:248,1,110,0|8,0:0|0:0,0:0:0:0:
47,152,30760,2,0,P|63:100|104:64,1,110,0|8,0:0|0:0,0:0:0:0:
157,64,31322,2,0,L|212:68,1,55
320,76,31885,1,12,0:0:0:0:
384,164,32260,6,0,L|400:272,1,110,4|8,0:0|0:0,0:0:0:0:
308,332,33010,2,0,L|292:224,1,110,0|8,0:0|0:0,0:0:0:0:
240,124,33760,2,0,P|184:108|128:112,1,110,0|8,0:0|0:0,0:0:0:0:
80,124,34322,2,0,L|52:232,2,110
64,72,35260,1,0,0:0:0:0:
228,100,35822,1,0,0:0:0:0:
228,100,36010,2,0,P|284:100|336:88,1,110,0|8,0:0|0:0,0:0:0:0:
432,36,36760,5,4,0:0:0:0:
488,132,37135,1,4,0:0:0:0:
432,228,37510,2,0,L|320:244,1,110,2|2,0:0|0:0,0:0:0:0:
236,316,38260,6,0,L|120:304,1,110,4|8,0:0|0:0,0:0:0:0:
52,224,39010,2,0,L|36:116,1,110,0|8,0:0|0:0,0:0:0:0:
120,40,39760,2,0,P|172:32|232:40,1,110,0|8,0:0|0:0,0:0:0:0:
280,60,40322,1,0,0:0:0:0:
324,92,40510,2,0,L|336:208,1,110,0|8,0:0|0:0,0:0:0:0:
252,272,41260,6,0,L|240:156,1,110,4|8,0:0|0:0,0:0:0:0:
280,60,42010,1,0,0:0:0:0:
388,64,42385,1,8,0:0:0:0:
472,136,42760,2,0,P|480:192|472:244,1,110,0|8,0:0|0:0,0:0:0:0:
452,296,43322,1,0,0:0:0:0:
424,344,43510,2,0,L|312:356,1,110,0|8,0:0|0:0,0:0:0:0:
240,276,44260,6,0,L|128:264,1,110,4|8,0:0|0:0,0:0:0:0:
92,160,45010,2,0,L|204:172,1,110,0|8,0:0|0:0,0:0:0:0:
312,184,45760,1,0,0:0:0:0:
392,108,46135,2,0,L|408:56,2,55,8|0|0,0:0|0:0|0:0,0:0:0:0:
420,216,46885,1,8,0:0:0:0:
356,304,47260,6,0,L|248:332,1,110,4|8,0:0|0:0,0:0:0:0:
284,228,48010,2,0,L|172:216,1,110,4|8,0:0|0:0,0:0:0:0:
88,148,48760,1,4,0:0:0:0:
156,60,49135,2,0,L|212:48,1,55,8|0,0:0|0:0,0:0:0:0:
264,52,49510,2,0,P|320:44|376:48,1,110,0|8,0:0|0:0,0:0:0:0:
256,192,50260,12,4,53260,0:0:0:0:
144,116,54010,5,4,0:0:0:0:
360,80,54760,1,4,0:0:0:0:
436,160,55135,1,0,0:0:0:0:
404,264,55510,1,4,0:0:0:0:
188,312,56260,5,4,0:0:0:0:
256,100,57010,1,0,0:0:0:0:
320,312,57760,1,4,0:0:0:0:
120,144,59260,5,4,0:0:0:0:
328,72,60010,2,0,L|440:80,2,110,4|0|8,0:0|0:0|0:0,0:0:0:0:
240,136,61135,2,0,L|128:144,1,110,8|8,0:0|0:0,0:0:0:0:
44,212,61885,2,0,L|48:272,1,55,8|0,0:0|0:0,0:0:0:0:
64,320,62260,6,0,P|112:336|172:344,1,110,4|8,0:0|0:0,0:0:0:0:
276,312,63010,2,0,P|316:272|344:224,1,110,0|8,0:0|0:0,0:0:0:0:
328,116,63760,1,0,0:0:0:0:
224,68,64135,2,0,L|164:68,2,55,8|0|0,0:0|0:0|0:0,0:0:0:0:
324,24,64885,1,8,0:0:0:0:
424,72,65260,6,0,L|464:176,1,110,4|8,0:0|0:0,0:0:0:0:
352,188,66010,2,0,L|344:304,1,110,4|8,0:0|0:0,0:0:0:0:
236,268,66760,2,0,L|196:372,2,110,4|8|8,0:0|0:0|0:0,0:0:0:0:
244,160,67885,2,0,P|204:124|152:108,1,110,8|0,0:0|0:0,0:0:0:0:
120,296,69760,6,0,P|212:344|320:312,2,220,2|2|0,0:0|0:0|0:0,0:0:0:0:
64,200,71635,2,0,L|92:92,1,110,2|0,0:0|0:0,0:0:0:0:
188,44,72385,1,0,0:0:0:0:
272,116,72760,6,0,P|328:128|380:120,1,110,2|0,0:0|0:0,0:0:0:0:
452,36,73510,2,0,P|380:120|368:228,1,220,2|0,0:0|0:0,0:0:0:0:
436,312,74635,1,2,0:0:0:0:
344,372,75010,2,0,L|232:360,1,110
128,340,75760,6,0,P|92:300|76:248,1,110,4|8,0:0|0:0,0:0:0:0:
76,136,76510,2,0,P|91:83|128:43,1,110,0|8,0:0|0:0,0:0:0:0:
236,43,77260,1,0,0:0:0:0:
324,111,77635,2,0,L|340:167,2,55,8|0|0,0:0|0:0|0:0,0:0:0:0:
396,31,78385,1,8,0:0:0:0:
464,119,78760,6,0,P|452:175|420:215,1,110,4|8,0:0|0:0,0:0:0:0:
316,251,79510,2,0,P|256:235|216:203,1,110,4|8,0:0|0:0,0:0:0:0:
204,99,80260,1,2,0:0:0:0:
416,68,81010,1,2,0:0:0:0:
468,164,81385,1,2,0:0:0:0:
420,264,81760,6,0,L|312:288,1,110,4|8,0:0|0:0,0:0:0:0:
200,288,82510,2,0,L|92:264,1,110,0|8,0:0|0:0,0:0:0:0:
40,168,83260,2,0,P|32:104|52:56,1,110,0|8,0:0|0:0,0:0:0:0:
96,40,83822,1,0,0:0:0:0:
148,28,84010,2,0,L|264:36,1,110,0|8,0:0|0:0,0:0:0:0:
320,128,84760,6,0,L|208:140,1,110,4|8,0:0|0:0,0:0:0:0:
100,152,85510,1,0,0:0:0:0:
64,256,85885,1,8,0:0:0:0:
128,348,86260,2,0,P|184:356|240:344,1,110,0|8,0:0|0:0,0:0:0:0:
280,312,86822,1,0,0:0:0:0:
312,268,87010,2,0,L|328:160,1,110,0|8,0:0|0:0,0:0:0:0:
256,76,87760,6,0,P|200:56|148:56,2,110,4|8|0,0:0|0:0|0:0,0:0:0:0:
328,160,88885,1,8,0:0:0:0:
416,96,89260,1,0,0:0:0:0:
492,176,89635,2,0,L|512:228,2,55,8|0|0,0:0|0:0|0:0,0:0:0:0:
416,96,90385,2,0,P|400:80|372:64,1,55,8|8,0:0|0:0,0:0:0:0:
316,64,90760,6,0,L|208:84,1,110,4|8,0:0|0:0,0:0:0:0:
168,188,91510,2,0,L|276:168,1,110,4|8,0:0|0:0,0:0:0:0:
384,192,92260,2,0,P|408:240|400:296,1,110,2|8,0:0|0:0,0:0:0:0:
312,364,93010,2,0,P|288:316|296:260,1,110,2|8,0:0|0:0,0:0:0:0:
284,152,93760,6,0,P|288:92|208:32,2,165,4|0|0,0:0|0:0|0:0,0:0:0:0:
204,228,95260,2,0,P|200:288|280:348,2,165,4|0|0,0:0|0:0|0:0,0:0:0:0:
308,192,96760,2,0,L|472:216,2,165,4|0|0,0:0|0:0|0:0,0:0:0:0:
216,124,98260,5,8,0:0:0:0:
112,164,98635,1,8,0:0:0:0:
88,272,99010,1,8,0:0:0:0:
164,352,99385,1,8,0:0:0:0:
264,308,99760,6,0,P|352:304|420:336,2,165,4|0|0,0:0|0:0|0:0,0:0:0:0:
184,232,101260,2,0,P|96:236|28:204,2,165,4|0|0,0:0|0:0|0:0,0:0:0:0:
288,200,102760,2,0,L|320:36,2,165,4|0|0,0:0|0:0|0:0,0:0:0:0:
264,308,104260,5,8,0:0:0:0:
164,348,104635,1,8,0:0:0:0:
64,308,105010,2,0,P|48:256|52:200,1,110,8|0,0:0|0:0,0:0:0:0:
256,192,105760,12,2,108010,0:0:0:0:
