osu file format v12

[General]
AudioFilename: Hana Ranman -Flowers- (2nd EDITION).ogg
AudioLeadIn: 1500
PreviewTime: 37510
Countdown: 0
SampleSet: Normal
StackLeniency: 0.4
Mode: 0
LetterboxInBreaks: 1
WidescreenStoryboard: 1

[Editor]
DistanceSpacing: 1
BeatDivisor: 4
GridSize: 4

[Metadata]
Title:Hana Ranman -Flowers- (2nd Edition .Ver)
TitleUnicode:花爛漫 -Flowors- (2nd EDITION)
Artist:TERRA
ArtistUnicode:TERRA
Creator:[ Lost ]
Version:Kanto's eXtra
Source:Reflec Beat
Tags:Reflec Beat Nichiyouki kantokun P_A_N PAN -_N_a_n_a_k_a_- Nanaka Soldsaga Kung SoldsagaKung Betsuto P_KunG PKung
BeatmapID:334231
BeatmapSetID:131600

[Difficulty]
HPDrainRate:8
CircleSize:4
OverallDifficulty:8
ApproachRate:9
SliderMultiplier:2
SliderTickRate:1

[Events]
//Background and Video events
0,0,"bg.png",0,0
//Break Periods
//Storyboard Layer 0 (Background)
//Storyboard Layer 1 (Fail)
//Storyboard Layer 2 (Pass)
//Storyboard Layer 3 (Foreground)
//Storyboard Sound Samples
//Background Colour Transformations
3,100,0,0,0

[TimingPoints]
-740,375,4,2,4,40,1,0
385,-133.333333333333,4,2,4,40,0,0
6947,-100,4,2,4,50,0,0
7322,-100,4,2,4,30,0,0
7510,-100,4,2,4,50,0,0
8260,-100,4,1,4,60,0,0
13510,-83.3333333333333,4,1,4,60,0,0
13885,-66.6666666666667,4,2,3,70,0,1
13978,-66.6666666666667,4,1,4,60,0,0
14260,-117.647058823529,4,1,4,60,0,1
14353,-117.647058823529,4,1,4,60,0,0
22135,-100,4,1,4,60,0,0
22510,-117.647058823529,4,1,4,60,0,0
23260,-100,4,1,4,60,0,0
23635,-117.647058823529,4,1,4,60,0,0
25510,-117.647058823529,4,1,4,60,0,0
25885,-66.6666666666667,4,1,4,60,0,0
26260,-133.333333333333,4,1,4,60,0,0
31603,-100,4,1,4,60,0,0
31885,-133.333333333333,4,1,4,60,0,0
35260,-125,4,1,4,60,0,0
35635,-117.647058823529,4,1,4,60,0,0
36010,-111.111111111111,4,1,4,60,0,0
36385,-105.263157894737,4,1,0,60,0,0
36760,-133.333333333333,4,1,4,60,0,0
37322,-100,4,1,4,60,0,0
37697,-100,4,2,3,30,0,0
37885,-100,4,2,3,60,0,0
37978,-100,4,1,4,60,0,0
38260,-100,4,1,4,60,0,1
49135,-66.6666666666667,4,1,4,60,0,1
49510,-133.333333333333,4,1,4,60,0,1
50260,-200,4,2,3,60,0,0
50353,-200,4,2,4,60,0,0
55978,-200,4,2,4,30,0,0
56260,-200,4,2,4,60,0,0
56353,-200,4,2,4,5,0,0
57010,-200,4,2,4,60,0,0
61697,-66.6666666666667,4,1,4,40,0,0
62260,-117.647058823529,4,1,4,70,0,0
66760,-100,4,1,4,70,0,0
68260,-200,4,2,4,30,0,0
75385,-200,4,1,4,50,0,0
75760,-133.333333333333,4,2,4,60,0,0
79697,-133.333333333333,4,1,4,70,0,0
80260,-66.6666666666667,4,2,4,40,0,0
81760,-100,4,1,4,70,0,1
87291,-66.6666666666667,4,1,4,70,0,1
87760,-100,4,1,4,70,0,1
92260,-83.3333333333333,4,1,4,70,0,0
93760,-100,4,1,4,70,0,1
93853,-100,4,1,4,70,0,0
98260,-100,4,1,4,70,0,0
98541,-100,4,2,4,5,0,0
98635,-86.9565217391304,4,1,4,70,0,0
98916,-86.9565217391304,4,2,4,5,0,0
99010,-76.9230769230769,4,1,4,70,0,0
99291,-76.9230769230769,4,2,4,5,0,0
99385,-68.9655172413793,4,1,4,70,0,0
99666,-68.9655172413793,4,2,4,5,0,0
99760,-100,4,1,4,70,0,0
105760,-200,4,2,4,40,0,0
105853,-200,4,2,4,20,0,0
106135,-200,4,2,4,25,0,0
106510,-200,4,2,4,30,0,0
106885,-200,4,2,4,35,0,0
107260,-200,4,2,4,40,0,0
107635,-200,4,2,4,45,0,0
108010,-200,4,2,4,50,0,0

[Colours]
Combo1 : 255,0,0
Combo2 : 255,128,255
Combo3 : 170,170,255
Combo4 : 128,255,255
Combo5 : 255,255,255

[HitObjects]
56,24,385,2,0,L|60:100,1,75.0000028610231,4|0,0:0|0:0,0:0:0:0:
40,232,760,2,0,P|76:188|144:188,1,112.500004291535,14|0,0:2|0:2,0:0:0:0:
200,216,1135,2,0,P|240:220|280:212,1,75.0000028610231,8|0,1:2|0:0,0:0:0:0:
376,144,1510,1,2,0:0:0:0:
352,296,1697,1,0,0:0:0:0:
364,316,1791,1,0,0:0:0:0:
376,336,1885,2,0,L|368:220,1,112.500004291535,0|0,1:0|0:0,0:0:0:0:
376,144,2260,6,0,P|416:120|488:128,1,112.500004291535,10|0,0:0|0:0,0:0:0:0:
292,180,2635,2,0,P|288:136|292:92,1,75.0000028610231,8|0,1:2|0:0,0:0:0:0:
352,36,3010,1,0,0:0:0:0:
212,20,3197,1,2,0:0:0:0:
212,20,3291,1,0,0:0:0:0:
212,20,3385,2,0,L|160:32,1,37.5000014305115,8|0,0:2|0:2,0:0:0:0:
40,96,3572,2,0,L|92:84,1,37.5000014305115
144,172,3760,6,0,P|184:200|260:192,1,112.500004291535,10|0,0:0|0:0,0:0:0:0:
320,148,4135,2,0,L|304:264,1,112.500004291535,8|0,1:2|0:0,0:0:0:0:
344,336,4510,2,0,P|384:344|420:336,1,75.0000028610231,2|0,0:0|0:0,0:0:0:0:
476,288,4791,1,0,0:0:0:0:
476,288,4885,6,0,L|468:172,1,112.500004291535,0|0,1:0|0:0,0:0:0:0:
468,175,5260,1,10,0:2:0:0:
464,144,5635,1,8,0:2:0:0:
460,112,6010,1,2,0:0:0:0:
360,40,6385,22,0,P|320:32|256:108,1,150.000005722046,0|0,0:0|0:0,0:0:0:0:
296,200,6947,1,0,0:0:0:0:
304,232,7041,1,0,0:0:0:0:
304,264,7135,1,0,0:0:0:0:
292,292,7228,1,0,0:0:0:0:
272,316,7322,2,0,L|248:336,3,25,2|0|0|0,0:0|0:0|0:0|0:0,0:0:0:0:
224,340,7510,2,0,L|168:336,1,50
152,176,7697,2,0,L|198:195,1,50,2|0,0:0|0:0,0:0:0:0:
64,276,7885,2,0,L|14:279,1,50,2|0,0:0|0:0,0:0:0:0:
28,124,8072,2,0,L|72:100,1,50,2|0,0:0|0:0,0:0:0:0:
180,64,8260,6,0,P|228:112|304:96,1,150,12|0,0:0|0:0,0:0:0:0:
356,28,8635,2,0,P|404:16|456:40,1,100,8|0,0:0|0:0,0:0:0:0:
440,204,9010,2,0,P|388:216|340:192,1,100,10|0,0:0|0:0,0:0:0:0:
272,164,9291,1,0,0:0:0:0:
272,164,9385,2,0,L|164:176,1,100,8|0,0:0|0:0,0:0:0:0:
72,340,9760,6,0,L|224:324,1,150,10|0,0:0|0:0,0:0:0:0:
284,272,10135,2,0,P|296:216|280:168,1,100,8|0,0:0|0:0,0:0:0:0:
156,72,10510,1,10,0:0:0:0:
124,76,10603,1,0,0:0:0:0:
92,80,10697,2,0,L|40:76,1,50
64,192,10885,2,0,P|120:208|160:192,1,100,10|0,0:0|0:0,0:0:0:0:
216,144,11166,5,0,0:0:0:0:
216,144,11260,2,0,P|264:128|312:148,1,100,14|0,0:0|0:0,0:0:0:0:
360,204,11541,1,0,0:0:0:0:
360,204,11635,2,0,L|344:96,1,100,8|0,0:0|0:0,0:0:0:0:
472,48,12010,1,10,0:0:0:0:
345,105,12197,1,0,0:0:0:0:
488,76,12385,1,8,0:0:0:0:
352,76,12572,1,0,0:0:0:0:
236,24,12760,21,10,0:0:0:0:
204,12,12853,1,0,0:0:0:0:
172,12,12947,1,2,0:0:0:0:
144,24,13041,1,0,0:0:0:0:
120,44,13135,1,10,0:0:0:0:
104,72,13228,1,0,0:0:0:0:
100,104,13322,1,0,0:0:0:0:
104,136,13416,1,0,0:0:0:0:
120,164,13510,54,0,L|128:228,1,59.9999981689454,10|8,0:0|0:0,0:0:0:0:
244,360,13697,2,0,L|256:296,1,59.9999981689454,10|8,0:0|0:0,0:0:0:0:
284,148,13885,2,0,P|340:92|428:120,1,150.000005722046,14|8,0:0|0:0,0:0:0:0:
464,144,14166,1,8,0:0:0:0:
492,216,14260,22,0,L|484:368,1,127.50000243187,14|0,0:0|0:0,0:0:0:0:
472,320,14635,2,0,P|440:284|360:280,1,127.50000243187,10|0,0:0|0:0,0:0:0:0:
336,288,15010,2,0,P|292:296|252:288,1,85.0000016212464,8|0,0:0|0:0,0:0:0:0:
176,220,15385,1,10,0:0:0:0:
132,304,15572,2,0,L|156:352,1,42.5000008106232
292,208,15760,6,0,P|300:160|296:116,1,85.0000016212464,8|0,0:0|0:0,0:0:0:0:
152,44,16135,2,0,P|144:92|148:136,1,85.0000016212464,10|0,0:0|0:0,0:0:0:0:
184,248,16510,1,10,0:0:0:0:
192,280,16603,1,0,0:0:0:0:
200,312,16697,2,0,L|196:364,1,42.5000008106232
312,276,16885,5,10,0:0:0:0:
320,308,16978,1,0,0:0:0:0:
328,340,17072,2,0,L|324:392,1,42.5000008106232,2|0,0:0|0:0,0:0:0:0:
440,336,17260,22,0,P|460:296|460:248,1,85.0000016212464,8|0,0:0|0:0,0:0:0:0:
412,188,17541,1,0,0:0:0:0:
412,188,17635,2,0,L|400:104,1,85.0000016212464,10|0,0:0|0:0,0:0:0:0:
308,48,18010,2,0,P|264:76|184:60,1,127.50000243187,10|0,0:0|0:0,0:0:0:0:
128,24,18385,2,0,L|40:40,1,85.0000016212464,10|0,0:0|0:0,0:0:0:0:
8,172,18760,21,10,0:0:0:0:
32,184,18853,1,0,0:0:0:0:
60,188,18947,2,0,P|80:188|108:180,1,42.5000008106232
180,144,19135,2,0,P|228:124|276:132,1,85.0000016212464,10|0,0:0|0:0,0:0:0:0:
308,144,19416,1,0,0:0:0:0:
352,172,19510,2,0,L|348:220,1,42.5000008106232,8|0,0:0|0:0,0:0:0:0:
416,76,19697,2,0,L|420:28,1,42.5000008106232
440,276,19885,1,10,0:0:0:0:
432,300,19978,1,0,0:0:0:0:
424,324,20072,1,0,0:0:0:0:
416,348,20166,1,0,0:0:0:0:
312,296,20260,6,0,P|280:260|180:256,1,127.50000243187,12|0,0:0|0:0,0:0:0:0:
140,292,20635,2,0,P|96:300|52:292,1,85.0000016212464,10|0,0:0|0:0,0:0:0:0:
72,112,20916,1,0,0:0:0:0:
96,128,21010,2,0,P|104:176|96:216,1,85.0000016212464,8|0,0:0|0:0,0:0:0:0:
0,176,21291,1,0,0:0:0:0:
0,176,21385,1,10,0:0:0:0:
168,72,21572,1,0,0:0:0:0:
272,232,21760,22,0,P|316:256|356:252,1,85.0000016212464,8|0,0:0|0:0,0:0:0:0:
424,236,22041,1,0,0:0:0:0:
424,236,22135,2,0,B|444:228|457:211|457:211|440:324,1,150,10|0,0:0|0:0,0:0:0:0:
388,156,22510,5,10,0:0:0:0:
376,128,22603,1,0,0:0:0:0:
368,100,22697,2,0,P|368:72|376:48,1,42.5000008106232,2|0,0:0|0:0,0:0:0:0:
232,80,22884,21,10,0:0:0:0:
200,72,22978,1,0,0:0:0:0:
168,72,23072,2,0,P|138:75|112:84,1,42.5000008106232,2|0,0:0|0:0,0:0:0:0:
172,232,23260,22,0,P|180:160|152:172,1,150,12|0,0:0|0:0,0:0:0:0:
72,224,23635,2,0,P|24:232|-16:228,1,85.0000016212464,10|0,0:0|0:0,0:0:0:0:
160,332,24010,1,8,0:0:0:0:
160,332,24103,1,0,0:0:0:0:
160,332,24197,2,0,P|204:340|256:336,1,85.0000016212464,0|10,0:0|0:0,0:0:0:0:
352,244,24572,2,0,L|400:228,1,42.5000008106232,2|0,0:0|0:0,0:0:0:0:
420,220,24760,6,0,L|416:308,1,85.0000016212464,12|0,0:0|0:0,0:0:0:0:
320,152,25041,5,0,0:0:0:0:
344,132,25135,2,0,L|348:44,1,85.0000016212464,12|0,0:0|0:0,0:0:0:0:
200,32,25416,1,0,0:0:0:0:
132,80,25510,1,14,0:0:0:0:
136,112,25603,1,0,0:0:0:0:
140,144,25697,1,8,0:0:0:0:
144,176,25791,1,8,0:0:0:0:
176,272,25885,22,0,P|96:268|52:204,1,150.000005722046,12|0,0:0|0:0,0:0:0:0:
200,32,26166,1,0,0:0:0:0:
228,44,26260,6,0,L|224:164,1,112.500004291535,12|0,0:0|0:0,0:0:0:0:
276,224,26635,2,0,P|312:236|380:216,1,75.0000028610231,10|0,0:0|0:0,0:0:0:0:
448,172,27010,2,0,P|464:132|452:56,1,112.500004291535,8|0,0:0|0:0,0:0:0:0:
308,112,27385,2,0,P|348:120|384:112,1,75.0000028610231,10|0,0:0|0:0,0:0:0:0:
228,44,27760,6,0,L|108:56,1,112.500004291535
84,56,28135,1,10,0:0:0:0:
40,192,28322,1,0,0:0:0:0:
152,264,28510,2,0,P|192:236|196:136,1,150.000005722046,8|10,0:0|0:0,0:0:0:0:
24,236,29072,6,0,L|32:288,1,37.5000014305115,2|0,0:0|0:0,0:0:0:0:
48,360,29260,2,0,L|72:240,1,112.500004291535,14|0,0:0|0:0,0:0:0:0:
112,184,29635,2,0,P|160:176|232:212,1,112.500004291535,10|0,0:0|0:0,0:0:0:0:
260,268,30010,2,0,P|260:316|264:348,1,75.0000028610231
300,192,30385,2,0,P|304:148|304:112,1,75.0000028610231,10|0,0:0|0:0,0:0:0:0:
344,264,30760,6,0,P|388:280|488:244,2,150.000005722046,8|10|8,0:0|0:0|0:0,0:0:0:0:
300,192,31603,2,0,L|188:204,1,100,6|0,0:0|0:0,0:0:0:0:
284,108,31885,2,0,L|176:120,1,75.0000028610231,14|0,0:0|0:0,0:0:0:0:
48,268,32260,22,0,P|84:216|76:128,2,150.000005722046,12|10|8,0:0|0:0|0:0,0:0:0:0:
104,356,33197,2,0,L|144:352,1,37.5000014305115
208,296,33385,2,0,L|320:312,1,112.500004291535,10|0,0:0|0:0,0:0:0:0:
392,272,33760,6,0,P|404:236|404:192,1,75.0000028610231,8|0,0:0|0:0,0:0:0:0:
292,104,34135,2,0,P|280:140|280:184,1,75.0000028610231,10|0,0:0|0:0,0:0:0:0:
400,68,34510,1,8,0:0:0:0:
432,72,34603,1,0,0:0:0:0:
464,76,34697,1,0,0:0:0:0:
324,8,34885,1,10,0:0:0:0:
288,16,34978,1,0,0:0:0:0:
252,24,35072,1,0,0:0:0:0:
76,116,35260,6,0,P|108:152|200:144,1,120,8|0,0:0|0:0,0:0:0:0:
244,120,35635,2,0,P|296:104|328:108,1,85.0000016212464,10|0,0:0|0:0,0:0:0:0:
412,180,36010,6,0,L|408:228,1,44.999998626709,8|0,0:0|0:0,0:0:0:0:
432,216,36197,2,0,L|428:264,1,44.999998626709,2|0,0:0|0:0,0:0:0:0:
452,252,36385,2,0,L|448:308,1,47.4999987316132
472,288,36572,2,0,L|468:344,1,47.4999987316132
324,320,36760,22,0,P|276:272|172:292,1,150.000005722046,8|4,0:0|0:0,0:0:0:0:
64,340,37322,1,0,2:0:0:0:
60,308,37416,1,0,2:0:0:0:
56,276,37510,2,0,L|52:244,2,25,0|0|0,2:0|2:0|2:0,0:0:0:0:
92,132,37697,2,0,L|96:164,1,25,0|0,1:0|1:0,0:0:0:0:
116,112,37791,2,0,L|112:144,1,25,0|0,1:0|1:0,0:0:0:0:
140,92,37885,6,0,P|164:104|196:104,1,50,12|0,0:0|2:0,0:0:0:0:
284,84,38072,2,0,L|312:72,3,25,0|0|0|0,2:0|2:0|2:0|2:0,0:0:0:0:
336,64,38260,6,0,L|332:168,1,100,12|0,0:0|0:0,0:0:0:0:
356,248,38541,1,0,0:0:0:0:
364,280,38635,1,10,0:0:0:0:
488,152,38822,1,0,0:0:0:0:
336,64,39010,6,0,L|332:168,1,100,12|0,0:0|0:0,0:0:0:0:
356,248,39291,1,0,0:0:0:0:
364,280,39385,2,0,P|412:304|464:296,1,100,2|0,0:0|0:0,0:0:0:0:
296,196,39760,22,0,P|264:244|280:340,1,150,12|0,0:0|0:0,0:0:0:0:
452,272,40135,2,0,L|344:276,1,100,10|0,0:0|0:0,0:0:0:0:
64,172,40510,6,0,P|112:140|160:144,1,100,8|0,0:0|0:0,0:0:0:0:
184,328,40791,1,0,0:0:0:0:
160,320,40885,2,0,P|132:276|136:224,1,100,14|0,0:0|0:0,0:0:0:0:
240,136,41260,6,0,L|344:144,1,100,12|0,0:0|0:0,0:0:0:0:
424,124,41541,1,0,0:0:0:0:
456,116,41635,1,10,0:0:0:0:
368,276,41822,1,0,0:0:0:0:
240,136,42010,6,0,L|344:144,1,100,12|0,0:0|0:0,0:0:0:0:
424,124,42291,1,0,0:0:0:0:
456,116,42385,2,0,P|472:64|460:16,1,100,10|0,0:0|0:0,0:0:0:0:
368,184,42760,22,0,P|428:224|516:204,1,150,12|0,0:0|0:0,0:0:0:0:
496,304,43135,2,0,P|436:308|396:300,1,100,10|0,0:0|0:0,0:0:0:0:
292,256,43510,1,10,0:0:0:0:
272,284,43603,1,0,0:0:0:0:
252,312,43697,2,0,L|232:256,1,50
156,300,43885,5,14,0:0:0:0:
136,328,43978,1,0,0:0:0:0:
116,356,44072,2,0,L|96:300,1,50
24,252,44260,6,0,L|52:156,1,100,4|0,0:0|0:0,0:0:0:0:
80,76,44541,2,0,L|72:24,1,50,0|10,0:0|0:0,0:0:0:0:
148,152,44822,1,0,0:0:0:0:
260,168,45010,2,0,P|316:164|356:120,1,100,12|0,0:0|0:0,0:0:0:0:
276,88,45291,1,0,0:0:0:0:
276,88,45385,2,0,L|272:192,1,100,10|0,0:0|0:0,0:0:0:0:
328,332,45760,6,0,P|380:348|460:304,1,150,12|0,0:0|0:0,0:0:0:0:
244,284,46135,2,0,P|232:336|248:380,1,100,10|0,0:0|0:0,0:0:0:0:
116,332,46510,1,8,0:0:0:0:
132,304,46603,1,2,0:0:0:0:
140,272,46697,1,0,0:0:0:0:
140,240,46791,1,0,0:0:0:0:
132,208,46885,2,0,L|120:152,1,50,14|0,0:0|0:0,0:0:0:0:
204,84,47072,2,0,L|208:28,1,50
272,184,47260,22,0,P|320:216|384:208,1,100,12|0,0:0|0:0,0:0:0:0:
436,184,47541,1,0,0:0:0:0:
436,184,47635,2,0,L|416:288,1,100,10|0,0:0|0:0,0:0:0:0:
204,84,48010,22,0,P|164:113|115:116,1,100,12|0,0:0|0:0,0:0:0:0:
39,84,48291,1,0,0:0:0:0:
39,84,48385,2,0,L|57:182,1,100,10|0,0:0|0:0,0:0:0:0:
32,324,48760,6,0,P|84:348|160:300,1,150,12|8,0:0|0:0,0:0:0:0:
172,220,49135,6,0,P|240:168|312:188,1,150.000005722046,8|8,0:0|0:0,0:0:0:0:
360,228,49416,1,0,2:0:0:0:
400,296,49510,6,0,B|380:216|420:216|400:132,1,150.000005722046,4|8,0:0|0:0,0:0:0:0:
364,76,49978,1,8,0:0:0:0:
292,40,50072,1,8,0:0:0:0:
212,40,50166,1,8,0:0:0:0:
140,72,50260,5,12,0:0:0:0:
140,72,51666,1,8,0:1:0:0:
140,72,51760,2,8,L|136:176,2,100,8|8|8,0:1|0:1|0:1,0:0:0:0:
28,224,53166,5,8,0:1:0:0:
56,212,53260,1,8,0:1:0:0:
56,212,54010,1,8,0:1:0:0:
56,212,54760,5,8,0:1:0:0:
144,284,55135,1,8,0:1:0:0:
260,256,55510,1,8,0:1:0:0:
260,256,55885,2,0,L|256:216,3,25,8|8|8|8,0:1|0:1|0:1|0:1,0:0:0:0:
272,284,56260,22,0,P|320:308|424:224,1,200,8|8,0:1|0:1,0:0:0:0:
423,229,57666,5,8,0:1:0:0:
416,204,57760,2,0,L|412:104,2,100,8|8|8,0:1|0:1|0:1,0:0:0:0:
264,144,59166,5,8,0:1:0:0:
288,152,59260,1,8,0:1:0:0:
288,152,60010,1,8,0:1:0:0:
288,152,60760,1,8,0:1:0:0:
308,248,61135,5,8,0:1:0:0:
268,52,61510,1,8,0:1:0:0:
164,124,61697,5,10,0:0:0:0:
164,124,61791,1,8,0:0:0:0:
164,124,61885,2,0,P|120:120|88:104,1,75.0000028610231,8|8,0:0|0:0,0:0:0:0:
4,240,62072,2,0,P|29:203|59:184,1,75.0000028610231,10|8,0:0|0:0,0:0:0:0:
164,124,62260,6,0,L|248:132,1,85.0000016212464,4|0,0:0|2:0,0:0:0:0:
256,100,62541,1,0,2:0:0:0:
272,76,62635,1,10,0:0:0:0:
300,60,62728,1,0,2:0:0:0:
332,52,62822,1,0,2:0:0:0:
364,56,62916,1,0,2:0:0:0:
392,68,63010,5,8,0:0:0:0:
412,92,63103,1,0,2:0:0:0:
424,120,63197,1,0,2:0:0:0:
424,152,63291,1,0,2:0:0:0:
416,184,63385,1,10,0:0:0:0:
396,208,63478,1,0,2:0:0:0:
368,224,63572,1,0,2:0:0:0:
336,232,63666,1,0,2:0:0:0:
304,232,63760,6,0,L|256:224,3,42.5000008106232,8|0|0|0,0:0|2:0|2:0|2:0,0:0:0:0:
152,284,64135,6,0,L|200:276,3,42.5000008106232,10|0|0|0,0:0|2:0|2:0|2:0,0:0:0:0:
336,144,64510,22,0,L|288:136,3,42.5000008106232,8|0|0|0,0:0|2:0|2:0|2:0,0:0:0:0:
108,200,64885,22,0,L|156:192,3,42.5000008106232,10|0|0|0,0:0|2:0|2:0|2:0,0:0:0:0:
184,100,65260,5,8,0:0:0:0:
176,68,65353,1,0,2:0:0:0:
156,44,65447,1,0,2:0:0:0:
128,32,65541,1,0,2:0:0:0:
96,28,65635,1,10,0:0:0:0:
64,32,65728,1,0,2:0:0:0:
36,48,65822,1,0,2:0:0:0:
16,72,65916,1,0,2:0:0:0:
8,104,66010,22,0,L|16:156,3,42.5000008106232,10|0|0|0,0:0|2:0|2:0|2:0,0:0:0:0:
108,200,66385,2,0,L|100:252,3,42.5000008106232,8|8|8|8,0:0|0:0|0:0|0:0,0:0:0:0:
80,336,66760,53,12,0:1:0:0:
80,336,67135,1,8,0:1:0:0:
80,336,67510,1,12,0:1:0:0:
80,336,67885,2,0,L|132:328,1,50,8|8,0:1|0:1,0:0:0:0:
196,208,68072,2,0,L|248:200,1,50,8|8,0:1|0:1,0:0:0:0:
256,192,68260,12,12,69760,0:0:0:0:
120,128,70135,2,0,L|112:60,1,50,8|0,0:0|0:0,0:0:0:0:
76,232,70510,1,0,0:0:0:0:
76,232,71260,5,10,0:0:0:0:
236,104,71635,1,0,0:0:0:0:
260,312,72010,1,2,0:0:0:0:
200,220,72385,1,8,0:0:0:0:
260,312,72760,5,8,0:0:0:0:
360,248,73135,2,0,L|356:192,1,50,8|0,0:0|0:0,0:0:0:0:
348,104,73510,1,0,0:0:0:0:
348,104,74260,5,10,0:0:0:0:
240,128,74635,1,0,0:0:0:0:
132,152,75010,1,2,0:0:0:0:
132,152,75385,21,2,0:0:0:0:
240,128,75572,1,8,0:0:0:0:
348,104,75760,6,0,L|340:144,3,37.5000014305115,12|0|0|0,1:0|0:0|0:0|0:0,0:0:0:0:
408,204,76135,2,0,L|416:244,3,37.5000014305115,8|0|0|0,1:0|0:0|0:0|0:0,0:0:0:0:
240,128,76510,6,0,L|232:168,3,37.5000014305115,8|0|0|0,1:0|0:0|0:0|0:0,0:0:0:0:
300,228,76885,2,0,L|308:268,3,37.5000014305115,8|0|0|0,1:0|0:0|0:0|0:0,0:0:0:0:
132,152,77260,6,0,L|124:192,3,37.5000014305115,8|0|0|0,1:0|0:0|0:0|0:0,0:0:0:0:
192,252,77635,2,0,L|200:292,3,37.5000014305115,8|0|0|0,1:0|0:0|0:0|0:0,0:0:0:0:
24,176,78010,22,0,L|16:216,3,37.5000014305115,8|0|0|0,1:0|0:0|0:0|0:0,0:0:0:0:
84,276,78385,2,0,L|92:316,3,37.5000014305115,8|0|0|0,1:0|0:0|0:0|0:0,0:0:0:0:
132,152,78760,5,8,1:0:0:0:
140,132,78853,1,0,0:0:0:0:
148,112,78947,1,0,0:0:0:0:
156,92,79041,1,0,0:0:0:0:
244,40,79135,5,8,1:0:0:0:
256,60,79229,1,0,0:0:0:0:
268,80,79323,1,0,0:0:0:0:
280,100,79416,1,0,0:0:0:0:
376,144,79510,6,0,L|420:136,1,37.5000014305115,8|0,1:0|0:0,0:0:0:0:
512,228,79697,2,0,L|472:220,1,37.5000014305115,8|8,0:1|0:1,0:0:0:0:
344,264,79885,2,0,L|388:256,1,37.5000014305115,8|8,1:1|0:1,0:0:0:0:
500,344,80072,2,0,L|456:336,1,37.5000014305115,8|8,0:1|0:1,0:0:0:0:
344,264,80260,6,0,P|256:252|204:304,1,150.000005722046,4|0,0:0|0:0,0:0:0:0:
168,360,80541,1,2,0:0:0:0:
168,360,80635,2,0,L|156:204,1,150.000005722046,2|2,0:0|0:0,0:0:0:0:
60,116,81010,1,0,0:0:0:0:
32,128,81103,1,2,0:0:0:0:
144,40,81291,1,0,0:0:0:0:
176,48,81385,1,2,0:0:0:0:
324,44,81572,2,0,L|280:56,3,37.5000014305115,2|0|0|0,0:0|0:0|0:0|0:0,0:0:0:0:
352,32,81760,6,0,L|332:140,1,100,12|0,0:0|0:0,0:0:0:0:
360,212,82041,1,0,0:0:0:0:
372,240,82135,1,10,0:0:0:0:
472,124,82322,1,0,0:0:0:0:
352,32,82510,6,0,L|332:140,1,100,12|0,0:0|0:0,0:0:0:0:
360,212,82791,1,0,0:0:0:0:
372,240,82885,2,0,P|428:256|472:240,1,100,10|0,0:0|0:0,0:0:0:0:
252,340,83260,2,0,L|264:188,1,150,14|0,0:0|0:0,0:0:0:0:
112,256,83635,2,0,B|152:264|176:232|176:232|184:160,1,100,10|0,0:0|0:0,0:0:0:0:
32,212,84010,2,0,P|20:244|44:320,1,100,10|0,0:0|0:0,0:0:0:0:
108,168,84291,1,0,0:0:0:0:
96,148,84385,2,0,P|52:112|8:108,1,100,12|0,0:0|0:0,0:0:0:0:
208,184,84760,6,0,P|260:192|304:168,1,100,12|0,0:0|0:0,0:0:0:0:
364,108,85041,1,0,0:0:0:0:
380,84,85135,2,0,L|392:184,1,100,10|0,0:0|0:0,0:0:0:0:
300,360,85510,6,0,L|312:256,1,100,12|0,0:0|0:0,0:0:0:0:
236,196,85791,1,0,0:0:0:0:
208,184,85885,2,0,P|148:176|92:200,1,100,10|0,0:0|0:0,0:0:0:0:
160,336,86260,2,0,P|188:328|128:292,1,150,12|0,0:0|0:0,0:0:0:0:
80,328,86635,2,0,P|32:344|-24:336,1,100,10|0,0:0|0:0,0:0:0:0:
12,148,87010,2,0,L|24:256,1,100,10|8,0:0|0:0,0:0:0:0:
100,88,87291,5,8,0:0:0:0:
100,88,87385,2,0,L|108:168,1,75.0000028610231,12|8,0:0|0:0,0:0:0:0:
220,172,87572,2,0,L|212:248,1,75.0000028610231,8|8,0:0|0:0,0:0:0:0:
252,336,87760,6,0,P|304:352|380:288,1,150,12|0,0:0|0:0,0:0:0:0:
388,216,88135,2,0,L|384:320,1,100,10|0,0:0|0:0,0:0:0:0:
264,96,88510,6,0,P|212:80|136:144,1,150,12|0,0:0|0:0,0:0:0:0:
128,216,88885,2,0,L|132:112,1,100,10|0,0:0|0:0,0:0:0:0:
200,280,89260,1,10,0:0:0:0:
172,296,89541,1,0,0:0:0:0:
200,280,89635,2,0,P|224:224|220:180,1,100,10|0,0:0|0:0,0:0:0:0:
148,124,90010,2,0,P|84:124|32:200,1,150,10|0,0:0|0:0,0:0:0:0:
24,268,90385,6,0,L|36:372,1,100,12|0,0:0|0:0,0:0:0:0:
264,304,90760,6,0,P|208:316|164:292,1,100,12|0,0:0|0:0,0:0:0:0:
116,240,91041,1,0,0:0:0:0:
104,160,91135,2,0,P|112:108|148:72,1,100,10|0,0:0|0:0,0:0:0:0:
304,56,91510,2,0,P|364:68|396:108,1,100,14|0,0:0|0:0,0:0:0:0:
392,176,91791,1,0,0:0:0:0:
316,140,91885,2,0,L|308:28,1,100,10|0,0:0|0:0,0:0:0:0:
316,228,92260,5,8,0:0:0:0:
324,260,92353,1,8,0:0:0:0:
332,292,92447,1,8,0:0:0:0:
340,324,92541,1,8,0:0:0:0:
256,368,92635,5,8,0:0:0:0:
248,336,92729,1,8,0:0:0:0:
240,304,92823,1,8,0:0:0:0:
232,272,92916,1,8,0:0:0:0:
160,336,93010,6,0,L|100:325,1,59.9999981689454,8|8,0:0|0:0,0:0:0:0:
0,232,93197,2,0,L|59:221,1,59.9999981689454,8|8,0:0|0:0,0:0:0:0:
128,148,93385,5,8,0:0:0:0:
148,100,93478,1,8,0:0:0:0:
192,72,93572,1,8,0:0:0:0:
244,68,93666,1,8,0:0:0:0:
292,80,93760,6,0,P|360:148|456:108,1,200,12|10,0:0|0:0,0:0:0:0:
380,64,94322,1,2,0:0:0:0:
380,64,94697,1,2,0:0:0:0:
480,188,94885,1,10,0:0:0:0:
380,64,95072,1,2,0:0:0:0:
428,288,95260,22,0,P|376:312|280:224,1,200,12|10,0:0|0:0,0:0:0:0:
368,228,95822,1,2,0:0:0:0:
368,228,96197,1,2,0:0:0:0:
336,144,96384,1,8,0:0:0:0:
380,64,96572,1,2,0:0:0:0:
252,124,96760,6,0,P|184:140|112:40,1,200,14|10,0:0|0:0,0:0:0:0:
32,144,97322,1,2,0:0:0:0:
32,144,97697,1,2,0:0:0:0:
92,280,97885,1,10,0:0:0:0:
32,144,98072,1,2,0:0:0:0:
92,280,98260,38,2,P|120:232|208:228,1,150,10|0,0:0|0:0,0:0:0:0:
232,248,98635,2,2,P|288:280|372:224,1,172.500003290176,10|2,0:0|0:0,0:0:0:0:
376,196,99010,2,2,B|384:136|384:136|356:64|356:64|364:4,1,194.999991073609,10|0,0:0|0:0,0:0:0:0:
436,68,99385,2,2,P|360:96|268:8,1,217.500006637573,10|0,0:0|0:0,0:0:0:0:
268,12,99760,6,0,L|284:172,1,150,12|0,0:0|2:0,0:0:0:0:
232,232,100135,2,0,P|180:240|136:224,1,100,10|2,0:0|0:0,0:0:0:0:
136,224,100697,1,2,0:0:0:0:
196,140,100885,1,10,0:0:0:0:
232,232,101072,1,2,0:0:0:0:
96,132,101260,6,0,P|124:68|248:52,1,200,12|10,0:0|0:0,0:0:0:0:
296,128,101822,1,2,0:0:0:0:
296,128,102197,1,2,0:0:0:0:
232,232,102385,1,10,0:0:0:0:
152,48,102572,1,2,0:0:0:0:
344,228,102760,6,0,B|374:223|396:208|396:208|440:236|496:220|496:220|504:176,1,200,12|10,0:0|0:0,0:0:0:0:
456,96,103322,1,2,0:0:0:0:
456,96,103697,1,2,0:0:0:0:
368,112,103885,1,8,0:0:0:0:
284,128,104072,1,2,0:0:0:0:
464,76,104260,5,10,0:0:0:0:
376,92,104447,1,0,0:0:0:0:
292,108,104635,1,10,0:0:0:0:
292,108,105010,6,0,L|240:96,3,50,8|8|8|8,0:0|0:0|0:0|0:0,0:0:0:0:
72,172,105385,2,0,L|124:160,1,50,8|8,0:0|0:0,0:0:0:0:
268,212,105572,2,0,L|216:200,1,50,8|8,0:0|0:0,0:0:0:0:
64,324,105760,5,2,0:0:0:0:
88,320,105947,1,0,0:0:0:0:
112,316,106135,5,2,0:0:0:0:
136,312,106322,1,0,0:0:0:0:
160,308,106510,5,2,0:0:0:0:
184,304,106697,1,2,0:0:0:0:
208,300,106885,5,0,0:0:0:0:
232,296,107072,1,0,0:0:0:0:
256,292,107260,21,2,0:0:0:0:
280,288,107447,1,2,0:0:0:0:
304,284,107635,5,0,0:0:0:0:
328,280,107822,1,0,0:0:0:0:
352,276,108010,5,2,0:0:0:0:
