osu file format v12

[General]
AudioFilename: Hana Ranman -Flowers- (2nd EDITION).ogg
AudioLeadIn: 1500
PreviewTime: 37510
Countdown: 0
SampleSet: Soft
StackLeniency: 0.4
Mode: 0
LetterboxInBreaks: 1
WidescreenStoryboard: 1

[Editor]
Bookmarks: 80260
DistanceSpacing: 0.8
BeatDivisor: 4
GridSize: 4

[Metadata]
Title:Hana Ranman -Flowers- (2nd Edition .Ver)
TitleUnicode:花爛漫 -Flowors- (2nd EDITION)
Artist:TERRA
ArtistUnicode:TERRA
Creator:[ Lost ]
Version:Kanto's Hyper
Source:Reflec Beat
Tags:Reflec Beat Nichiyouki kantokun P_A_N PAN -_N_a_n_a_k_a_- Nanaka Soldsaga Kung SoldsagaKung Betsuto P_KunG PKung
BeatmapID:333462
BeatmapSetID:131600

[Difficulty]
HPDrainRate:6
CircleSize:4
OverallDifficulty:6
ApproachRate:8
SliderMultiplier:1.4
SliderTickRate:1

[Events]
//Background and Video events
0,0,"bg.png",0,0
//Break Periods
2,50460,60947
//Storyboard Layer 0 (Background)
//Storyboard Layer 1 (Fail)
//Storyboard Layer 2 (Pass)
//Storyboard Layer 3 (Foreground)
//Storyboard Sound Samples
//Background Colour Transformations
3,100,0,0,0

[TimingPoints]
-740,375,4,2,4,60,1,0
384,-117.647058823529,4,2,4,60,0,0
3385,-117.647058823529,4,2,4,40,0,0
3478,-117.647058823529,4,2,4,60,0,0
6010,-200,4,2,4,60,0,0
8260,-100,4,1,4,60,0,0
13885,-100,4,2,3,60,0,0
13978,-100,4,1,4,60,0,0
14260,-100,4,1,4,80,0,1
14353,-100,4,1,4,80,0,0
25885,-100,4,2,3,80,0,0
25978,-100,4,1,4,80,0,0
31603,-100,4,1,0,80,0,0
31697,-100,4,1,4,80,0,0
31885,-100,4,1,0,80,0,0
32260,-100,4,1,4,80,0,0
36385,-100,4,1,0,80,0,0
36760,-100,4,1,4,80,0,0
37510,-100,4,2,4,5,0,0
37697,-66.6666666666667,4,1,0,40,0,0
37885,-100,4,2,3,80,0,0
38260,-100,4,1,4,80,0,1
50260,-100,4,1,4,80,0,0
67510,-200,4,1,4,80,0,0
68260,-200,4,2,3,40,0,0
68353,-200,4,2,4,30,0,0
75385,-117.647058823529,4,1,4,60,0,0
80260,-133.333333333333,4,2,4,80,0,0
81572,-83.3333333333333,4,2,2,30,0,0
81666,-83.3333333333333,4,2,2,50,0,0
81760,-100,4,1,4,80,0,1
93666,-100,4,1,4,80,0,0
93760,-100,4,1,4,80,0,1
93853,-100,4,1,4,80,0,0
105760,-200,4,2,4,50,0,0
108010,-200,4,2,4,50,0,1
108103,-200,4,1,4,50,0,0

[Colours]
Combo1 : 128,255,255
Combo2 : 255,128,255
Combo3 : 170,170,255

[HitObjects]
96,156,385,2,0,L|100:236,1,59.5000011348724,4|0,0:0|0:0,0:0:0:0:
156,292,760,6,0,P|224:316|288:284,2,119.000002269745,4|0|2,0:0|1:0|0:0,0:0:0:0:
96,156,1885,1,0,1:0:0:0:
156,292,2260,5,2,0:0:0:0:
96,156,2635,1,0,1:0:0:0:
200,32,3010,2,0,L|336:40,1,119.000002269745,2|8,0:0|1:2,0:0:0:0:
384,168,3760,6,0,P|368:232|392:288,2,119.000002269745,2|0|2,0:0|1:0|0:0,0:0:0:0:
460,224,4885,1,0,1:0:0:0:
296,208,5260,5,2,0:0:0:0:
396,72,5635,1,0,1:0:0:0:
384,168,6010,5,2,0:0:0:0:
256,192,6103,12,0,7885,0:0:0:0:
96,176,8260,6,0,P|148:192|224:140,1,140,4|8,0:2|0:0,0:0:0:0:
228,60,8822,1,0,2:0:0:0:
144,100,9010,2,0,L|156:256,1,140,2|8,0:0|0:0,0:0:0:0:
64,248,9572,1,0,2:0:0:0:
112,328,9760,6,0,P|148:332|184:328,1,70,2|0,0:0|2:0,0:0:0:0:
267,303,10135,2,0,P|304:300|336:304,1,70,8|0,0:0|2:0,0:0:0:0:
416,360,10510,1,2,0:0:0:0:
416,360,10697,1,0,2:0:0:0:
496,316,10885,2,0,L|500:244,1,70,8|0,0:0|2:0,0:0:0:0:
456,160,11260,6,0,P|384:180|324:144,1,140,2|8,0:0|0:0,0:0:0:0:
396,24,11822,2,0,P|400:64|400:96,1,70,0|2,2:0|0:0,0:0:0:0:
248,192,12197,2,0,P|244:152|244:120,1,70,0|8,2:0|0:0,0:0:0:0:
304,52,12572,1,0,2:0:0:0:
232,136,12760,6,0,P|160:148|100:100,1,140,2|8,0:0|0:0,0:0:0:0:
32,172,13322,2,0,L|36:248,1,70,0|2,2:0|0:0,0:0:0:0:
52,360,13697,2,0,L|64:320,2,35,8|8|12,0:0|0:0|0:0,0:0:0:0:
152,284,14072,2,0,L|144:240,2,35,8|8|12,0:0|0:0|0:0,0:0:0:0:
304,336,14635,6,0,L|376:328,1,70,8|0,0:0|2:0,0:0:0:0:
464,320,15010,2,0,L|448:168,1,140,10|8,0:0|0:0,0:0:0:0:
440,88,15572,1,2,2:0:0:0:
440,88,15947,5,0,2:0:0:0:
376,160,16135,1,8,0:0:0:0:
280,144,16322,1,0,2:0:0:0:
240,56,16510,2,0,L|160:48,1,70,10|0,0:0|2:0,0:0:0:0:
24,128,16885,2,0,L|96:120,1,70,8|0,0:0|2:0,0:0:0:0:
128,248,17260,6,0,P|56:264|0:224,2,140,8|10|10,0:0|0:0|0:0,0:0:0:0:
184,168,18197,2,0,L|176:240,1,70,0|8,2:0|0:0,0:0:0:0:
231,312,18572,1,0,2:0:0:0:
320,320,18760,6,0,P|360:328|392:328,1,70,10|0,0:0|2:0,0:0:0:0:
472,224,19135,2,0,P|432:216|400:216,1,70,8|0,0:0|2:0,0:0:0:0:
312,176,19510,2,0,L|304:112,3,35,10|0|2|0,0:0|0:0|0:0|0:0,0:0:0:0:
280,112,19885,2,0,L|272:48,3,35,10|0|2|0,0:0|0:0|0:0|0:0,0:0:0:0:
248,48,20260,6,0,P|216:80|120:72,1,140,14|8,0:0|0:0,0:0:0:0:
88,8,20822,1,0,2:0:0:0:
96,96,21010,2,0,L|112:248,1,140,10|8,0:0|0:0,0:0:0:0:
128,320,21572,1,2,2:0:0:0:
128,320,21947,6,0,P|88:312|56:312,2,70,0|8|0,2:0|0:0|2:0,0:0:0:0:
208,360,22510,2,0,P|232:364|252:364,1,35,10|0,0:0|0:0,0:0:0:0:
272,360,22697,2,0,P|292:352|308:340,1,35,2|0,0:0|0:0,0:0:0:0:
324,324,22885,2,0,P|336:308|344:288,1,35,10|0,0:0|0:0,0:0:0:0:
348,268,23072,2,0,P|352:244|352:224,1,35,2|0,0:0|0:0,0:0:0:0:
344,208,23260,6,0,L|488:232,1,140,12|8,0:0|0:0,0:0:0:0:
272,144,23822,2,0,L|192:160,1,70,0|10,2:0|0:0,0:0:0:0:
203,157,24385,1,8,0:0:0:0:
128,104,24572,6,0,P|80:168|88:232,1,140,2|0,2:0|2:0,0:0:0:0:
144,296,25135,2,0,L|136:368,1,70,8|0,0:0|2:0,0:0:0:0:
240,328,25510,1,10,0:0:0:0:
336,360,25697,6,0,L|376:368,2,35,8|8|14,0:0|0:0|0:0,0:0:0:0:
496,312,26072,2,0,L|448:320,2,35,8|8|12,0:0|0:0|0:0,0:0:0:0:
472,152,26635,6,0,P|400:176|336:144,1,140,10|8,0:0|0:0,0:0:0:0:
320,64,27197,1,0,2:0:0:0:
400,16,27385,2,0,L|408:96,1,70,10|0,0:0|2:0,0:0:0:0:
468,292,27760,6,0,L|476:140,2,140,8|10|8,0:0|0:0|0:0,0:0:0:0:
376,264,28697,2,0,B|352:264|352:264|320:272|320:272|296:272,1,70,0|10,2:0|0:0,0:0:0:0:
248,208,29072,1,0,2:0:0:0:
237,344,29260,6,0,P|296:377|360:352,2,140,8|10|8,0:0|0:0|0:0,0:0:0:0:
160,288,30197,2,0,P|120:280|72:280,2,70,0|10|0,2:0|0:0|2:0,0:0:0:0:
240,344,30760,6,0,P|280:352|312:352,1,70,8|0,0:0|2:0,0:0:0:0:
328,184,31135,2,0,P|288:176|256:176,1,70,10|0,0:0|2:0,0:0:0:0:
280,264,31510,1,10,0:0:0:0:
280,264,31603,1,0,0:0:0:0:
408,328,31791,1,0,0:0:0:0:
408,328,31885,2,0,L|480:320,1,70,0|0,0:0|0:0,0:0:0:0:
512,184,32260,6,0,L|344:200,1,140,12|10,0:0|0:0,0:0:0:0:
296,136,32822,2,0,P|288:96|288:56,1,70,0|8,2:0|0:0,0:0:0:0:
392,96,33197,1,0,2:0:0:0:
288,232,33385,2,0,P|248:232|208:224,1,70,10|0,0:0|2:0,0:0:0:0:
144,168,33760,6,0,L|-16:184,1,140,8|10,0:0|0:0,0:0:0:0:
48,288,34322,2,0,L|120:280,1,70,0|8,2:0|0:0,0:0:0:0:
224,312,34697,1,0,2:0:0:0:
288,232,34885,2,0,P|296:192|296:160,1,70,10|0,0:0|2:0,0:0:0:0:
240,88,35260,6,0,P|304:128|368:112,2,140,8|10|8,0:0|0:0|0:0,0:0:0:0:
152,56,36197,2,0,L|72:64,1,70,0|2,2:0|0:2,0:0:0:0:
74,81,36478,1,8,0:3:0:0:
66,97,36572,1,4,0:3:0:0:
58,113,36666,1,4,0:3:0:0:
50,129,36760,5,8,0:0:0:0:
136,280,37135,2,0,P|168:216|96:240,1,175,4|0,0:0|0:0,0:0:0:0:
72,240,37697,6,0,L|36:236,4,26.2500010013581,2|0|0|0|4,0:2|0:2|0:2|0:2|1:2,0:0:0:0:
208,128,38260,2,0,P|280:88|344:112,1,140,14|10,0:0|0:0,0:0:0:0:
376,184,38822,1,0,2:0:0:0:
280,184,39010,2,0,L|272:40,1,140,10|10,0:0|0:0,0:0:0:0:
160,16,39572,1,0,2:0:0:0:
96,112,39760,6,0,P|144:128|208:112,1,105,10|0,0:0|2:0,0:0:0:0:
196,118,40135,2,0,L|192:192,1,70,10|0,0:0|2:0,0:0:0:0:
88,208,40510,2,0,L|83:281,1,70,10|0,0:0|2:0,0:0:0:0:
240,288,40885,2,0,L|235:361,1,70,14|0,0:0|2:0,0:0:0:0:
320,304,41260,6,0,P|360:288|448:336,1,140,14|10,0:0|0:0,0:0:0:0:
368,376,41822,1,0,2:0:0:0:
368,376,42010,2,0,L|376:232,1,140,10|10,0:0|0:0,0:0:0:0:
432,160,42572,1,0,2:0:0:0:
296,184,42760,6,0,P|248:168|192:176,1,105,10|0,0:0|2:0,0:0:0:0:
176,200,43135,2,0,L|184:120,1,70,10|0,0:0|2:0,0:0:0:0:
40,88,43510,2,0,L|112:64,1,70,10|0,0:0|2:0,0:0:0:0:
208,24,43885,1,14,0:0:0:0:
288,80,44072,1,0,2:0:0:0:
384,40,44260,6,0,P|424:32|408:104,1,140,14|10,0:0|0:0,0:0:0:0:
336,160,44822,2,0,P|328:192|328:232,1,70,0|10,2:0|0:0,0:0:0:0:
208,208,45197,2,0,P|216:232|248:272,1,70,0|10,2:0|0:0,0:0:0:0:
152,352,45572,2,0,P|192:360|224:360,1,70,0|10,2:0|0:0,0:0:0:0:
384,272,46041,5,0,2:0:0:0:
384,272,46135,2,0,L|376:344,1,70,10|0,0:0|2:0,0:0:0:0:
448,184,46510,1,10,0:0:0:0:
448,184,46603,2,0,L|440:112,1,70,0|0,2:0|2:0,0:0:0:0:
437,93,46885,2,0,P|400:88|368:88,1,70,14|0,0:0|2:0,0:0:0:0:
272,112,47260,6,0,P|312:112|304:32,1,140,12|10,0:0|0:0,0:0:0:0:
208,32,47822,1,0,2:0:0:0:
184,128,48010,2,0,L|192:200,1,70,10|0,0:0|2:0,0:0:0:0:
72,320,48385,2,0,L|80:248,1,70,10|0,0:0|2:0,0:0:0:0:
184,320,48760,6,0,P|240:344|296:320,1,105,14|8,0:0|0:0,0:0:0:0:
304,312,49135,2,0,L|392:320,1,70,10|8,0:0|0:0,0:0:0:0:
464,328,49510,1,14,0:0:0:0:
312,184,49885,1,10,0:0:0:0:
512,128,50260,5,14,0:0:0:0:
112,112,61697,6,0,L|72:120,2,35,10|8|8,0:0|0:0|0:0,0:0:0:0:
216,160,62072,2,0,L|256:168,2,35,10|8|12,0:0|0:0|0:0,0:0:0:0:
88,320,62635,6,0,L|160:312,1,70,10|0,0:0|0:0,0:0:0:0:
232,256,63010,2,0,P|272:248|352:320,1,140,10|8,0:0|0:0,0:0:0:0:
264,344,63572,1,0,0:0:0:0:
432,336,63760,6,0,P|440:304|432:264,1,70,10|0,0:0|0:0,0:0:0:0:
344,224,64135,2,0,P|336:256|344:296,1,70,10|0,0:0|0:0,0:0:0:0:
432,168,64510,2,0,P|368:120|296:136,1,140,10|14,0:0|0:0,0:0:0:0:
280,224,65072,1,0,0:0:0:0:
216,152,65260,6,0,B|200:120|216:72|216:72|176:72|176:120,1,140,14|10,0:0|0:0,0:0:0:0:
136,184,65822,1,0,0:0:0:0:
296,112,66010,2,0,L|400:120,1,105,10|0,0:0|0:0,0:0:0:0:
424,112,66385,2,0,P|432:72|432:40,1,70,10|8,0:0|0:0,0:0:0:0:
432,42,66666,5,8,0:0:0:0:
432,42,66760,1,8,0:0:0:0:
392,208,67135,1,12,0:0:0:0:
464,344,67510,6,0,L|504:352,1,35,2|0,0:0|0:0,0:0:0:0:
376,304,67885,2,0,L|336:312,1,35,10|0,0:0|0:0,0:0:0:0:
256,328,68260,1,14,0:0:0:0:
256,192,68353,12,12,69760,0:0:0:0:
96,80,70135,6,0,L|88:32,1,35,8|0,0:0|0:0,0:0:0:0:
96,80,71260,1,8,0:0:0:0:
200,168,71635,2,0,P|248:176|280:168,1,70,2|0,0:0|0:0,0:0:0:0:
352,136,72385,1,8,0:0:0:0:
440,152,72760,5,8,0:0:0:0:
416,64,73135,2,0,L|424:24,1,35,8|0,0:0|0:0,0:0:0:0:
480,240,74260,2,0,P|432:248|400:240,2,70,10|0|2,0:0|0:0|0:0,0:0:0:0:
304,160,75385,5,8,0:0:0:0:
224,224,75572,1,8,0:0:0:0:
224,224,75666,1,8,0:0:0:0:
224,224,75760,2,0,L|104:216,1,119.000002269745,12|8,0:0|0:0,0:0:0:0:
40,64,76510,2,0,L|160:72,1,119.000002269745,8|8,0:0|0:0,0:0:0:0:
256,104,77072,1,0,2:0:0:0:
328,40,77260,6,0,P|336:8|336:-24,1,59.5000011348725,8|0,0:0|2:0,0:0:0:0:
344,128,77635,2,0,P|376:152|400:160,1,59.5000011348725,8|0,0:0|2:0,0:0:0:0:
256,104,78010,2,0,P|216:112|200:120,1,59.5000011348725,8|0,0:0|3:0,0:0:0:0:
88,128,78385,2,0,P|80:160|80:192,1,59.5000011348725,8|0,0:0|2:0,0:0:0:0:
136,264,78760,6,0,L|8:248,2,119.000002269745,8|8|8,0:0|0:0|0:0,0:0:0:0:
240,224,79697,1,8,0:0:0:0:
248,208,79791,1,8,0:0:0:0:
256,192,79885,2,0,L|296:184,3,29.7500005674362,8|8|8|8,0:0|0:0|0:0|0:0,0:0:0:0:
312,200,80260,6,0,P|360:216|392:208,1,78.7500030040742,2|0,0:0|0:0,0:0:0:0:
416,200,80635,2,0,L|488:208,1,52.5000020027161,2|2,0:0|0:0,0:0:0:0:
456,104,81010,1,0,0:0:0:0:
456,104,81103,1,2,0:0:0:0:
368,40,81291,1,0,0:0:0:0:
368,40,81385,1,2,0:0:0:0:
280,104,81572,2,0,L|256:100,4,20.9999993591309,0|0|0|0|4,1:0|1:0|1:0|1:0|0:0,0:0:0:0:
80,256,82135,6,0,L|72:168,1,70,10|0,0:0|0:0,0:0:0:0:
112,96,82510,2,0,P|176:112|224:88,1,105,10|0,0:0|0:0,0:0:0:0:
232,80,82885,2,0,L|216:152,1,70,10|0,0:0|0:0,0:0:0:0:
192,240,83260,6,0,L|304:224,1,105,10|0,0:0|0:0,0:0:0:0:
328,240,83635,2,0,P|336:272|336:312,1,70,10|0,0:0|0:0,0:0:0:0:
264,360,84010,1,10,0:0:0:0:
448,64,84385,1,14,0:0:0:0:
448,64,84572,1,0,0:0:0:0:
448,64,84760,5,14,0:0:0:0:
264,144,85135,1,10,0:0:0:0:
264,144,85322,1,0,0:0:0:0:
264,144,85510,1,10,0:0:0:0:
432,264,85885,1,10,0:0:0:0:
432,264,86072,1,0,0:0:0:0:
432,264,86260,6,0,L|440:160,1,105,10|0,0:0|0:0,0:0:0:0:
440,128,86635,2,0,L|368:144,1,70,10|0,0:0|0:0,0:0:0:0:
264,144,87010,2,0,P|216:136|184:104,1,70,10|8,0:0|0:0,0:0:0:0:
80,152,87385,2,0,L|16:160,2,35,14|8|8,0:0|0:0|0:0,0:0:0:0:
64,272,87760,6,0,L|224:248,1,140,14|10,0:0|0:0,0:0:0:0:
296,288,88322,1,0,0:0:0:0:
296,288,88510,1,10,0:0:0:0:
464,344,88885,2,0,L|472:272,1,70,10|0,0:0|0:0,0:0:0:0:
448,176,89260,6,0,P|408:160|344:176,1,105,10|0,0:0|0:0,0:0:0:0:
320,192,89635,2,0,L|248:184,2,70,10|0|10,0:0|0:0|0:0,0:0:0:0:
56,304,90385,6,0,L|128:296,2,70,14|0|14,0:0|0:0|0:0,0:0:0:0:
320,192,91135,2,0,L|248:184,2,70,10|0|10,0:0|0:0|0:0,0:0:0:0:
8,192,91885,2,0,L|80:184,1,70,10|0,0:0|0:0,0:0:0:0:
144,64,92260,6,0,L|184:72,3,35,10|8|10|8,0:0|0:0|0:0|0:0,0:0:0:0:
216,88,92635,2,0,L|256:80,3,35,10|10|10|10,0:0|0:0|0:0|0:0,0:0:0:0:
288,56,93010,6,0,L|328:64,3,35,8|10|8|8,0:0|0:0|0:0|0:0,0:0:0:0:
360,80,93385,2,0,L|400:72,3,35,10|8|10|10,0:0|0:0|0:0|0:0,0:0:0:0:
424,64,93760,6,0,L|408:208,1,140,12|10,0:0|0:0,0:0:0:0:
400,296,94322,1,2,0:0:0:0:
400,296,94697,2,0,P|408:336|408:368,2,70,2|10|0,0:0|0:0|0:0,0:0:0:0:
336,232,95260,6,0,P|256:240|208:208,1,140,10|10,0:0|0:0,0:0:0:0:
288,144,95822,1,2,0:0:0:0:
288,144,96197,2,0,P|296:104|296:64,2,70,2|10|0,0:0|0:0|0:0,0:0:0:0:
208,88,96760,6,0,L|64:104,1,140,10|10,0:0|0:0,0:0:0:0:
40,208,97322,2,0,L|184:192,1,140,2|2,0:0|0:0,0:0:0:0:
248,248,97885,2,0,P|256:288|256:320,1,70,10|0,0:0|0:0,0:0:0:0:
160,296,98260,5,10,0:0:0:0:
360,328,98635,1,8,0:0:0:0:
392,112,99010,1,10,0:0:0:0:
192,80,99385,1,10,0:0:0:0:
344,192,99760,6,0,P|384:208|472:160,1,140,14|10,0:0|0:0,0:0:0:0:
480,80,100322,1,2,0:0:0:0:
480,80,100697,2,0,P|472:24|472:8,2,70,2|10|2,0:0|0:0|0:0,0:0:0:0:
466,169,101260,6,0,P|410:207|344:192,1,140,10|10,0:0|0:0,0:0:0:0:
272,136,101822,2,0,P|232:120|144:168,1,140,2|2,0:0|0:0,0:0:0:0:
216,272,102385,2,0,L|224:192,1,70,10|0,0:0|0:0,0:0:0:0:
288,336,102760,5,10,0:0:0:0:
288,336,103135,1,10,0:0:0:0:
288,336,103322,2,0,P|360:360|408:320,1,140,2|2,0:0|0:0,0:0:0:0:
432,240,103885,2,0,L|424:160,1,70,10|0,0:0|0:0,0:0:0:0:
304,144,104260,6,0,L|312:72,2,70,10|0|10,0:0|0:0|0:0,0:0:0:0:
144,280,105010,2,0,L|152:320,7,35,8|8|8|8|8|8|8|8,0:0|0:0|0:0|0:0|0:0|0:0|0:0|0:0,0:0:0:0:
176,336,105760,6,0,P|196:348|216:352,1,35,2|0,0:0|0:0,0:0:0:0:
240,356,106135,6,0,P|264:356|288:352,1,35
316,344,106510,6,0,P|336:332|352:312,1,35,2|2,0:0|0:0,0:0:0:0:
368,284,106885,6,0,P|372:268|372:244,1,35,0|0,0:0|0:0,0:0:0:0:
352,176,107260,6,0,P|348:156|348:140,1,35,2|2,0:0|0:0,0:0:0:0:
396,72,107635,6,0,L|440:76,2,35,0|0|2,0:0|0:0|0:0,0:0:0:0:
