osu file format v14

[General]
AudioFilename: Hana Ranman -Flowers- (2nd EDITION).ogg
AudioLeadIn: 1500
PreviewTime: 37510
Countdown: 0
SampleSet: Soft
StackLeniency: 0.4
Mode: 0
LetterboxInBreaks: 1
WidescreenStoryboard: 1

[Editor]
DistanceSpacing: 0.5
BeatDivisor: 4
GridSize: 4
TimelineZoom: 1

[Metadata]
Title:Hana Ranman -Flowers- (2nd Edition .Ver)
TitleUnicode:花爛漫 -Flowors- (2nd EDITION)
Artist:TERRA
ArtistUnicode:TERRA
Creator:[ Lost ]
Version:Insane
Source:Reflec Beat
Tags:Reflec Beat Nichiyouki kantokun P_A_N PAN -_N_a_n_a_k_a_- Nanaka Soldsaga Kung SoldsagaKung Betsuto P_KunG PKung
BeatmapID:333461
BeatmapSetID:131600

[Difficulty]
HPDrainRate:7
CircleSize:4
OverallDifficulty:8
ApproachRate:9
SliderMultiplier:1.7
SliderTickRate:2

[Events]
//Background and Video events
0,0,"bg.png",0,0
//Break Periods
//Storyboard Layer 0 (Background)
//Storyboard Layer 1 (Fail)
//Storyboard Layer 2 (Pass)
//Storyboard Layer 3 (Foreground)
//Storyboard Sound Samples

[TimingPoints]
-740,375,4,2,1,80,1,0
1135,-100,4,2,2,80,0,0
1228,-100,4,2,1,80,0,0
1885,-100,4,2,2,80,0,0
1978,-100,4,2,1,80,0,0
2635,-100,4,2,2,80,0,0
2728,-100,4,2,1,80,0,0
3385,-133.333333333333,4,2,2,80,0,0
3478,-200,4,2,1,80,0,0
3760,-100,4,2,1,80,0,0
4135,-100,4,2,2,80,0,0
4228,-100,4,2,1,80,0,0
4885,-100,4,2,2,80,0,0
4978,-100,4,2,1,80,0,0
5635,-100,4,2,2,80,0,0
5728,-100,4,2,1,80,0,0
6103,-100,4,2,1,20,0,0
6385,-100,4,2,1,30,0,0
6760,-100,4,2,1,40,0,0
7135,-100,4,2,1,50,0,0
7510,-100,4,2,1,60,0,0
7885,-100,4,2,1,70,0,0
8072,-100,4,2,1,50,0,0
8260,-100,4,2,2,80,0,0
13885,-100,4,2,3,40,0,0
14072,-100,4,2,2,80,0,0
14260,-100,4,2,3,50,0,1
14353,-100,4,2,2,80,0,0
28885,-133.333333333333,4,2,2,80,0,0
29260,-100,4,2,2,80,0,0
31885,-71.4285714285714,4,2,2,80,0,0
32260,-100,4,2,2,80,0,0
36760,-200,4,2,2,80,0,0
37510,-100,4,2,2,60,0,0
37885,-100,4,2,1,70,0,0
38260,-100,4,2,2,80,0,1
50260,-100,4,2,3,40,0,0
51760,-200,4,2,3,5,0,0
60760,-100,4,2,2,80,0,0
68260,-200,4,2,2,10,0,0
69385,-100,4,2,1,80,0,0
69760,-200,4,2,1,80,0,0
75010,-100,4,2,2,60,0,0
75760,-100,4,2,2,80,0,1
80260,-100,4,2,1,80,0,0
81760,-100,4,2,2,80,0,1
93666,-100,4,2,2,80,0,0
93760,-100,4,2,2,80,0,1
93853,-100,4,2,2,80,0,0
98260,-100,4,2,2,80,0,0
98635,-83.3333333333333,4,2,2,80,0,0
99010,-66.6666666666667,4,2,2,80,0,0
99385,-100,4,2,2,80,0,0
105760,-200,4,2,3,50,0,0
108010,-200,4,2,2,50,0,1
108103,-200,4,2,2,50,0,0

[Colours]
Combo1 : 128,255,255
Combo2 : 255,128,255
Combo3 : 170,170,255

[HitObjects]
336,216,385,6,0,P|392:212|432:208,1,85,4|0,0:0|0:0,0:0:0:0:
300,136,760,2,0,P|260:168|272:280,1,170,4|0,0:0|0:0,0:0:0:0:
280,292,1510,5,2,0:0:0:0:
292,304,1885,1,0,0:0:0:0:
300,136,2260,1,2,0:0:0:0:
148,212,2635,1,0,0:0:0:0:
336,216,3010,1,2,0:0:0:0:
212,68,3385,6,0,P|206:100|204:132,1,63.7500024318696,0|0,0:0|0:0,0:0:0:0:
184,296,3760,6,0,P|160:244|36:248,1,170,2|0,0:0|0:0,0:0:0:0:
40,240,4510,5,2,0:0:0:0:
184,296,4885,1,0,0:0:0:0:
104,132,5260,1,2,0:0:0:0:
92,324,5635,1,0,0:0:0:0:
256,240,6010,5,2,0:0:0:0:
256,192,6103,12,0,8072,0:0:0:0:
24,172,8260,6,0,P|76:188|160:116,1,170,4|10,0:0|0:0,0:0:0:0:
256,24,8822,1,0,0:0:0:0:
264,40,8916,1,0,0:0:0:0:
272,56,9010,2,0,L|268:108|264:160,1,85,0|0,0:0|0:0,0:0:0:0:
336,292,9385,2,0,P|344:232|320:200,1,85,10|0,0:0|0:0,0:0:0:0:
209,307,9760,6,0,P|265:299|345:291,1,127.5,0|0,0:0|0:0,0:0:0:0:
365,307,10135,2,0,P|409:315|465:319,1,85,10|0,0:0|0:0,0:0:0:0:
333,212,10510,5,0,0:0:0:0:
296,372,10697,1,0,0:0:0:0:
420,232,10885,1,8,0:0:0:0:
240,120,11072,1,8,0:0:0:0:
224,136,11166,1,0,0:0:0:0:
213,151,11260,6,0,L|225:271|229:311,1,127.5,4|0,0:0|0:0,0:0:0:0:
209,307,11635,2,0,P|157:335|113:327,1,85,10|0,0:0|0:0,0:0:0:0:
76,180,12010,2,0,P|114:197|137:232,1,85,0|0,0:0|0:0,0:0:0:0:
28,360,12385,2,0,P|24:318|42:280,1,85,10|0,0:0|0:0,0:0:0:0:
213,151,12760,5,0,0:0:0:0:
42,280,12947,1,0,0:0:0:0:
209,307,13135,5,10,0:0:0:0:
128,100,13322,1,0,0:0:0:0:
264,228,13510,6,0,P|306:221|348:215,1,85,0|8,0:0|0:0,0:0:0:0:
360,224,13791,1,8,0:0:0:0:
372,232,13885,1,12,0:0:0:0:
209,307,14072,1,8,0:0:0:0:
209,307,14166,1,8,0:0:0:0:
209,307,14260,6,0,P|163:247|179:179,1,127.5,12|0,0:0|0:0,0:0:0:0:
184,180,14635,2,0,P|141:173|99:167,1,85,10|2,0:0|0:0,0:0:0:0:
244,64,15010,5,2,0:0:0:0:
264,228,15197,1,0,0:0:0:0:
99,167,15385,1,10,0:0:0:0:
336,20,15572,1,2,0:0:0:0:
336,20,15666,1,0,0:0:0:0:
336,20,15760,6,0,P|328:76|316:148,1,127.5,0|0,0:0|0:0,0:0:0:0:
328,180,16135,2,0,P|380:204|420:192,1,85,10|2,0:0|0:0,0:0:0:0:
436,184,16416,1,0,0:0:0:0:
405,199,16510,1,2,0:0:0:0:
384,228,16603,1,0,0:0:0:0:
376,260,16697,1,0,0:0:0:0:
380,292,16791,1,0,0:0:0:0:
396,324,16885,1,8,0:0:0:0:
424,344,16978,1,0,0:0:0:0:
456,348,17072,1,0,0:0:0:0:
488,344,17166,1,0,0:0:0:0:
460,324,17260,6,0,P|376:332|320:336,1,127.5,4|0,0:0|0:0,0:0:0:0:
300,328,17635,2,0,P|257:321|215:315,1,85,10|2,0:0|0:0,0:0:0:0:
103,317,18010,1,2,0:0:0:0:
267,221,18198,1,0,0:0:0:0:
103,126,18385,1,10,0:0:0:0:
215,315,18572,1,2,0:0:0:0:
214,40,18760,6,0,P|211:82|215:125,1,85,0|2,0:0|0:0,0:0:0:0:
360,160,19135,2,0,P|362:117|359:75,1,85,10|2,0:0|0:0,0:0:0:0:
51,220,19510,5,12,0:0:0:0:
68,248,19603,1,0,0:0:0:0:
84,276,19697,2,0,L|76:324,1,42.5,2|0,0:0|0:0,0:0:0:0:
103,126,19885,5,12,0:0:0:0:
120,98,19978,1,0,0:0:0:0:
136,70,20072,2,0,L|128:22,1,42.5,2|0,0:0|0:0,0:0:0:0:
147,206,20260,6,0,P|205:231|266:220,1,127.5,4|0,0:0|0:0,0:0:0:0:
300,232,20635,2,0,P|344:244|384:252,1,85,10|2,0:0|0:0,0:0:0:0:
215,125,21010,5,2,0:0:0:0:
184,302,21197,1,0,0:0:0:0:
269,55,21385,5,10,0:0:0:0:
300,232,21572,1,2,0:0:0:0:
128,172,21760,6,0,P|84:160|44:152,1,85,0|2,0:0|0:0,0:0:0:0:
332,136,22135,2,0,P|376:124|416:116,1,85,10|2,0:0|0:0,0:0:0:0:
269,55,22510,5,2,0:0:0:0:
240,72,22603,1,0,0:0:0:0:
220,104,22697,1,2,0:0:0:0:
212,136,22791,1,0,0:0:0:0:
220,168,22885,1,8,0:0:0:0:
236,200,22978,1,0,0:0:0:0:
264,220,23072,1,10,0:0:0:0:
296,228,23166,1,0,0:0:0:0:
328,224,23260,6,0,L|308:360,1,127.5,4|0,0:0|0:0,0:0:0:0:
328,324,23635,2,0,P|380:304|412:304,1,85,10|2,0:0|0:0,0:0:0:0:
332,136,24010,2,0,P|288:100|272:73,1,85,2|0,0:0|0:0,0:0:0:0:
164,228,24385,2,0,P|155:283|139:310,1,85,10|2,0:0|0:0,0:0:0:0:
60,232,24760,5,0,0:0:0:0:
208,364,24947,1,2,0:0:0:0:
32,208,25135,5,10,0:0:0:0:
260,144,25322,1,2,0:0:0:0:
164,228,25510,5,10,0:0:0:0:
140,204,25603,1,0,0:0:0:0:
128,172,25697,1,8,0:0:0:0:
124,140,25791,1,8,0:0:0:0:
132,108,25885,1,10,0:0:0:0:
148,80,25978,1,0,0:0:0:0:
176,60,26072,1,10,0:0:0:0:
208,48,26166,1,8,0:0:0:0:
244,48,26260,6,0,P|292:52|328:32,1,85,12|0,0:0|0:0,0:0:0:0:
456,196,26635,2,0,P|417:178|376:183,1,85,10|0,0:0|0:0,0:0:0:0:
436,96,27010,6,0,L|449:12,1,85,2|0,0:0|0:0,0:0:0:0:
292,224,27385,2,0,L|305:307,1,85,10|0,0:0|0:0,0:0:0:0:
392,380,27760,2,0,P|332:324|256:340,1,127.5,2|0,0:0|0:0,0:0:0:0:
260,336,28135,2,0,P|212:336|172:332,1,85,10|2,0:0|0:0,0:0:0:0:
20,312,28510,5,2,0:0:0:0:
52,304,28603,1,2,0:0:0:0:
80,284,28697,2,0,P|88:244|88:232,1,42.5,2|0,0:0|0:0,0:0:0:0:
216,200,28885,5,10,0:0:0:0:
184,192,28978,1,0,0:0:0:0:
156,172,29072,2,0,P|148:132|148:120,1,42.5,0|0,0:0|0:0,0:0:0:0:
196,64,29260,6,0,P|240:64|284:60,1,85,4|0,0:0|0:0,0:0:0:0:
392,12,29635,2,0,P|414:50|439:86,1,85,10|0,0:0|0:0,0:0:0:0:
512,164,30010,2,0,P|489:202|471:242,1,85,2|0,0:0|0:0,0:0:0:0:
456,340,30385,2,0,P|411:339|368:344,1,85,10|0,0:0|0:0,0:0:0:0:
252,376,30760,6,0,P|280:336|256:252,1,127.5,2|0,0:0|0:0,0:0:0:0:
236,252,31135,2,0,P|193:252|151:248,1,85,10|2,0:0|0:0,0:0:0:0:
124,272,31416,1,0,0:0:0:0:
100,296,31510,2,0,L|104:352,2,42.5,2|2|2,0:0|0:0|0:0,0:0:0:0:
44,120,31885,6,0,B|152:96|116:152|240:128,1,178.499994552612,12|0,0:0|0:0,0:0:0:0:
248,116,32260,6,0,P|260:56|256:24,1,85,4|0,0:0|0:0,0:0:0:0:
324,200,32635,2,0,P|322:242|333:283,1,85,10|0,0:0|0:0,0:0:0:0:
440,112,33010,6,0,P|380:100|348:104,1,85,2|0,0:0|0:0,0:0:0:0:
152,261,33385,2,0,P|194:262|235:251,1,85,10|0,0:0|0:0,0:0:0:0:
84,204,33760,6,0,P|64:248|96:332,1,127.5,2|0,0:0|0:0,0:0:0:0:
108,344,34135,2,0,P|68:340|12:336,1,85,10|2,0:0|0:0,0:0:0:0:
152,264,34510,5,0,0:0:0:0:
184,252,34603,1,0,0:0:0:0:
220,256,34697,1,10,0:0:0:0:
248,272,34791,1,0,0:0:0:0:
272,296,34885,1,0,0:0:0:0:
304,312,34978,1,0,0:0:0:0:
336,316,35072,1,2,0:0:0:0:
368,312,35166,1,0,0:0:0:0:
400,296,35260,6,0,L|396:248|392:200,1,85,2|0,0:0|0:0,0:0:0:0:
468,132,35635,1,8,0:0:0:0:
272,296,35822,5,2,0:0:0:0:
244,316,35916,1,0,0:0:0:0:
212,324,36010,2,0,L|164:316,3,42.5,0|0|0|0,0:0|0:0|0:0|0:0,0:0:0:0:
136,308,36385,1,10,0:0:0:0:
104,316,36478,1,8,0:0:0:0:
80,340,36572,1,10,0:0:0:0:
84,308,36666,1,8,0:0:0:0:
88,272,36760,6,0,B|88:244|80:224|80:224|88:192|92:176,2,85,12|12|2,0:0|0:0|0:0,0:0:0:0:
256,104,37885,5,10,0:0:0:0:
8,40,38260,6,0,L|44:164,1,127.5,4|0,0:0|0:0,0:0:0:0:
44,136,38635,2,0,P|54:95|82:63,1,85,10|2,0:0|0:0,0:0:0:0:
256,104,39010,5,4,0:0:0:0:
132,188,39197,1,0,0:0:0:0:
124,204,39291,1,0,0:0:0:0:
116,220,39385,2,0,L|128:128,1,85,10|2,0:0|0:0,0:0:0:0:
252,276,39760,6,0,B|304:256|336:296|400:280,1,127.5,2|2,0:0|0:0,0:0:0:0:
408,268,40135,2,0,L|397:183,1,85,10|2,0:0|0:0,0:0:0:0:
180,372,40510,1,0,0:0:0:0:
180,372,40603,1,0,0:0:0:0:
180,372,40697,2,0,L|192:324,1,42.5,0|0,0:0|0:0,0:0:0:0:
252,276,40885,5,10,0:0:0:0:
100,320,41072,1,2,0:0:0:0:
268,248,41260,6,0,B|216:268|184:228|120:244,1,127.5,4|0,0:0|0:0,0:0:0:0:
116,220,41635,2,0,L|28:224,1,85,10|2,0:0|0:0,0:0:0:0:
256,104,42010,5,4,0:0:0:0:
268,248,42197,1,0,0:0:0:0:
272,264,42291,1,0,0:0:0:0:
276,280,42385,2,0,L|364:276,1,85,10|2,0:0|0:0,0:0:0:0:
488,360,42760,6,0,P|472:312|508:240,1,127.5,2|2,0:0|0:0,0:0:0:0:
492,212,43135,2,0,L|484:120,1,85,10|2,0:0|0:0,0:0:0:0:
340,28,43510,5,2,0:0:0:0:
340,28,43603,1,0,0:0:0:0:
340,28,43697,2,0,L|336:80,1,42.5,0|0,0:0|0:0,0:0:0:0:
256,104,43885,5,12,0:0:0:0:
416,72,44072,1,2,0:0:0:0:
264,128,44260,6,0,P|192:144|144:84,1,127.5,4|0,0:0|0:0,0:0:0:0:
136,84,44635,2,0,P|92:80|24:76,1,85,10|2,0:0|0:0,0:0:0:0:
8,232,45010,6,0,L|80:240|152:248,1,127.5,4|0,0:0|0:0,0:0:0:0:
160,268,45385,2,0,P|224:260|264:256,1,85,10|2,0:0|0:0,0:0:0:0:
384,340,45760,6,0,B|352:292|380:248|380:248|428:240,1,127.5,2|2,0:0|0:0,0:0:0:0:
444,240,46135,2,0,L|436:140,1,85,10|2,0:0|0:0,0:0:0:0:
244,257,46510,1,2,0:0:0:0:
244,257,46603,1,0,0:0:0:0:
244,257,46697,2,0,L|300:248,1,42.5,0|0,0:0|0:0,0:0:0:0:
160,268,46885,5,10,0:0:0:0:
264,128,47072,1,2,0:0:0:0:
152,296,47260,6,0,L|164:152,1,127.5,4|0,0:0|0:0,0:0:0:0:
148,140,47635,2,0,L|132:40,1,85,10|2,0:0|0:0,0:0:0:0:
128,368,48010,6,0,P|188:368|228:288,1,127.5,4|0,0:0|0:0,0:0:0:0:
240,288,48385,2,0,L|352:268,1,85,10|2,0:0|0:0,0:0:0:0:
108,224,48760,5,4,0:0:0:0:
264,128,48947,1,0,0:0:0:0:
272,120,49041,1,10,0:0:0:0:
284,112,49135,2,0,L|268:12,1,85,10|10,0:0|0:0,0:0:0:0:
316,300,49510,2,0,P|396:332|480:296,1,170,12|12,0:0|0:0,0:0:0:0:
416,104,50072,2,0,L|408:160,1,42.5,8|8,0:0|0:0,0:0:0:0:
396,228,50260,1,12,0:0:0:0:
256,192,50353,12,8,51760,0:0:0:0:
256,192,52135,1,6,0:0:0:0:
256,192,52510,1,8,0:0:0:0:
144,96,52885,1,2,0:0:0:0:
88,152,53072,1,8,0:0:0:0:
88,152,53166,1,8,0:0:0:0:
88,152,53260,2,0,P|80:188|88:244,1,85,8|0,0:0|0:0,0:0:0:0:
228,104,54010,2,0,P|236:68|228:12,1,85,8|2,0:0|0:0,0:0:0:0:
256,192,54572,1,8,0:0:0:0:
256,192,54665,1,8,0:0:0:0:
256,192,54759,6,0,L|304:188,1,42.5,8|2,0:0|0:0,0:0:0:0:
276,276,55135,2,0,L|352:272,1,63.75,8|0,0:0|0:0,0:0:0:0:
352,272,55510,2,0,L|344:320,1,42.5,8|0,0:0|0:0,0:0:0:0:
412,128,55885,2,0,L|408:96,3,21.25,8|8|8|8,0:0|0:0|0:0|0:0,0:0:0:0:
416,96,56260,6,0,L|432:224,1,127.5,6|0,0:0|0:0,0:0:0:0:
352,272,57010,2,0,P|312:296|232:288,1,127.5,2|0,0:0|0:0,0:0:0:0:
224,284,57666,1,0,0:0:0:0:
216,280,57760,2,0,L|128:284,1,85,8|8,0:0|0:0,0:0:0:0:
20,296,58510,2,0,P|36:256|40:208,1,85,8|2,0:0|0:0,0:0:0:0:
144,152,59072,1,8,0:0:0:0:
144,152,59166,1,8,0:0:0:0:
144,152,59260,6,0,P|128:112|124:64,1,85,8|2,0:0|0:0,0:0:0:0:
212,16,59822,1,0,0:0:0:0:
284,96,60010,2,0,B|316:92|352:104|352:104|376:80,1,85,8|2,0:0|0:0,0:0:0:0:
444,28,60572,1,0,0:0:0:0:
396,228,60760,5,8,0:0:0:0:
384,220,61135,1,8,0:0:0:0:
368,208,61510,2,0,L|316:212,1,42.5,8|0,0:0|0:0,0:0:0:0:
288,124,61697,2,0,L|340:128,1,42.5,0|0,0:0|0:0,0:0:0:0:
200,148,61885,2,0,L|196:105,1,42.5,10|0,0:0|0:0,0:0:0:0:
244,224,62072,2,0,L|240:266,1,42.5,10|0,0:0|0:0,0:0:0:0:
272,344,62260,6,0,P|236:288|156:304,1,127.5,12|0,0:0|0:0,0:0:0:0:
152,304,62635,2,0,L|104:300|56:296,1,85,10|2,0:0|0:0,0:0:0:0:
272,344,63010,6,0,L|288:208,1,127.5,2|0,0:0|0:0,0:0:0:0:
292,184,63385,2,0,L|300:88,1,85,10|2,0:0|0:0,0:0:0:0:
380,32,63760,5,2,0:0:0:0:
196,72,63947,1,2,0:0:0:0:
368,56,64135,1,10,0:0:0:0:
209,49,64322,1,2,0:0:0:0:
356,80,64510,2,0,P|420:108|480:76,1,127.5,2|0,0:0|0:0,0:0:0:0:
492,64,64885,2,0,L|484:160,1,85,10|2,0:0|0:0,0:0:0:0:
476,256,65260,6,0,P|448:216|352:220,1,127.5,4|0,0:0|0:0,0:0:0:0:
344,220,65635,2,0,L|296:216|248:212,1,85,10|2,0:0|0:0,0:0:0:0:
68,312,66010,6,0,P|172:304|220:300,1,127.5,4|0,0:0|0:0,0:0:0:0:
216,276,66385,2,0,P|220:228|208:176,1,85,8|8,0:0|0:0,0:0:0:0:
200,160,66666,1,8,0:0:0:0:
200,160,66760,1,12,0:0:0:0:
104,212,66947,1,0,0:0:0:0:
220,132,67135,1,12,0:0:0:0:
126,74,67322,1,0,0:0:0:0:
236,108,67510,6,0,B|328:136|328:84|412:112,1,170,12|8,0:0|0:0,0:0:0:0:
412,124,67978,1,8,0:0:0:0:
420,140,68072,1,8,0:0:0:0:
428,156,68166,1,8,0:0:0:0:
256,192,68260,12,0,69385,0:0:0:0:
428,156,69760,6,0,L|420:260,1,85,4|0,0:0|0:0,0:0:0:0:
472,304,70322,1,0,0:0:0:0:
472,304,71260,2,0,P|444:320|392:316,2,85,2|0|2,0:0|0:0|0:0,0:0:0:0:
421,240,72385,1,0,0:0:0:0:
312,344,72760,6,0,L|220:336,1,85,2|0,0:0|0:0,0:0:0:0:
156,368,73322,1,0,0:0:0:0:
156,368,74260,2,0,P|148:328|160:296,1,63.75,2|0,0:0|0:0,0:0:0:0:
160,288,74635,2,0,L|152:228,1,42.5,0|0,0:0|0:0,0:0:0:0:
52,168,75010,5,2,0:0:0:0:
72,176,75103,1,0,0:0:0:0:
92,176,75197,1,2,0:0:0:0:
112,172,75291,1,0,0:0:0:0:
132,160,75385,1,0,0:0:0:0:
144,144,75478,1,0,0:0:0:0:
152,124,75572,1,2,0:0:0:0:
152,104,75666,1,0,0:0:0:0:
148,84,75760,6,0,B|192:92|192:92|232:80|232:80|296:84,1,127.5,6|0,0:0|0:0,0:0:0:0:
288,96,76135,2,0,L|280:8,1,85,10|2,0:0|0:0,0:0:0:0:
488,124,76510,1,2,0:0:0:0:
376,272,76697,1,0,0:0:0:0:
380,252,76791,1,0,0:0:0:0:
384,232,76885,2,0,P|428:216|488:240,1,85,10|2,0:0|0:0,0:0:0:0:
292,204,77260,6,0,B|244:212|216:176|216:176|172:188,1,127.5,2|2,0:0|0:0,0:0:0:0:
164,168,77635,2,0,L|156:256,1,85,10|2,0:0|0:0,0:0:0:0:
248,344,78010,5,2,0:0:0:0:
248,344,78103,1,0,0:0:0:0:
248,344,78197,2,0,L|252:292,1,42.5,0|0,0:0|0:0,0:0:0:0:
168,372,78385,1,10,0:0:0:0:
292,204,78572,1,2,0:0:0:0:
168,372,78760,6,0,P|136:328|44:328,1,127.5,4|0,0:0|0:0,0:0:0:0:
48,324,79135,2,0,L|56:236,1,85,10|2,0:0|0:0,0:0:0:0:
164,168,79510,5,10,0:0:0:0:
184,172,79603,1,0,0:0:0:0:
204,172,79697,1,8,0:0:0:0:
224,168,79791,1,8,0:0:0:0:
244,156,79885,2,0,P|256:128|256:108,1,42.5,10|8,0:0|0:0,0:0:0:0:
328,68,80072,2,0,P|309:43|292:33,1,42.5,10|8,0:0|0:0,0:0:0:0:
348,160,80260,6,0,P|416:176|476:136,1,127.5,12|2,0:0|0:0,0:0:0:0:
476,132,80635,2,0,L|468:224,1,85,2|2,0:0|0:0,0:0:0:0:
404,352,81010,1,0,0:0:0:0:
384,344,81103,1,2,0:0:0:0:
256,288,81291,1,0,0:0:0:0:
236,296,81384,1,2,0:0:0:0:
96,356,81572,1,2,0:0:0:0:
32,216,81760,6,0,B|4:172|32:124|32:124|72:128,1,127.5,4|0,0:0|0:0,0:0:0:0:
84,128,82135,2,0,L|76:40,1,85,10|2,0:0|0:0,0:0:0:0:
180,208,82510,5,4,0:0:0:0:
260,120,82697,1,0,0:0:0:0:
268,100,82791,1,0,0:0:0:0:
276,80,82885,2,0,P|312:60|360:68,1,85,10|2,0:0|0:0,0:0:0:0:
336,272,83260,6,0,P|312:224|344:148,1,127.5,2|2,0:0|0:0,0:0:0:0:
356,152,83635,2,0,L|448:160,1,85,10|2,0:0|0:0,0:0:0:0:
248,312,84010,5,2,0:0:0:0:
248,312,84103,1,0,0:0:0:0:
248,312,84197,2,0,L|188:308,1,42.5,0|0,0:0|0:0,0:0:0:0:
336,272,84385,1,10,0:0:0:0:
136,348,84572,1,2,0:0:0:0:
336,272,84760,6,0,L|188:260,1,127.5,4|0,0:0|0:0,0:0:0:0:
192,252,85135,2,0,L|80:244,1,85,10|2,0:0|0:0,0:0:0:0:
48,328,85510,5,4,0:0:0:0:
160,168,85697,1,0,0:0:0:0:
176,156,85791,1,0,0:0:0:0:
188,140,85885,2,0,P|196:80|180:48,1,85,10|2,0:0|0:0,0:0:0:0:
192,252,86260,6,0,P|248:232|284:148,1,127.5,2|2,0:0|0:0,0:0:0:0:
284,156,86635,2,0,L|392:164,1,85,10|2,0:0|0:0,0:0:0:0:
360,288,87010,5,2,0:0:0:0:
360,288,87103,1,0,0:0:0:0:
360,288,87197,2,0,L|304:284,1,42.5,8|8,0:0|0:0,0:0:0:0:
452,244,87385,1,10,0:0:0:0:
392,384,87572,1,10,0:0:0:0:
452,244,87760,6,0,B|448:200|448:200|460:156|460:156|452:80,1,127.5,12|0,0:0|0:0,0:0:0:0:
452,96,88135,2,0,L|456:8,1,85,10|2,0:0|0:0,0:0:0:0:
284,156,88510,5,4,0:0:0:0:
172,24,88697,1,0,0:0:0:0:
172,24,88791,1,0,0:0:0:0:
172,24,88885,2,0,L|80:20,1,85,10|2,0:0|0:0,0:0:0:0:
32,144,89260,6,0,P|92:128|156:164,1,127.5,2|2,0:0|0:0,0:0:0:0:
156,176,89635,2,0,L|148:288,1,85,10|2,0:0|0:0,0:0:0:0:
48,296,90010,5,2,0:0:0:0:
48,296,90103,1,0,0:0:0:0:
48,296,90197,2,0,L|-12:288,1,42.5,0|0,0:0|0:0,0:0:0:0:
149,260,90385,1,10,0:0:0:0:
108,380,90572,1,2,0:0:0:0:
149,260,90760,6,0,B|188:288|232:280|232:280|264:256,1,127.5,4|0,0:0|0:0,0:0:0:0:
280,240,91135,2,0,P|320:224|376:240,1,85,10|2,0:0|0:0,0:0:0:0:
452,344,91510,6,0,B|416:308|440:264|440:264|455:283|476:296,1,127.5,4|0,0:0|0:0,0:0:0:0:
476,272,91885,2,0,L|464:176,1,85,10|2,0:0|0:0,0:0:0:0:
484,56,92260,5,10,0:0:0:0:
472,72,92353,1,8,0:0:0:0:
456,84,92447,1,8,0:0:0:0:
436,92,92541,1,10,0:0:0:0:
416,96,92635,1,10,0:0:0:0:
396,96,92728,1,8,0:0:0:0:
376,88,92822,1,10,0:0:0:0:
360,76,92916,1,8,0:0:0:0:
344,60,93010,6,0,P|336:28|344:4,1,42.5,10|8,0:0|0:0,0:0:0:0:
300,132,93197,2,0,P|268:140|244:132,1,42.5,8|8,0:0|0:0,0:0:0:0:
176,176,93385,2,0,P|146:161|133:140,1,42.5,12|8,0:0|0:0,0:0:0:0:
48,116,93572,2,0,P|34:85|38:60,1,42.5,8|8,0:0|0:0,0:0:0:0:
140,154,93760,6,0,L|120:336,1,170,12|10,0:0|0:0,0:0:0:0:
248,368,94322,1,2,0:0:0:0:
248,368,94416,1,0,0:0:0:0:
248,368,94510,2,0,P|292:352|344:360,1,85,0|2,0:0|0:0,0:0:0:0:
476,288,94885,2,0,P|433:290|394:274,1,85,10|2,0:0|0:0,0:0:0:0:
440,128,95260,6,0,P|488:148|420:176,1,170,2|10,0:0|0:0,0:0:0:0:
292,104,95822,1,2,0:0:0:0:
292,104,95916,1,0,0:0:0:0:
292,104,96010,2,0,L|300:8,1,85,0|2,0:0|0:0,0:0:0:0:
140,154,96385,2,0,L|148:250,1,85,10|2,0:0|0:0,0:0:0:0:
116,348,96760,6,0,B|112:279|181:258|181:258|234:301,1,170,2|10,0:0|0:0,0:0:0:0:
376,336,97322,1,2,0:0:0:0:
376,336,97416,1,0,0:0:0:0:
376,336,97510,2,0,L|480:328,1,85,0|2,0:0|0:0,0:0:0:0:
312,228,97885,2,0,L|416:220,1,85,10|2,0:0|0:0,0:0:0:0:
244,120,98260,6,0,P|204:152|108:132,1,127.5,2|0,0:0|0:0,0:0:0:0:
52,108,98635,6,0,P|99:126|132:224,1,152.999995330811,10|0,0:0|0:0,0:0:0:0:
92,324,99010,6,0,P|84:273|192:192,1,191.250007295609,2|0,0:0|0:0,0:0:0:0:
204,192,99385,1,10,0:0:0:0:
224,196,99478,1,0,0:0:0:0:
244,200,99572,1,0,0:0:0:0:
264,204,99666,1,0,0:0:0:0:
284,208,99760,6,0,P|324:176|316:64,1,170,4|10,0:0|0:0,0:0:0:0:
416,188,100322,1,2,0:0:0:0:
416,188,100416,1,0,0:0:0:0:
416,188,100510,2,0,P|472:200|508:192,1,85,0|2,0:0|0:0,0:0:0:0:
336,296,100885,2,0,P|293:291|253:303,1,85,10|2,0:0|0:0,0:0:0:0:
92,324,101260,6,0,P|140:348|112:284,1,170,2|10,0:0|0:0,0:0:0:0:
24,188,101822,1,2,0:0:0:0:
24,188,101916,1,0,0:0:0:0:
24,188,102010,2,0,P|36:132|40:80,1,85,0|2,0:0|0:0,0:0:0:0:
180,28,102385,2,0,P|185:70|194:111,1,85,10|2,0:0|0:0,0:0:0:0:
284,228,102760,6,0,B|344:220|344:220|396:228|396:228|456:220,1,170,2|10,0:0|0:0,0:0:0:0:
404,64,103322,1,2,0:0:0:0:
404,64,103416,1,0,0:0:0:0:
404,64,103510,2,0,P|392:108|404:152,1,85,0|2,0:0|0:0,0:0:0:0:
348,384,103885,2,0,P|356:344|344:302,1,85,10|2,0:0|0:0,0:0:0:0:
196,176,104260,5,2,0:0:0:0:
92,320,104447,1,0,0:0:0:0:
96,136,104635,5,10,0:0:0:0:
196,284,104822,1,0,0:0:0:0:
24,220,105010,1,10,0:0:0:0:
24,220,105103,1,8,0:0:0:0:
24,220,105197,1,10,0:0:0:0:
24,220,105291,1,8,0:0:0:0:
24,220,105385,6,0,P|68:240|88:240,1,42.5,8|8,0:0|0:0,0:0:0:0:
160,199,105572,2,0,P|199:170|209:153,1,42.5,10|8,0:0|0:0,0:0:0:0:
248,88,105760,6,0,L|240:36,1,42.5,12|2,0:0|0:0,0:0:0:0:
336,104,106135,6,0,L|328:52,1,42.5,0|2,0:0|0:0,0:0:0:0:
424,124,106510,6,0,L|416:72,1,42.5,0|2,0:0|0:0,0:0:0:0:
508,144,106885,6,0,L|500:92,1,42.5,0|2,0:0|0:0,0:0:0:0:
440,216,107260,6,0,P|420:236|416:256,1,42.5,2|2,0:0|0:0,0:0:0:0:
512,320,107635,6,0,P|504:292|489:279,1,42.5,0|2,0:0|0:0,0:0:0:0:
388,328,108010,5,2,0:0:0:0:
