osu file format v12

[General]
AudioFilename: Hana Ranman -Flowers- (2nd EDITION).ogg
AudioLeadIn: 1500
PreviewTime: 37510
Countdown: 0
SampleSet: Normal
StackLeniency: 0.4
Mode: 0
LetterboxInBreaks: 1
WidescreenStoryboard: 1

[Editor]
Bookmarks: 80260
DistanceSpacing: 0.8
BeatDivisor: 4
GridSize: 4

[Metadata]
Title:Hana Ranman -Flowers- (2nd Edition .Ver)
TitleUnicode:花爛漫 -Flowors- (2nd EDITION)
Artist:TERRA
ArtistUnicode:TERRA
Creator:[ Lost ]
Version:Betsu's Extream
Source:Reflec Beat
Tags:Reflec Beat Nichiyouki kantokun P_A_N PAN -_N_a_n_a_k_a_- Nanaka Soldsaga Kung SoldsagaKung Betsuto P_KunG PKung
BeatmapID:333935
BeatmapSetID:131600

[Difficulty]
HPDrainRate:8
CircleSize:4
OverallDifficulty:7
ApproachRate:9
SliderMultiplier:1.85
SliderTickRate:1

[Events]
//Background and Video events
0,0,"bg.png",0,0
//Break Periods
2,62459,67660
//Storyboard Layer 0 (Background)
//Storyboard Layer 1 (Fail)
//Storyboard Layer 2 (Pass)
//Storyboard Layer 3 (Foreground)
//Storyboard Sound Samples
//Background Colour Transformations
3,100,0,0,0

[TimingPoints]
-740,375,4,2,4,60,1,0
384,-117.647058823529,4,2,4,60,0,0
3385,-117.647058823529,4,2,4,40,0,0
3478,-117.647058823529,4,2,4,5,0,0
3760,-117.647058823529,4,2,4,60,0,0
6010,-200,4,2,4,60,0,0
8072,-200,4,2,4,5,0,0
8260,-100,4,2,4,60,0,0
13885,-100,4,2,3,60,0,0
13978,-100,4,1,4,60,0,0
14260,-100,4,1,4,80,0,1
14353,-100,4,1,4,80,0,0
25885,-100,4,2,3,80,0,0
25978,-100,4,1,4,80,0,0
36385,-100,4,1,0,80,0,0
36760,-100,4,1,4,80,0,0
37510,-100,4,2,4,5,0,0
37697,-66.6666666666667,4,1,0,40,0,0
37885,-100,4,2,3,80,0,0
38260,-80,4,1,4,80,0,1
39760,-100,4,1,4,80,0,1
41260,-80,4,1,4,80,0,1
42760,-100,4,1,4,80,0,1
44260,-80,4,1,4,80,0,1
45760,-100,4,1,4,80,0,1
47260,-80,4,1,4,80,0,1
48760,-100,4,1,4,80,0,1
50260,-133.333333333333,4,1,4,80,0,0
60760,-100,4,1,4,80,0,0
61135,-80,4,1,4,80,0,0
61510,-66.6666666666667,4,1,4,80,0,0
62260,-100,4,1,4,80,0,0
67510,-200,4,1,4,80,0,0
68260,-200,4,2,3,40,0,0
68353,-200,4,2,4,5,0,0
69760,-200,4,2,4,30,0,0
75385,-100,4,1,4,60,0,0
75760,-80,4,1,4,60,0,1
77260,-100,4,1,4,60,0,1
78760,-80,4,1,4,60,0,1
79510,-100,4,1,4,60,0,1
80260,-133.333333333333,4,2,4,80,0,0
81572,-100,4,2,2,30,0,0
81760,-80,4,1,4,80,0,1
83260,-100,4,1,4,80,0,1
84760,-80,4,1,4,80,0,1
86260,-100,4,1,4,80,0,1
87760,-80,4,1,4,80,0,1
89260,-100,4,1,4,80,0,1
90760,-80,4,1,4,80,0,1
92260,-100,4,1,4,80,0,1
93666,-100,4,1,4,80,0,0
93760,-100,4,1,4,80,0,1
93853,-100,4,1,4,80,0,0
105760,-200,4,2,4,50,0,0
108010,-200,4,2,4,50,0,1
108103,-200,4,1,4,50,0,0

[Colours]
Combo1 : 128,255,255
Combo2 : 255,128,255
Combo3 : 170,170,255

[HitObjects]
176,224,385,6,0,P|220:208|248:184,1,78.6250014996529,4|0,0:0|0:0,0:0:0:0:
276,76,760,6,0,L|336:224,1,157.250002999306,8|8,0:0|1:2,0:0:0:0:
392,76,1510,1,0,1:0:0:0:
348,248,1885,1,0,1:0:0:0:
176,120,2260,6,0,P|128:112|176:52,1,157.250002999306,8|0,0:0|1:2,0:0:0:0:
236,80,3010,1,2,0:0:0:0:
244,156,3385,2,0,L|312:200,1,78.6250014996529,0|0,1:0|0:0,0:0:0:0:
400,212,3760,6,0,P|476:188|492:120,1,157.250002999306,8|8,0:0|0:0,0:0:0:0:
312,48,4510,1,0,1:0:0:0:
420,140,4885,1,0,0:0:0:0:
288,196,5260,2,0,P|216:188|152:244,2,157.250002999306,8|8|8,0:0|1:2|0:0,0:0:0:0:
256,192,6103,12,0,8072,0:0:0:0:
288,240,8260,6,0,P|336:224|368:188,1,92.5,4|0,1:0|0:0,0:0:0:0:
388,48,8635,1,0,1:0:0:0:
192,144,8822,1,0,0:0:0:0:
192,144,8916,1,0,1:0:0:0:
192,144,9010,2,0,L|292:152,1,92.5,0|0,1:0|1:0,0:0:0:0:
432,252,9385,2,0,P|456:212|460:168,1,92.5,0|0,1:0|0:0,0:0:0:0:
132,88,9760,6,0,L|96:176,1,92.5,0|0,1:0|0:0,0:0:0:0:
192,144,10135,2,0,P|184:192|184:236,1,92.5,0|0,1:0|1:0,0:0:0:0:
272,164,10510,2,0,P|284:212|316:244,1,92.5,0|0,1:0|0:0,0:0:0:0:
360,152,10885,2,0,P|408:156|440:128,1,92.5,0|0,1:0|0:0,0:0:0:0:
224,144,11260,6,0,P|176:160|144:196,1,92.5,4|0,1:0|0:0,0:0:0:0:
124,336,11635,1,0,1:0:0:0:
320,240,11822,1,0,0:0:0:0:
320,240,11916,1,0,1:0:0:0:
320,240,12010,2,0,L|220:232,1,92.5,4|0,1:0|1:0,0:0:0:0:
80,132,12385,2,0,P|56:172|52:216,1,92.5,0|0,1:0|0:0,0:0:0:0:
392,364,12760,6,0,L|428:276,1,92.5,4|0,1:0|0:0,0:0:0:0:
312,332,13135,2,0,P|320:284|320:240,1,92.5,4|0,1:0|1:0,0:0:0:0:
232,312,13510,2,0,P|220:264|188:232,1,92.5,4|0,1:0|0:0,0:0:0:0:
152,232,13791,1,0,0:0:0:0:
152,232,13885,2,0,P|104:228|72:256,1,92.5,4|0,0:0|0:0,0:0:0:0:
64,240,14166,1,0,0:0:0:0:
56,224,14260,6,0,L|80:116,1,92.5,4|0,0:0|2:0,0:0:0:0:
20,40,14635,1,8,0:0:0:0:
164,140,14822,2,0,P|216:144|256:132,1,92.5,0|8,2:0|0:0,0:0:0:0:
416,36,15197,2,0,L|396:132,1,92.5,0|8,2:0|0:0,0:0:0:0:
264,252,15572,1,0,2:0:0:0:
264,252,15666,1,0,0:0:0:0:
264,252,15760,1,8,0:0:0:0:
88,152,15947,2,0,P|36:152|-12:176,1,92.5,0|8,2:0|0:0,0:0:0:0:
96,272,16322,1,0,2:0:0:0:
208,280,16510,5,8,0:0:0:0:
240,272,16603,1,0,0:0:0:0:
264,252,16697,1,0,2:0:0:0:
248,132,16885,1,8,0:0:0:0:
240,100,16978,1,0,0:0:0:0:
220,76,17072,1,0,2:0:0:0:
48,60,17260,6,0,B|88:84|144:92|144:92|136:48|168:16,1,185,8|8,0:0|0:0,0:0:0:0:
316,28,17822,1,0,2:0:0:0:
368,140,18010,2,0,L|464:132,1,92.5,8|0,0:0|2:0,0:0:0:0:
288,236,18385,2,0,L|384:228,1,92.5,8|0,0:0|2:0,0:0:0:0:
188,312,18760,6,0,P|216:248|176:192,1,138.75,8|0,0:0|2:0,0:0:0:0:
144,256,19135,2,0,L|96:268,2,46.25,8|0|0,0:0|0:0|2:0,0:0:0:0:
136,136,19510,5,8,0:0:0:0:
168,112,19603,1,0,0:0:0:0:
208,100,19697,1,0,0:0:0:0:
248,104,19791,1,0,0:0:0:0:
288,124,19885,1,10,0:0:0:0:
312,160,19978,1,2,0:0:0:0:
316,204,20072,1,10,0:0:0:0:
304,248,20166,1,0,0:0:0:0:
272,284,20260,6,0,P|232:288|176:284,1,92.5,8|0,0:0|2:0,0:0:0:0:
316,204,20635,2,0,P|356:200|412:204,1,92.5,8|0,0:0|2:0,0:0:0:0:
364,288,21010,1,8,0:0:0:0:
224,204,21197,1,0,2:0:0:0:
288,124,21385,2,0,P|332:96|352:60,1,92.5,8|0,0:0|2:0,0:0:0:0:
184,136,21760,5,8,0:0:0:0:
316,204,21947,1,0,2:0:0:0:
268,340,22135,1,8,0:0:0:0:
128,292,22322,1,0,2:0:0:0:
372,360,22509,5,8,0:0:0:0:
372,328,22603,1,0,0:0:0:0:
380,296,22697,1,0,0:0:0:0:
392,268,22791,1,0,0:0:0:0:
412,244,22885,1,8,0:0:0:0:
436,224,22978,1,0,0:0:0:0:
464,212,23072,2,0,L|440:168,1,46.25
380,92,23260,6,0,P|304:44|212:32,1,185,8|8,0:0|0:0,0:0:0:0:
92,56,23822,1,0,2:0:0:0:
232,108,24010,2,0,P|284:120|320:144,1,92.5,8|0,0:0|2:0,0:0:0:0:
316,308,24385,2,0,P|301:264|272:228,1,92.5,8|0,0:0|2:0,0:0:0:0:
156,180,24760,6,0,B|120:160|64:160|64:160|92:180|104:200,1,138.75,8|0,0:0|2:0,0:0:0:0:
108,220,25135,2,0,P|112:268|96:312,1,92.5,8|0,0:0|0:0,0:0:0:0:
200,96,25510,2,0,P|233:130|249:174,1,92.5,8|8,0:0|2:1,0:0:0:0:
228,240,25791,1,8,2:1:0:0:
228,240,25885,2,0,L|320:240,1,92.5,12|8,0:0|2:1,0:0:0:0:
380,192,26166,1,0,2:1:0:0:
380,192,26260,5,12,0:0:0:0:
392,164,26353,1,0,0:0:0:0:
396,132,26447,1,0,2:0:0:0:
392,100,26541,1,0,0:0:0:0:
380,72,26635,1,10,0:0:0:0:
296,264,26822,5,0,2:0:0:0:
284,236,26915,1,0,0:0:0:0:
280,204,27009,1,8,0:0:0:0:
284,172,27103,1,0,0:0:0:0:
296,144,27197,1,2,2:0:0:0:
452,248,27385,2,0,P|412:208|380:192,1,92.5,8|2,0:0|2:0,0:0:0:0:
76,300,27760,6,0,P|148:252|160:204,1,138.75,8|0,0:0|2:0,0:0:0:0:
120,140,28135,2,0,L|204:96,1,92.5,8|2,0:0|2:0,0:0:0:0:
300,36,28510,1,8,0:0:0:0:
300,36,28603,1,2,2:0:0:0:
300,36,28697,1,0,0:0:0:0:
356,140,28885,2,0,P|408:152|452:152,1,92.5,10|0,0:0|2:0,0:0:0:0:
440,328,29260,5,0,0:0:0:0:
432,296,29353,1,0,0:0:0:0:
416,268,29447,1,0,2:0:0:0:
396,244,29541,1,0,0:0:0:0:
368,232,29635,1,2,0:0:0:0:
240,360,29822,5,0,2:0:0:0:
252,332,29916,1,0,0:0:0:0:
256,300,30010,1,0,0:0:0:0:
252,268,30103,1,0,0:0:0:0:
240,240,30197,1,2,2:0:0:0:
44,228,30385,2,0,P|88:208|132:208,1,92.5,0|2,0:0|2:0,0:0:0:0:
56,120,30760,6,0,L|196:132,1,138.75,0|0,0:0|2:0,0:0:0:0:
256,88,31135,2,0,L|348:96,1,92.5,0|2,0:0|2:0,0:0:0:0:
440,200,31510,1,0,0:0:0:0:
440,200,31603,1,2,2:0:0:0:
440,200,31697,1,0,0:0:0:0:
280,264,31885,2,0,P|232:264|188:252,1,92.5,2|8,0:0|2:1,0:0:0:0:
132,208,32166,1,8,2:1:0:0:
132,208,32260,5,8,0:0:0:0:
124,176,32353,1,0,0:0:0:0:
116,144,32447,1,0,2:0:0:0:
108,112,32541,1,0,0:0:0:0:
100,80,32635,1,10,0:0:0:0:
256,88,32822,5,0,2:0:0:0:
280,108,32916,1,0,0:0:0:0:
312,116,33010,1,8,0:0:0:0:
344,116,33103,1,0,0:0:0:0:
376,108,33197,1,2,2:0:0:0:
460,24,33385,2,0,P|448:72|456:116,1,92.5,8|2,0:0|2:0,0:0:0:0:
444,272,33760,6,0,B|384:268|384:268|356:280|356:280|304:276,1,138.75,8|0,0:0|2:0,0:0:0:0:
244,324,34135,2,0,L|152:316,1,92.5,8|2,0:0|2:0,0:0:0:0:
20,312,34510,1,0,0:0:0:0:
20,312,34603,1,2,2:0:0:0:
20,312,34697,1,0,0:0:0:0:
152,204,34885,2,0,P|176:156|180:116,1,92.5,2|0,0:0|2:0,0:0:0:0:
68,24,35260,5,0,0:0:0:0:
96,40,35353,1,0,0:0:0:0:
128,48,35447,1,0,2:0:0:0:
160,48,35541,1,0,0:0:0:0:
192,40,35635,1,2,0:0:0:0:
91,224,35822,5,0,2:0:0:0:
122,219,35915,1,0,0:0:0:0:
152,204,36009,1,0,0:0:0:0:
177,184,36103,1,0,0:0:0:0:
196,157,36197,1,2,2:0:0:0:
272,240,36385,5,0,0:0:0:0:
276,224,36478,1,0,0:0:0:0:
280,208,36572,1,0,0:0:0:0:
284,192,36666,1,0,0:0:0:0:
288,176,36760,1,4,2:0:0:0:
288,176,37135,5,12,2:0:0:0:
56,116,37510,6,0,L|104:108,1,46.25
144,72,37697,2,0,L|192:64,2,46.2500017642976
112,28,37885,2,0,L|64:36,2,46.25,2|2|2,0:0|0:0|0:0,0:0:0:0:
344,96,38260,6,0,P|424:112|472:216,1,173.4375,14|0,0:0|0:0,0:0:0:0:
416,252,38635,2,0,L|388:364,1,115.625,10|0,2:1|0:0,0:0:0:0:
244,96,39010,6,0,P|294:159|264:270,1,173.4375,10|0,0:0|0:0,0:0:0:0:
198,261,39385,2,0,L|104:328,1,115.625,10|0,2:1|0:0,0:0:0:0:
92,172,39760,5,10,0:0:0:0:
244,96,39947,1,0,2:0:0:0:
244,96,40041,1,0,0:0:0:0:
244,96,40135,1,8,2:1:0:0:
220,272,40322,1,0,0:0:0:0:
192,180,40510,1,10,0:0:0:0:
224,176,40603,1,0,0:0:0:0:
256,172,40697,1,0,0:0:0:0:
404,108,40885,2,0,P|360:132|340:172,1,92.5,8|0,0:0|2:0,0:0:0:0:
436,344,41260,6,0,P|460:292|420:188,1,173.4375,10|0,0:0|0:0,0:0:0:0:
404,108,41635,2,0,L|288:92,1,115.625,10|0,2:1|0:0,0:0:0:0:
368,280,42010,6,0,P|352:224|255:170,1,173.4375,10|0,0:0|0:0,0:0:0:0:
191,119,42385,2,0,L|91:181,1,115.625,10|0,2:1|0:0,0:0:0:0:
72,324,42760,5,10,0:0:0:0:
200,272,42947,1,0,2:0:0:0:
200,272,43041,1,0,0:0:0:0:
200,272,43135,1,8,2:1:0:0:
92,180,43322,1,0,0:0:0:0:
152,332,43510,2,0,P|216:348|272:304,1,138.75,10|0,0:0|0:0,0:0:0:0:
272,232,43885,2,0,P|240:200|184:192,1,92.5,8|8,0:0|0:0,0:0:0:0:
272,308,44260,6,0,P|352:304|400:228,1,173.4375,2|0,0:0|0:0,0:0:0:0:
476,224,44635,2,0,L|456:108,1,115.625,10|0,2:1|0:0,0:0:0:0:
152,332,45010,6,0,P|210:277|198:188,1,173.4375,10|0,0:0|0:0,0:0:0:0:
254,136,45385,2,0,L|164:59,1,115.625,10|0,2:1|0:0,0:0:0:0:
48,132,45760,5,10,0:0:0:0:
120,208,45947,1,0,2:0:0:0:
120,208,46041,1,0,0:0:0:0:
120,208,46135,1,8,2:1:0:0:
236,208,46322,1,0,0:0:0:0:
300,304,46510,2,0,L|316:348,2,46.25,10|0|0,2:1|0:0|0:0,0:0:0:0:
364,208,46885,2,0,P|400:176|444:164,1,92.5,10|0,0:0|0:0,0:0:0:0:
328,116,47260,6,0,L|148:72,1,185,14|0,0:0|1:0,0:0:0:0:
96,16,47635,2,0,P|72:64|92:124,1,115.625,10|0,2:1|0:0,0:0:0:0:
364,208,48010,6,0,L|197:289,1,185,14|0,0:0|1:0,0:0:0:0:
121,280,48385,2,0,P|133:332|187:365,1,115.625,10|0,2:1|0:0,0:0:0:0:
384,324,48760,5,14,0:0:0:0:
460,176,48947,1,0,2:0:0:0:
460,176,49041,1,8,0:0:0:0:
460,176,49135,2,0,P|460:128|440:80,1,92.5,8|8,2:1|0:0,0:0:0:0:
216,56,49510,1,14,2:1:0:0:
204,84,49603,1,0,2:0:0:0:
204,116,49697,1,0,2:0:0:0:
216,144,49791,1,0,2:0:0:0:
236,168,49885,1,8,0:0:0:0:
256,192,49978,1,8,0:0:0:0:
272,220,50072,1,8,0:0:0:0:
276,252,50166,1,8,0:0:0:0:
272,284,50260,5,14,0:0:0:0:
152,336,50635,2,0,L|104:284,2,69.3750026464463,0|0|2,2:0|0:0|0:0,0:0:0:0:
272,284,51385,2,0,L|320:336,1,69.3750026464463,0|0,0:0|2:0,0:0:0:0:
336,340,51666,1,8,0:0:0:0:
352,344,51760,1,8,0:0:0:0:
444,260,52135,2,0,L|476:188,1,69.3750026464463,12|0,0:0|0:0,0:0:0:0:
380,208,52510,2,0,L|412:136,1,69.3750026464463,8|0,0:0|0:0,0:0:0:0:
316,156,52885,2,0,L|348:84,1,69.3750026464463
352,76,53166,1,8,0:0:0:0:
360,60,53260,6,0,P|316:88|236:56,1,138.750005292893,12|0,0:0|0:0,0:0:0:0:
156,36,53822,1,0,0:0:0:0:
156,36,54010,2,0,L|96:164,1,138.750005292893,8|0,0:0|0:0,0:0:0:0:
16,248,54572,1,0,0:0:0:0:
16,248,54760,2,0,P|88:260|132:312,2,138.750005292893,12|8|8,0:0|0:0|0:0,0:0:0:0:
208,248,55885,5,8,0:0:0:0:
224,240,55978,1,8,0:0:0:0:
240,232,56072,1,8,0:0:0:0:
256,224,56166,1,8,0:0:0:0:
272,216,56260,1,4,0:0:0:0:
228,124,57010,5,0,0:0:0:0:
340,144,57666,1,8,0:0:0:0:
340,144,57760,1,8,0:0:0:0:
400,104,58135,1,12,0:0:0:0:
456,64,58510,1,8,0:0:0:0:
416,212,58885,6,0,P|384:232|372:296,1,104.06250396967,0|8,0:0|0:0,0:0:0:0:
400,308,59260,2,0,L|272:244,1,138.750005292893,12|0,0:0|0:0,0:0:0:0:
296,348,60010,2,0,L|168:284,1,138.750005292893,8|0,0:0|0:0,0:0:0:0:
88,292,60572,1,0,0:0:0:0:
68,216,60760,6,0,B|92:180|92:180|108:172|108:172|128:132,1,92.5,12|0,0:0|2:0,0:0:0:0:
180,200,61135,6,0,B|200:160|200:160|224:148|224:148|240:108,1,115.625,12|0,0:0|2:0,0:0:0:0:
300,176,61510,6,0,B|320:128|320:128|352:112|352:112|368:64,1,138.750005292893,12|0,0:0|0:0,0:0:0:0:
452,40,61791,1,8,0:0:0:0:
452,40,61885,2,0,L|407:172,1,138.750005292893,8|8,0:0|0:0,0:0:0:0:
464,224,62166,2,0,L|488:152,1,69.3750026464463,8|12,0:0|0:0,0:0:0:0:
176,132,68260,6,0,P|69:78|142:171,1,323.75,8|0,2:0|0:0,0:0:0:0:
248,100,69760,5,8,0:0:0:0:
308,140,69947,1,2,0:0:0:0:
380,128,70135,1,2,0:0:0:0:
248,100,70322,5,8,0:0:0:0:
279,162,70509,1,2,0:0:0:0:
347,189,70697,1,2,0:0:0:0:
248,100,70885,5,8,0:0:0:0:
288,224,71072,1,2,0:0:0:0:
188,300,71260,5,8,0:0:0:0:
160,224,71447,1,2,0:0:0:0:
96,172,71635,1,2,0:0:0:0:
93,271,71822,5,0,0:0:0:0:
160,224,72009,1,2,0:0:0:0:
193,149,72197,1,2,0:0:0:0:
96,172,72385,5,8,0:0:0:0:
188,300,72572,1,2,0:0:0:0:
316,224,72760,6,0,L|360:212,1,46.25,8|0,0:0|0:0,0:0:0:0:
280,288,73135,1,8,0:0:0:0:
280,160,73322,2,0,L|324:148,1,46.25,0|0,0:0|0:0,0:0:0:0:
244,224,73697,1,0,0:0:0:0:
244,96,73885,2,0,L|288:84,1,46.25,0|0,0:0|0:0,0:0:0:0:
208,160,74260,6,0,P|188:144|160:136,1,46.25,0|0,0:0|1:0,0:0:0:0:
144,136,74510,2,0,L|128:136,2,15.4166666666667,0|0|0,1:0|1:0|1:0,0:0:0:0:
244,96,74822,1,0,0:0:0:0:
244,96,74916,1,0,0:0:0:0:
244,96,75010,2,0,L|272:92,1,23.125,2|0,0:0|0:0,0:0:0:0:
340,120,75197,2,0,L|368:116,1,23.125,2|0,0:0|0:0,0:0:0:0:
436,72,75385,5,2,0:0:0:0:
436,72,75478,1,2,0:0:0:0:
436,72,75572,1,10,0:0:0:0:
436,72,75666,1,8,0:0:0:0:
436,72,75760,2,0,B|484:144|484:144|432:140|396:192,1,173.4375,14|0,0:0|0:0,0:0:0:0:
476,224,76135,2,0,P|424:256|372:248,1,115.625,10|0,2:1|0:0,0:0:0:0:
244,96,76510,6,0,B|174:147|174:147|224:161|240:222,1,173.4375,10|0,0:0|0:0,0:0:0:0:
154,225,76885,2,0,P|191:272|243:283,1,115.625,10|0,2:1|0:0,0:0:0:0:
340,120,77260,5,10,0:0:0:0:
244,96,77447,1,0,2:0:0:0:
244,96,77541,1,0,0:0:0:0:
244,96,77635,1,8,2:1:0:0:
156,144,77822,1,0,0:0:0:0:
60,112,78010,6,0,L|48:68,2,46.25,8|2|0,0:0|0:0|2:0,0:0:0:0:
36,184,78291,2,0,L|52:240,1,46.25,0|10,2:0|0:0,0:0:0:0:
60,260,78478,1,0,0:0:0:0:
88,272,78572,1,0,0:0:0:0:
116,284,78666,1,0,0:0:0:0:
144,296,78760,6,0,B|184:324|212:288|252:320|252:320|232:288|244:252,1,173.4375,10|0,0:0|0:0,0:0:0:0:
260,188,79135,2,0,P|308:220|316:280,1,115.625,10|0,2:1|0:0,0:0:0:0:
128,176,79510,6,0,P|168:160|200:112,1,92.5,10|8,0:0|0:0,0:0:0:0:
200,92,79791,1,8,0:0:0:0:
196,64,79885,1,10,0:0:0:0:
176,40,79978,1,8,0:0:0:0:
208,40,80072,1,8,0:0:0:0:
240,40,80166,1,8,0:0:0:0:
272,40,80260,6,0,L|328:88,1,69.3750026464463
408,36,80635,1,2,0:0:0:0:
436,120,80822,1,2,0:0:0:0:
380,196,81009,1,0,0:0:0:0:
412,196,81103,1,2,0:0:0:0:
476,272,81291,1,2,0:0:0:0:
444,272,81385,1,2,0:0:0:0:
320,300,81572,5,0,0:0:0:0:
320,300,81666,1,0,0:0:0:0:
320,300,81760,2,0,B|288:240|288:240|252:236|252:236|216:172,1,173.4375,14|0,0:0|0:0,0:0:0:0:
124,160,82135,2,0,L|181:264,1,115.625,10|0,2:1|2:0,0:0:0:0:
44,39,82510,6,0,B|29:105|29:105|54:131|54:131|41:203,1,173.4375,10|0,0:0|0:0,0:0:0:0:
104,272,82885,2,0,L|126:154,1,115.625,10|0,2:1|2:0,0:0:0:0:
192,96,83260,6,0,P|232:60|312:64,1,138.75,10|0,0:0|0:0,0:0:0:0:
392,60,83635,2,0,L|456:136,1,92.5,8|0,2:1|0:0,0:0:0:0:
456,244,84010,1,10,0:0:0:0:
456,244,84103,1,0,0:0:0:0:
456,244,84197,1,0,0:0:0:0:
320,192,84385,2,0,P|272:184|228:188,1,92.5,8|0,0:0|0:0,0:0:0:0:
92,284,84760,6,0,B|124:232|100:176|100:176|148:136,1,173.4375,10|0,0:0|0:0,0:0:0:0:
120,64,85135,2,0,P|180:68|220:112,1,115.625,10|0,2:1|0:0,0:0:0:0:
420,284,85510,6,0,B|388:232|412:176|412:176|364:136,1,173.4375,10|0,0:0|0:0,0:0:0:0:
392,64,85885,2,0,P|332:68|292:112,1,115.625,10|0,2:1|0:0,0:0:0:0:
156,200,86260,5,10,0:0:0:0:
168,228,86353,1,0,2:0:0:0:
192,248,86447,1,0,2:0:0:0:
224,264,86541,1,0,0:0:0:0:
256,268,86635,1,8,2:1:0:0:
288,264,86728,1,0,2:0:0:0:
320,248,86822,1,0,0:0:0:0:
344,228,86916,1,0,0:0:0:0:
356,200,87010,2,0,P|352:140|328:108,1,92.5,10|8,0:0|0:0,0:0:0:0:
308,96,87291,1,8,0:0:0:0:
276,88,87385,2,0,L|184:88,1,92.5,8|8,0:0|0:0,0:0:0:0:
156,200,87760,6,0,B|124:248|160:300|160:300|136:328|144:376,1,173.4375,14|0,0:0|0:0,0:0:0:0:
220,352,88135,2,0,P|240:304|216:240,1,115.625,10|0,2:1|0:0,0:0:0:0:
276,88,88510,6,0,B|282:145|343:162|343:162|342:198|379:230,1,173.4375,10|0,0:0|0:0,0:0:0:0:
422,163,88885,2,0,P|406:113|346:79,1,115.625,10|0,2:1|0:0,0:0:0:0:
200,36,89260,6,0,P|152:72|144:116,1,92.5,10|0,0:0|2:0,0:0:0:0:
140,132,89541,1,0,0:0:0:0:
144,164,89635,2,0,L|176:256,1,92.5,8|0,2:1|0:0,0:0:0:0:
356,268,90010,2,0,P|316:220|240:208,1,138.75,10|0,0:0|0:0,0:0:0:0:
174,251,90385,2,0,L|76:232,1,92.5,8|0,0:0|0:0,0:0:0:0:
84,84,90760,6,0,P|112:156|204:160,1,173.4375,14|0,0:0|0:0,0:0:0:0:
160,96,91135,2,0,P|144:32|104:8,1,115.625,10|0,2:1|0:0,0:0:0:0:
280,124,91510,6,0,P|347:161|420:105,1,173.4375,14|0,0:0|0:0,0:0:0:0:
345,84,91885,2,0,P|291:45|245:52,1,115.625,10|0,2:1|0:0,0:0:0:0:
256,228,92260,5,8,0:0:0:0:
256,232,92353,1,8,0:0:0:0:
256,236,92447,1,8,0:0:0:0:
256,240,92541,1,8,0:0:0:0:
256,244,92635,1,8,0:0:0:0:
256,248,92728,1,8,0:0:0:0:
256,252,92822,1,8,0:0:0:0:
256,256,92916,1,8,0:0:0:0:
256,260,93010,1,8,0:0:0:0:
256,264,93103,1,8,0:0:0:0:
256,268,93197,1,8,0:0:0:0:
256,272,93291,1,8,0:0:0:0:
256,276,93385,1,8,0:0:0:0:
256,280,93478,1,8,0:0:0:0:
256,284,93572,1,8,0:0:0:0:
256,288,93666,1,8,0:0:0:0:
256,292,93760,6,0,P|288:340|368:340,1,138.75,14|0,0:0|0:0,0:0:0:0:
424,296,94135,2,0,L|460:208,1,92.5,10|2,0:0|0:0,0:0:0:0:
476,84,94510,1,8,0:0:0:0:
476,84,94603,1,0,0:0:0:0:
476,84,94697,2,0,P|428:48|376:40,2,92.5,2|10|2,0:0|0:0|0:0,0:0:0:0:
308,52,95260,6,0,B|256:48|216:72|216:72|240:88|248:124,1,138.75,14|0,0:0|0:0,0:0:0:0:
172,136,95635,2,0,P|204:172|252:180,1,92.5,10|2,0:0|0:0,0:0:0:0:
388,116,96010,1,8,0:0:0:0:
388,116,96103,1,0,0:0:0:0:
388,116,96197,2,0,L|476:84,2,92.5,2|10|2,0:0|0:0|0:0,0:0:0:0:
288,244,96760,6,0,P|288:296|356:344,1,138.75,14|0,0:0|0:0,0:0:0:0:
360,268,97135,2,0,P|360:216|336:184,1,92.5,10|2,0:0|0:0,0:0:0:0:
196,156,97510,1,8,0:0:0:0:
196,156,97603,1,0,0:0:0:0:
196,156,97697,2,0,L|104:160,2,92.5,2|10|2,0:0|0:0|0:0,0:0:0:0:
112,264,98260,6,0,P|160:268|204:248,1,92.5,8|0,0:0|0:0,0:0:0:0:
328,336,98635,2,0,P|332:288|312:244,1,92.5,8|0,0:0|0:0,0:0:0:0:
400,120,99010,2,0,P|352:116|308:136,1,92.5,8|0,0:0|0:0,0:0:0:0:
184,48,99385,2,0,P|180:96|200:140,1,92.5,8|8,0:0|0:0,0:0:0:0:
256,292,99760,6,0,P|224:340|144:340,1,138.75,14|0,0:0|0:0,0:0:0:0:
88,296,100135,2,0,L|52:208,1,92.5,10|2,0:0|0:0,0:0:0:0:
36,84,100510,1,8,0:0:0:0:
36,84,100603,1,0,0:0:0:0:
36,84,100697,2,0,P|84:48|136:40,2,92.5,2|10|2,0:0|0:0|0:0,0:0:0:0:
204,52,101260,6,0,B|256:48|296:72|296:72|272:88|264:124,1,138.75,14|0,0:0|0:0,0:0:0:0:
340,136,101635,2,0,P|308:172|260:180,1,92.5,10|2,0:0|0:0,0:0:0:0:
124,116,102010,1,8,0:0:0:0:
124,116,102103,1,0,0:0:0:0:
124,116,102197,2,0,L|36:84,2,92.5,2|10|2,0:0|0:0|0:0,0:0:0:0:
224,244,102760,6,0,P|224:296|156:344,1,138.75,14|0,0:0|0:0,0:0:0:0:
152,268,103135,2,0,P|152:216|176:184,1,92.5,10|2,0:0|0:0,0:0:0:0:
316,156,103510,1,8,0:0:0:0:
316,156,103603,1,0,0:0:0:0:
316,156,103697,2,0,L|408:160,2,92.5,2|10|2,0:0|0:0|0:0,0:0:0:0:
152,268,104260,5,0,1:0:0:0:
172,72,104447,1,0,0:0:0:0:
264,252,104635,1,0,1:0:0:0:
92,168,104822,1,0,0:0:0:0:
284,128,105010,1,8,1:0:0:0:
316,116,105103,1,8,0:0:0:0:
344,104,105197,1,8,0:0:0:0:
372,92,105291,1,8,0:0:0:0:
400,80,105385,2,0,L|432:40,1,46.25,8|8,0:0|0:0,0:0:0:0:
452,140,105572,2,0,L|420:180,1,46.25,8|8,0:0|0:0,0:0:0:0:
352,224,105760,6,0,L|304:232,1,46.25,2|0,0:0|0:0,0:0:0:0:
244,308,106135,2,0,L|196:316,1,46.25,2|2,0:0|0:0,0:0:0:0:
120,200,106510,2,0,P|144:204|164:212,1,46.25,0|2,0:0|0:0,0:0:0:0:
244,308,106885,2,0,L|292:308,1,46.25,2|2,0:0|0:0,0:0:0:0:
352,224,107260,6,0,L|376:184,1,46.25,0|2,0:0|0:0,0:0:0:0:
280,152,107635,2,0,L|304:112,1,46.25,0|2,0:0|0:0,0:0:0:0:
204,80,108010,1,2,0:0:0:0:
