osu file format v14

[General]
AudioFilename: Hana Ranman -Flowers- (2nd EDITION).ogg
AudioLeadIn: 1500
PreviewTime: 37510
Countdown: 0
SampleSet: Normal
StackLeniency: 0.4
Mode: 0
LetterboxInBreaks: 1
WidescreenStoryboard: 1

[Editor]
Bookmarks: 80260
DistanceSpacing: 1.2
BeatDivisor: 4
GridSize: 4
TimelineZoom: 1

[Metadata]
Title:Hana Ranman -Flowers- (2nd Edition .Ver)
TitleUnicode:花爛漫 -Flowors- (2nd EDITION)
Artist:TERRA
ArtistUnicode:TERRA
Creator:[ Lost ]
Version:Advance
Source:Reflec Beat
Tags:Reflec Beat Nichiyouki kantokun P_A_N PAN -_N_a_n_a_k_a_- Nanaka Soldsaga Kung SoldsagaKung Betsuto P_KunG PKung
BeatmapID:333473
BeatmapSetID:131600

[Difficulty]
HPDrainRate:6
CircleSize:4
OverallDifficulty:6
ApproachRate:8
SliderMultiplier:1.5
SliderTickRate:1

[Events]
//Background and Video events
0,0,"bg.png",0,0
//Break Periods
//Storyboard Layer 0 (Background)
//Storyboard Layer 1 (Fail)
//Storyboard Layer 2 (Pass)
//Storyboard Layer 3 (Foreground)
//Storyboard Sound Samples

[TimingPoints]
-740,375,4,2,4,60,1,0
384,-117.647058823529,4,2,4,60,0,0
3385,-117.647058823529,4,2,4,40,0,0
3478,-117.647058823529,4,2,4,60,0,0
6010,-200,4,2,4,60,0,0
8260,-100,4,1,4,60,0,0
13885,-100,4,2,3,60,0,0
13978,-100,4,1,4,60,0,0
14260,-100,4,1,4,80,0,1
14353,-100,4,1,4,80,0,0
25885,-100,4,2,3,80,0,0
25978,-100,4,1,4,80,0,0
31603,-100,4,1,0,80,0,0
31697,-100,4,1,4,80,0,0
31885,-100,4,1,0,80,0,0
32260,-100,4,1,4,80,0,0
36385,-100,4,1,0,80,0,0
36760,-100,4,1,4,80,0,0
37510,-100,4,2,4,5,0,0
37697,-66.6666666666667,4,1,0,40,0,0
37885,-100,4,2,3,80,0,0
38260,-100,4,1,4,80,0,1
50353,-200,4,1,4,30,0,0
61510,-100,4,1,4,80,0,0
67510,-200,4,1,4,80,0,0
68260,-200,4,2,3,40,0,0
68353,-200,4,2,4,30,0,0
75385,-117.647058823529,4,1,4,60,0,0
80260,-133.333333333333,4,2,4,80,0,0
81572,-83.3333333333333,4,2,2,30,0,0
81666,-83.3333333333333,4,2,2,50,0,0
81760,-100,4,1,4,80,0,1
93666,-100,4,1,4,80,0,0
93760,-100,4,1,4,80,0,1
93853,-100,4,1,4,80,0,0
105760,-200,4,2,4,50,0,0
108010,-200,4,2,4,50,0,1
108103,-200,4,1,4,50,0,0

[Colours]
Combo1 : 128,255,255
Combo2 : 255,128,255
Combo3 : 170,170,255

[HitObjects]
96,156,385,6,0,L|100:240,1,63.7500012159348,4|0,0:0|0:0,0:0:0:0:
184,244,760,6,0,L|176:100,2,127.50000243187,4|0|2,0:0|1:0|0:0,0:0:0:0:
192,256,1885,1,0,1:0:0:0:
280,296,2260,5,2,0:0:0:0:
360,248,2635,1,0,1:0:0:0:
364,152,3010,2,0,B|392:149|418:142|418:142|440:152|468:152|468:152|504:160,1,127.50000243187,2|8,0:0|1:2,0:0:0:0:
488,156,3760,6,0,P|504:92|480:28,2,127.50000243187,2|0|2,0:0|1:0|0:0,0:0:0:0:
480,164,4885,1,0,1:0:0:0:
396,120,5260,5,2,0:0:0:0:
308,152,5635,1,0,1:0:0:0:
292,244,6010,5,2,0:0:0:0:
256,192,6197,12,0,7979,0:0:0:0:
292,244,8260,6,0,L|300:96,1,140,4|8,0:2|0:0,0:0:0:0:
232,32,8822,1,0,2:0:0:0:
164,104,9010,2,0,P|98:114|20:100,1,140,2|8,0:0|0:0,0:0:0:0:
96,32,9572,1,0,2:0:0:0:
164,104,9760,6,0,P|168:140|164:176,1,70,2|0,0:0|2:0,0:0:0:0:
67,279,10135,2,0,P|64:244|69:210,1,70,8|0,0:0|2:0,0:0:0:0:
144,344,10510,1,2,0:0:0:0:
228,296,10697,1,0,2:0:0:0:
228,296,10791,1,0,0:0:0:0:
228,296,10885,2,0,L|300:292,1,70,8|0,0:0|2:0,0:0:0:0:
396,256,11260,6,0,P|312:252|264:184,1,150,2|8,0:0|0:0,0:0:0:0:
252,104,11822,1,0,2:0:0:0:
352,68,12010,2,0,P|356:108|356:144,1,75,2|0,2:0|2:0,0:0:0:0:
252,104,12385,2,0,P|248:64|248:28,1,75,8|0,0:0|2:0,0:0:0:0:
172,184,12760,6,0,B|128:196|92:176|92:176|76:212|24:224,1,150,2|8,0:0|0:0,0:0:0:0:
0,120,13322,2,0,L|4:40,1,75,0|2,2:0|0:0,0:0:0:0:
42,218,13697,2,0,L|40:268,2,37.5,8|8|12,0:0|0:0|0:0,0:0:0:0:
100,312,14072,1,8,0:0:0:0:
100,312,14166,1,8,0:0:0:0:
100,312,14260,6,0,L|180:304,1,75,12|0,0:0|2:0,0:0:0:0:
276,344,14635,2,0,L|352:336,1,75,8|0,0:0|2:0,0:0:0:0:
456,324,15010,2,0,P|424:256|440:180,1,150,10|8,0:0|0:0,0:0:0:0:
488,92,15572,1,2,2:0:0:0:
488,92,15947,5,0,2:0:0:0:
388,124,16135,1,8,0:0:0:0:
308,56,16322,1,0,2:0:0:0:
212,96,16510,2,0,L|204:180,1,75,10|0,0:0|2:0,0:0:0:0:
128,322,16885,2,0,L|135:243,1,75,8|0,0:0|2:0,0:0:0:0:
204,170,17260,6,0,P|132:186|72:144,2,150,8|10|10,0:0|0:0|0:0,0:0:0:0:
300,216,18197,2,0,L|296:292,1,75,0|8,2:0|0:0,0:0:0:0:
236,348,18572,1,0,2:0:0:0:
296,290,18760,6,0,P|336:282|368:282,1,70,10|0,0:0|2:0,0:0:0:0:
512,224,19135,2,0,P|477:223|436:216,1,75,8|0,0:0|2:0,0:0:0:0:
384,156,19510,2,0,L|376:88,3,37.5,10|0|2|0,0:0|0:0|0:0|0:0,0:0:0:0:
344,100,19885,2,0,L|336:36,3,35,10|0|2|0,0:0|0:0|0:0|0:0,0:0:0:0:
292,48,20260,6,0,B|276:28|256:16|256:16|216:44|144:32,1,150,14|8,0:0|0:0,0:0:0:0:
80,8,20822,1,0,2:0:0:0:
20,64,21010,2,0,L|36:220,1,150,10|8,0:0|0:0,0:0:0:0:
100,272,21572,1,2,2:0:0:0:
168,224,21760,6,0,P|216:216|252:220,1,75,8|0,0:0|2:0,2:0:0:0:
388,296,22135,2,0,P|350:297|313:290,1,75,8|0,0:0|2:0,2:0:0:0:
228,360,22510,1,10,0:0:0:0:
248,356,22603,1,0,0:0:0:0:
264,348,22697,1,2,0:0:0:0:
276,336,22791,1,0,0:0:0:0:
284,320,22885,2,0,P|284:280|280:268,3,37.5,10|0|2|0,0:0|0:0|0:0|0:0,0:0:0:0:
292,264,23260,6,0,L|280:104,1,150,12|8,0:0|0:0,0:0:0:0:
328,48,23822,1,0,2:0:0:0:
280,114,24010,2,0,P|236:118|196:106,1,75,10|0,0:0|2:0,2:0:0:0:
148,52,24385,1,8,0:0:0:0:
84,104,24572,6,0,P|52:176|112:248,1,150,2|0,2:0|2:0,0:0:0:0:
152,276,25135,2,0,P|196:280|236:268,1,75,8|0,0:0|2:0,2:0:0:0:
296,228,25510,1,10,0:0:0:0:
320,224,25603,1,0,0:0:0:0:
344,224,25697,6,0,P|368:228|384:240,3,37.5,8|8|14|0,0:0|0:0|0:0|0:0,0:0:0:0:
396,252,26072,1,0,0:0:0:0:
420,260,26166,1,0,0:0:0:0:
444,256,26260,2,0,L|444:172,1,75,12|0,0:0|0:0,0:0:0:0:
344,224,26635,6,0,P|272:248|212:204,1,150,10|8,0:0|0:0,0:0:0:0:
212,128,27197,1,0,2:0:0:0:
288,96,27385,2,0,L|284:184,1,75,10|0,0:0|2:0,0:0:0:0:
215,209,27760,6,0,L|60:200,1,150,8|10,0:0|0:0,0:0:0:0:
20,132,28322,1,0,0:0:0:0:
65,200,28510,2,0,B|65:224|65:224|73:256|73:256|73:284,1,75,10|0,0:0|2:0,0:0:0:0:
120,344,28885,2,0,B|144:344|144:344|176:336|176:336|204:336,1,75,10|0,0:0|2:0,0:0:0:0:
280,340,29260,6,0,P|352:360|412:304,2,150,8|10|8,0:0|0:0|0:0,0:0:0:0:
252,260,30197,1,0,0:0:0:0:
324,216,30385,2,0,P|332:256|332:304,1,70,10|0,0:0|2:0,0:0:0:0:
251,177,30760,6,0,P|252:142|260:108,1,70,8|0,0:0|2:0,0:0:0:0:
420,92,31135,2,0,P|380:100|348:100,1,70,10|0,0:0|2:0,0:0:0:0:
208,40,31510,1,10,0:0:0:0:
188,32,31603,1,0,0:0:0:0:
164,28,31697,1,0,0:0:0:0:
140,28,31791,1,0,0:0:0:0:
120,32,31885,2,0,L|112:112,1,75
200,294,32260,6,0,P|212:226|164:146,1,150,12|10,0:0|0:0,0:0:0:0:
112,106,32822,1,0,0:0:0:0:
84,184,33010,2,0,L|4:192,1,75,8|2,0:0|0:0,0:0:0:0:
16,272,33385,2,0,L|96:264,1,75,10|0,0:0|2:0,0:0:0:0:
176,156,33760,6,0,L|24:168,1,150,8|10,0:0|0:0,0:0:0:0:
264,188,34322,2,0,L|340:180,1,75,0|8,2:0|0:0,0:0:0:0:
408,136,34697,1,0,2:0:0:0:
288,200,34885,2,0,P|296:160|296:120,1,75,10|0,0:0|2:0,0:0:0:0:
252,56,35260,6,0,P|316:96|392:72,2,150,8|10|8,0:0|0:0|0:0,0:0:0:0:
152,28,36197,2,0,L|72:36,1,75,0|2,2:0|0:2,0:0:0:0:
64,60,36478,1,8,0:3:0:0:
56,84,36572,1,4,0:3:0:0:
60,112,36666,1,4,0:3:0:0:
76,132,36760,6,0,P|88:164|68:244,1,112.5,8|0,0:0|0:0,0:0:0:0:
60,264,37135,2,0,B|108:256|108:256|144:272|184:264,1,112.5,4|0,0:0|0:0,0:0:0:0:
197,253,37510,1,0,0:0:0:0:
220,240,37603,1,0,0:0:0:0:
240,224,37697,6,0,L|236:188,4,28.1250010728836,2|0|0|0|4,0:2|0:2|0:2|0:2|1:2,0:0:0:0:
240,224,38260,2,0,P|312:240|376:200,1,150,14|10,0:0|0:0,0:0:0:0:
400,124,38822,1,0,2:0:0:0:
374,202,39010,2,0,B|371:236|371:236|384:356,1,150,10|10,0:0|0:0,0:0:0:0:
464,376,39572,1,0,2:0:0:0:
383,351,39760,6,0,P|335:335|271:351,1,105,10|0,0:0|2:0,0:0:0:0:
235,357,40135,2,0,L|240:280,1,75,10|0,0:0|2:0,0:0:0:0:
96,196,40510,2,0,L|92:276,1,75,10|0,0:0|2:0,0:0:0:0:
248,140,40885,2,0,L|252:56,1,75,14|0,0:0|2:0,0:0:0:0:
192,208,41260,6,0,P|232:224|324:180,1,150,14|10,0:0|0:0,0:0:0:0:
392,136,41822,1,0,2:0:0:0:
464,176,42010,2,0,B|460:204|460:204|472:328,1,150,10|10,0:0|0:0,0:0:0:0:
396,356,42572,1,0,2:0:0:0:
324,312,42760,6,0,P|276:296|212:308,1,112.5,10|0,0:0|2:0,0:0:0:0:
180,324,43135,2,0,L|100:316,1,70,10|0,0:0|2:0,0:0:0:0:
0,196,43510,2,0,L|76:204,1,75,10|0,0:0|2:0,0:0:0:0:
156,216,43885,1,14,0:0:0:0:
204,152,44072,1,0,2:0:0:0:
164,80,44260,6,0,B|88:88|88:88|20:56,1,150,14|10,0:0|0:0,0:0:0:0:
248,80,44822,2,0,P|256:48|256:4,1,75,0|10,2:0|0:0,0:0:0:0:
288,156,45197,2,0,P|312:148|352:112,1,75,0|10,2:0|0:0,0:0:0:0:
272,240,45572,2,0,P|312:248|348:248,1,75,0|10,2:0|0:0,0:0:0:0:
192,272,45947,1,0,2:0:0:0:
192,272,46041,5,0,2:0:0:0:
192,272,46135,2,0,L|184:348,1,75,10|0,0:0|2:0,0:0:0:0:
368,352,46510,2,0,L|356:236,1,112.5,10|0,0:0|2:0,0:0:0:0:
384,212,46885,2,0,P|421:207|464:208,1,75,14|0,0:0|2:0,0:0:0:0:
288,156,47260,6,0,P|252:168|152:124,1,150,12|10,0:0|0:0,0:0:0:0:
184,52,47822,1,0,2:0:0:0:
153,126,48010,2,0,L|161:202,1,75,10|0,0:0|2:0,0:0:0:0:
24,288,48385,2,0,L|16:208,1,75,10|0,0:0|2:0,0:0:0:0:
220,280,48760,6,0,P|168:296|108:280,1,112.5,14|8,0:0|0:0,0:0:0:0:
124,304,49135,2,0,L|212:312,1,70,10|8,0:0|0:0,0:0:0:0:
276,340,49510,1,14,0:0:0:0:
344,192,49885,1,10,0:0:0:0:
492,260,50260,5,14,0:0:0:0:
492,260,51010,1,2,0:0:0:0:
432,120,51760,2,0,L|436:208,1,75,8|4,0:0|0:0,0:0:0:0:
347,266,52510,2,0,L|343:178,1,75,2|0,0:0|0:0,0:0:0:0:
268,120,53072,1,8,0:0:0:0:
268,120,53166,1,8,0:0:0:0:
268,120,53260,6,0,B|228:132|196:108|148:120,1,112.5,8|0,0:0|0:0,0:0:0:0:
96,208,54010,2,0,L|176:204,1,75,8|2,0:0|0:0,0:0:0:0:
200,348,54760,2,0,P|184:324|180:308,1,37.5,8|0,0:0|0:0,0:0:0:0:
264,300,55135,2,0,P|260:272|264:220,1,75,10|0,0:0|0:0,0:0:0:0:
360,160,55885,2,0,L|392:156,3,18.75,8|8|8|8,0:0|0:0|0:0|0:0,0:0:0:0:
392,152,56260,6,0,P|396:124|392:28,1,112.5,12|0,0:0|0:0,0:0:0:0:
312,72,57010,2,0,B|268:80|232:60|232:60|188:68,1,112.5,2|0,0:0|0:0,0:0:0:0:
128,116,57760,2,0,L|48:112,1,75,8|4,0:0|0:0,0:0:0:0:
108,208,58510,2,0,P|144:212|188:188,1,75,8|0,0:0|0:0,0:0:0:0:
240,260,59072,1,8,0:0:0:0:
240,260,59166,1,8,0:0:0:0:
240,260,59260,6,0,P|256:240|264:144,1,112.5,8|0,0:0|0:0,0:0:0:0:
360,144,60010,6,0,P|350:120|271:65,1,112.5,8|0,0:0|0:0,0:0:0:0:
196,32,60760,1,8,0:0:0:0:
196,32,61135,5,8,0:0:0:0:
104,200,61510,1,8,0:0:0:0:
104,200,61697,6,0,L|60:192,2,37.5,10|8|8,0:0|0:0|0:0,0:0:0:0:
204,160,62072,2,0,L|256:168,1,37.5,10|8,0:0|0:0,0:0:0:0:
280,148,62260,2,0,L|266:272,1,112.5
264,293,62635,6,0,P|226:283|180:284,1,75,10|0,0:0|0:0,0:0:0:0:
232,372,63010,2,0,P|272:380|352:304,1,150,10|8,0:0|0:0,0:0:0:0:
264,293,63572,1,0,0:0:0:0:
428,336,63760,6,0,P|436:304|424:260,1,75,10|0,0:0|0:0,0:0:0:0:
380,204,64135,2,0,P|372:172|380:128,1,75,10|0,0:0|0:0,0:0:0:0:
412,64,64510,2,0,P|348:112|272:96,1,150,10|14,0:0|0:0,0:0:0:0:
236,44,65072,1,0,0:0:0:0:
176,92,65260,6,0,B|114:92|114:92|72:120|20:100,1,150,14|10,0:0|0:0,0:0:0:0:
64,36,65822,1,0,0:0:0:0:
136,168,66010,2,0,L|144:264,1,75,10|0,0:0|0:0,0:0:0:0:
60,260,66385,2,0,L|52:172,1,75,10|8,0:0|0:0,0:0:0:0:
52,185,66666,5,8,0:0:0:0:
52,185,66760,1,8,0:0:0:0:
120,324,67135,1,12,0:0:0:0:
272,280,67510,6,0,P|296:280|316:272,1,37.5,2|0,0:0|0:0,0:0:0:0:
436,216,67885,2,0,P|416:216|392:224,1,37.5,10|0,0:0|0:0,0:0:0:0:
392,332,68260,1,14,0:0:0:0:
256,192,68353,12,12,69760,0:0:0:0:
392,332,70135,6,0,L|384:280,1,37.5,8|0,0:0|0:0,0:0:0:0:
352,136,71260,1,8,0:0:0:0:
200,168,71635,2,0,P|248:176|288:164,1,75,2|0,0:0|0:0,0:0:0:0:
240,88,72385,1,8,0:0:0:0:
200,168,72760,6,0,L|204:248,1,75,8|8,0:0|0:0,0:0:0:0:
164,308,73510,1,0,0:0:0:0:
164,308,74260,2,0,P|116:316|80:304,2,75,10|0|2,0:0|0:0|0:0,0:0:0:0:
256,220,75385,5,8,0:0:0:0:
332,268,75572,1,8,0:0:0:0:
332,268,75666,1,8,0:0:0:0:
332,268,75760,2,0,L|324:132,1,127.50000243187,12|8,0:0|0:0,0:0:0:0:
384,68,76322,1,0,0:0:0:0:
324,140,76510,2,0,P|248:148|204:96,1,127.50000243187,8|8,0:0|0:0,0:0:0:0:
280,56,77072,1,0,2:0:0:0:
132,124,77260,6,0,P|124:156|128:228,1,95.6250018239022,8|0,0:0|2:0,0:0:0:0:
148,256,77635,2,0,P|180:280|208:292,1,63.7500012159348,8|0,0:0|2:0,0:0:0:0:
76,332,78010,2,0,P|36:340|16:352,1,63.7500012159348,8|0,0:0|3:0,0:0:0:0:
40,228,78385,2,0,P|48:196|48:160,1,63.7500012159348,8|0,0:0|2:0,0:0:0:0:
148,256,78760,6,0,L|16:244,2,127.50000243187,8|8|8,0:0|0:0|0:0,0:0:0:0:
272,240,79697,1,8,0:0:0:0:
280,256,79791,1,8,0:0:0:0:
284,268,79885,2,0,L|324:260,3,29.7500005674362,8|8|8|8,0:0|0:0|0:0|0:0,0:0:0:0:
336,260,80260,6,0,P|352:212|344:180,1,78.7500030040742,2|0,0:0|0:0,0:0:0:0:
340,168,80635,2,0,P|376:172|416:160,1,56.2500021457673,2|2,0:0|0:0,0:0:0:0:
224,16,81010,6,0,P|240:64|232:96,1,78.7500030040742,2|0,0:0|0:0,0:0:0:0:
220,112,81385,1,2,0:0:0:0:
108,176,81572,2,0,L|84:172,4,20.9999993591309,0|0|0|0|4,1:0|1:0|1:0|1:0|0:0,0:0:0:0:
120,176,81760,6,0,L|112:332,1,150,0|10,0:0|0:0,0:0:0:0:
188,372,82322,1,0,0:0:0:0:
268,332,82510,2,0,P|332:348|408:312,1,150,10|10,0:0|0:0,0:0:0:0:
416,224,83072,1,0,0:0:0:0:
328,244,83260,6,0,L|340:124,1,112.5,10|0,0:0|0:0,0:0:0:0:
348,88,83635,2,0,P|380:96|420:96,1,70,10|0,0:0|0:0,0:0:0:0:
252,104,84010,2,0,L|242:8,1,75,10|0,0:0|0:0,0:0:0:0:
184,172,84385,1,10,0:0:0:0:
184,172,84478,1,0,0:0:0:0:
184,172,84572,1,0,0:0:0:0:
164,264,84760,6,0,B|104:256|104:256|60:276|8:256,1,150,14|10,0:0|0:0,0:0:0:0:
52,184,85322,1,0,0:0:0:0:
128,340,85510,2,0,P|180:348|248:288,1,150,10|10,0:0|0:0,0:0:0:0:
228,200,86072,1,0,0:0:0:0:
248,287,86260,6,0,L|360:296,1,112.5,10|0,0:0|0:0,0:0:0:0:
388,296,86635,2,0,L|372:216,1,75,10|0,0:0|0:0,0:0:0:0:
420,144,87010,2,0,P|372:136|336:100,1,75,10|8,0:0|0:0,0:0:0:0:
304,40,87385,1,14,0:0:0:0:
304,40,87478,1,8,0:0:0:0:
304,40,87572,1,8,0:0:0:0:
78,188,87760,6,0,L|230:200,1,150,14|10,0:0|0:0,0:0:0:0:
300,256,88322,1,0,0:0:0:0:
372,204,88510,2,0,B|356:256|396:288|396:288|416:280|476:276,1,150,10|10,0:0|0:0,0:0:0:0:
436,368,89072,1,0,0:0:0:0:
348,344,89260,6,0,P|308:328|244:344,1,105,10|0,0:0|0:0,0:0:0:0:
196,352,89635,2,0,L|124:344,1,70,10|0,0:0|0:0,0:0:0:0:
48,264,90010,2,0,L|120:256,1,70,10|0,0:0|0:0,0:0:0:0:
176,180,90385,1,10,0:0:0:0:
148,96,90572,1,0,0:0:0:0:
60,80,90760,6,0,L|224:68,1,150,10|10,0:0|0:0,0:0:0:0:
288,24,91322,1,0,0:0:0:0:
348,92,91510,2,0,B|360:128|360:128|328:184|352:248,1,150,10|10,0:0|0:0,0:0:0:0:
416,292,92072,1,0,0:0:0:0:
336,332,92260,6,0,L|288:320,3,37.5,10|8|10|8,0:0|0:0|0:0|0:0,0:0:0:0:
248,312,92635,2,0,L|200:324,3,37.5,10|10|10|10,0:0|0:0|0:0|0:0,0:0:0:0:
152,340,93010,2,0,L|164:232,1,75
28,132,93385,2,0,L|76:124,3,37.5,10|8|10|10,0:0|0:0|0:0|0:0,0:0:0:0:
100,116,93760,6,0,L|80:264,1,150,12|10,0:0|0:0,0:0:0:0:
152,340,94322,1,2,0:0:0:0:
152,340,94697,2,0,P|192:348|232:348,2,75,2|10|0,0:0|0:0|0:0,0:0:0:0:
196,260,95260,6,0,P|255:225|336:240,1,150,10|10,0:0|0:0,0:0:0:0:
408,288,95822,1,2,0:0:0:0:
408,288,96197,2,0,P|416:248|416:208,2,70,2|10|0,0:0|0:0|0:0,0:0:0:0:
332,238,96760,6,0,L|348:88,1,150,10|10,0:0|0:0,0:0:0:0:
268,48,97322,2,0,P|208:72|124:64,1,150,2|2,0:0|0:0,0:0:0:0:
40,32,97885,2,0,P|48:72|48:108,1,75,10|0,0:0|0:0,0:0:0:0:
12,188,98260,6,0,B|60:196|100:176|100:176|176:184,1,150,10|8,0:0|0:0,0:0:0:0:
304,292,99010,6,0,B|256:284|216:304|216:304|148:296,1,150,10|10,0:0|0:0,0:0:0:0:
156,297,99760,6,0,P|196:313|292:256,1,150,14|10,0:0|0:0,0:0:0:0:
324,184,100322,1,2,0:0:0:0:
324,184,100697,2,0,P|316:128|316:104,2,75,2|10|2,0:0|0:0|0:0,0:0:0:0:
380,256,101260,6,0,P|436:218|512:236,1,150,10|10,0:0|0:0,0:0:0:0:
456,304,101822,2,0,P|416:242|435:172,1,150,2|2,0:0|0:0,0:0:0:0:
484,96,102385,2,0,L|488:16,1,75,10|0,0:0|0:0,0:0:0:0:
400,92,102760,6,0,P|360:120|260:96,1,150,10|10,0:0|0:0,0:0:0:0:
208,32,103322,2,0,L|200:184,1,150,2|2,0:0|0:0,0:0:0:0:
116,220,103885,2,0,L|108:136,1,75,10|0,0:0|0:0,0:0:0:0:
256,252,104260,6,0,L|248:332,2,75,10|0|10,0:0|0:0|0:0,0:0:0:0:
320,188,104822,1,0,0:0:0:0:
388,244,105010,2,0,L|396:288,7,37.5,8|8|8|8|8|8|8|8,0:0|0:0|0:0|0:0|0:0|0:0|0:0|0:0,0:0:0:0:
406,305,105760,6,0,P|390:316|373:321,1,37.5,2|0,0:0|0:0,0:0:0:0:
325,344,106135,6,0,P|306:344|288:342,1,37.5
235,340,106510,6,0,P|214:327|197:305,1,37.5,2|2,0:0|0:0,0:0:0:0:
163,293,106885,6,0,P|159:276|159:250,1,37.5
129,216,107260,6,0,P|125:195|125:178,1,37.5,2|2,0:0|0:0,0:0:0:0:
159,139,107635,6,0,L|163:93,2,37.5,0|0|2,0:0|0:0|0:0,0:0:0:0:
