osu file format v6

[General]
AudioFilename: 214. Hana Ranman -Flowers-.mp3
AudioLeadIn: 1004
PreviewTime: 74118
Countdown: 0
SampleSet: Normal
StackLeniency: 0.7
Mode: 0
LetterboxInBreaks: 1

[Editor]
Bookmarks: 74119
DistanceSpacing: 0.899999976158142
BeatDivisor: 4
GridSize: 8

[Metadata]
Title:Hana Ranman
Artist:TERRA
Creator:osu_CN_yaya
Version:Hard
Source:
Tags:IIDX

[Difficulty]
HPDrainRate:7
CircleSize:4
OverallDifficulty:7
SliderMultiplier:2
SliderTickRate:1

[Events]
//Background and Video events
0,0,"bg.jpg"
//Break Periods
//Storyboard Layer 0 (Background)
//Storyboard Layer 1 (Fail)
//Storyboard Layer 2 (Pass)
//Storyboard Layer 3 (Foreground)
//Storyboard Sound Samples
//Background Colour Transformations
3,100,163,162,255

[TimingPoints]
609,375.046880860108,4,2,0,100,1,0
6516,-100,4,1,0,79,0,0
35864,-100,4,1,0,58,0,0
36239,-100,4,1,0,70,0,0
36614,-100,4,1,0,81,0,0
48616,-200,4,2,0,86,0,0
54616,-100,4,1,0,100,0,0
60617,-100,4,2,1,69,0,0
62117,-100,4,1,1,52,0,0
68118,-100,4,1,0,100,0,0
85370,-100,4,1,0,100,0,0
98122,-100,4,1,2,74,0,0
99997,-100,4,1,1,45,0,0

[Colours]
Combo1 : 255,152,102
Combo2 : 255,128,255

[HitObjects]
72,56,610,1,2
440,56,1360,1,0
168,328,2110,1,2
256,256,2485,1,0
344,328,2860,1,0
64,160,3610,6,2,B|168:96|272:168|272:168,1,200,2|0
328,192,4172,1,0
392,256,4360,2,0,B|480:184|432:64|432:64,1,200
368,16,4923,1,0
296,72,5110,2,2,B|80:72,2,200,2|0|2
256,296,6235,1,8
456,56,6610,6,0,B|424:192|424:192,1,100
400,232,6985,2,0,B|296:192|296:192,1,100,8|0
224,168,7360,2,0,B|224:272|224:272,1,100
224,352,7735,2,0,B|104:376|104:376,1,100,8|0
40,352,8110,2,0,B|40:224|40:224,1,100
48,168,8485,2,0,B|168:136|168:136,1,100,8|0
232,112,8861,2,0,B|200:0,2,100,0|0|8
256,328,9611,6,0,B|360:328|360:328,1,100
256,240,9986,2,0,B|144:240|144:240,1,100,8|0
256,152,10361,2,0,B|376:152|376:152,1,100
256,64,10736,2,0,B|144:64|144:64,1,100,8|0
72,64,11111,1,0
8,128,11298,1,0
72,192,11486,1,8
8,256,11673,1,0
72,320,11861,1,0
136,256,12048,1,0
160,256,12142,1,0
184,256,12236,1,8
280,256,12423,1,0
352,328,12611,6,0,B|488:288|440:152|440:152,1,200,0|8
376,112,13174,1,0
296,160,13361,2,0,B|160:144|160:8|160:8,1,200,0|8
256,56,13924,2,0,B|32:56|32:56,1,200
56,136,14486,1,8
56,224,14674,1,0
136,184,14861,2,0,B|176:240|144:296,2,100,0|0|8
224,136,15424,5,0
224,136,15518,1,0
224,136,15611,2,0,B|432:136|432:136,1,200,0|8
464,216,16174,1,0
424,296,16361,2,0,B|216:296|216:296,1,200,0|8
168,216,16924,1,0
256,48,17299,5,0
256,144,17487,1,8
256,240,17674,1,0
256,336,17862,1,2
256,48,18237,1,2
64,168,18612,6,0,B|96:280|96:280,1,100
160,328,18987,1,8
216,256,19174,1,0
280,328,19362,2,0,B|392:304|408:184|408:184,1,200,0|8
328,152,19924,2,0,B|200:184|200:184,1,100
160,120,20299,1,0
112,200,20487,2,0,B|40:112|40:112,1,100,8|0
96,48,20862,1,0
96,336,21237,1,8
440,336,21612,6,0,B|496:288|496:176|416:144|416:144,1,200,0|8
360,208,22175,1,0
272,208,22362,1,0
160,88,22737,1,8
248,88,22925,1,0
256,344,23300,1,0
192,272,23487,1,8
256,200,23675,1,0
320,272,23862,2,0,B|440:272|488:144|488:144,1,200,0|0
72,72,24613,6,0,B|192:72|192:72,1,100,2|0
264,72,24988,2,0,B|216:176|216:176,1,100,2|0
208,248,25363,2,0,B|352:280|352:280,1,100,2|0
400,272,25738,2,0,B|368:144|368:144,1,100,2|0
328,96,26113,1,2
264,160,26300,1,0
200,96,26488,1,2
136,160,26675,1,0
72,96,26863,2,2,B|-8:208|96:304|96:304,1,200,2|0
160,296,27425,1,0
240,344,27613,6,2,B|368:344|400:192|400:192,1,200,2|0
312,176,28175,1,0
232,216,28363,2,2,B|96:176|144:40|144:40,1,200,2|0
216,16,28926,1,0
288,80,29113,2,2,B|496:80|496:80,1,200,2|0
448,160,29676,1,0
488,240,29863,2,0,B|440:288|488:344,2,100,2|0|0
392,240,30426,5,0
392,240,30519,1,0
392,240,30613,2,0,B|336:352|216:296|216:296,1,200,2|0
280,184,31176,1,0
171,122,31363,2,0,B|231:18|351:74|351:74,2,200,2|0|2
160,224,32301,2,0,B|64:272|64:272,1,100,0|2
56,184,32676,1,0
56,184,32770,1,0
56,184,32864,2,0,B|24:80,2,100,2|0|2
136,128,33426,1,0
216,72,33614,6,0,B|448:72|448:72,1,200
296,312,34364,2,0,B|64:312|64:312,1,200
96,72,35114,1,4
416,72,35489,1,0
256,344,35864,1,0
256,272,36051,1,0
256,192,36239,1,0
256,104,36426,1,0
344,48,36614,6,0,B|432:152|328:248|328:248,1,200,2|0
344,328,37177,1,0
264,272,37364,1,2
184,328,37552,1,0
184,328,37645,1,0
184,328,37739,1,0
104,272,37927,1,0
184,224,38114,6,2,B|80:200|128:64|128:64,1,150,2|0
118,106,38489,1,0
208,56,38677,1,0
208,152,38864,1,2
296,104,39052,1,0
384,144,39239,6,0,B|448:144|464:56|464:56,2,100,0|0|2
296,192,39802,1,0
384,240,39989,2,0,B|448:240|464:328|464:328,2,100,0|0|2
296,192,40552,1,0
296,288,40740,1,0
224,240,40927,5,0
184,256,41021,1,0
144,272,41115,2,2,B|40:264|48:144|48:144,1,150,2|0
49,172,41490,1,0
72,88,41677,1,0
152,144,41865,1,2
168,48,42052,1,0
256,96,42240,6,0,B|320:80|320:-8,2,100,0|0|2
256,192,42802,1,0
256,288,42990,2,0,B|192:304|192:392,2,100,0|0|2
256,192,43552,1,0
344,240,43740,1,0
344,144,43927,5,0
344,144,44021,1,0
344,144,44115,2,2,B|352:40|224:24|224:24,1,150,2|0
261,33,44490,1,0
208,112,44678,1,0
128,56,44865,1,2
72,136,45053,1,0
152,192,45240,6,0,B|184:240|144:312,2,100,0|0|2
256,104,45803,1,0
360,192,45990,2,0,B|328:144|368:72,2,100,0|0|2
256,280,46553,1,0
344,328,46740,5,0
408,256,46928,1,0
408,256,47022,1,0
408,256,47115,2,2,B|304:240|320:112|320:112,1,150,2|0
320,149,47490,1,0
304,48,47678,1,0
224,104,47865,2,2,B|72:56|40:208|40:208,1,200,2|2
48,336,48616,6,2,B|160:272|256:344|256:344,1,200
320,288,49741,1,0
392,232,50022,1,0
392,232,50116,1,2
368,144,50491,1,0
296,200,50866,1,2
232,136,51241,1,0
168,200,51522,5,0
168,200,51616,2,2,B|88:232|88:336|168:360|168:360,1,200
232,304,52741,1,0
312,352,53116,2,0,B|432:352|432:352,1,100,2|0
472,288,53866,1,2
416,224,54054,1,0
392,200,54147,1,0
368,176,54241,1,0
312,112,54429,1,0
256,48,54616,6,2,B|144:48|144:48,1,100,2|0
256,144,54991,2,2,B|400:144|400:144,1,100,2|0
256,240,55366,2,2,B|136:240|136:240,1,100,2|0
256,336,55741,2,2,B|376:336|376:336,1,100,2|0
416,272,56116,1,2
360,200,56304,1,0
416,128,56491,1,2
360,56,56679,1,0
304,128,56867,2,2,B|256:72|160:72|112:144|112:144,1,200,2|0
56,192,57429,1,0
152,216,57617,6,2,B|64:240|64:352|160:368|160:368,1,200,2|0
256,288,58179,1,0
360,216,58367,2,2,B|448:240|448:352|352:368|352:368,1,200,2|0
256,288,58929,1,0
256,200,59117,5,2
168,128,59304,1,0
208,40,59492,1,2
304,40,59679,1,0
344,128,59867,1,2
256,344,60242,1,2
256,208,60617,12,0,61742
256,192,61930,5,0
256,192,62117,1,2
408,264,62492,5,0
464,192,62680,1,0
408,120,62867,1,2
104,264,63242,1,0
48,192,63430,1,0
104,120,63617,2,0,B|264:120|264:120,1,150,2|0
254,120,63992,1,0
336,72,64180,1,0
368,160,64367,1,2
168,256,64743,6,0,B|160:336|80:336|80:336,2,100,0|0|2
344,256,65493,2,0,B|352:336|432:336|432:336,2,100,0|0|2
256,64,66243,1,0
256,64,66430,1,0
256,64,66618,2,0,B|256:216|256:216,1,150,2|0
256,214,66993,1,0
312,296,67180,1,0
208,296,67368,1,2
416,64,67743,5,0
488,128,67930,1,0
416,184,68118,2,0,B|416:288|416:288,1,100,2|0
328,224,68493,2,0,B|328:120|328:120,1,100,0|0
240,184,68868,2,0,B|240:288|240:288,1,100,2|0
152,224,69243,2,0,B|152:120|152:120,1,100,0|0
64,184,69618,2,2,B|-8:288|104:344|104:344,1,150,2|0
71,319,69993,1,0
160,352,70181,1,0
232,288,70368,1,2
192,104,70743,6,0,B|112:104|112:8|112:8,2,100,0|0|2
256,192,71306,1,0
320,280,71493,2,0,B|400:280|400:376|400:376,2,100,0|0|2
256,192,72056,1,0
320,104,72243,1,0
384,192,72431,1,0
448,104,72619,2,2,B|512:184|448:272|448:272,1,150,2|0
462,245,72994,1,0
392,312,73181,1,0
320,248,73369,1,2
256,48,73744,5,4
192,248,74119,6,2,B|80:176|160:40|160:40,1,200
256,48,74681,1,0
320,136,74869,2,2,B|432:208|352:344|352:344,1,200
256,336,75431,1,0
168,272,75619,2,2,B|64:288|56:160|56:160,1,150
61,190,75994,1,2
88,104,76181,1,0
176,80,76369,1,2
480,192,76744,5,2
408,248,76932,1,0
328,296,77119,2,2,B|240:208|296:104|296:104,1,200
368,56,77682,1,0
376,144,77869,2,2,B|256:200|176:112|176:112,1,200
96,88,78432,1,0
112,176,78619,2,2,B|152:328|152:328,1,150,2|0
150,321,78994,1,2
256,352,79182,1,0
224,264,79369,1,2
448,64,79744,5,2
392,136,79932,1,0
336,208,80119,2,2,B|320:80|168:80|168:80,1,200
120,144,80682,1,0
88,232,80870,2,2,B|128:344|264:336|264:336,1,200
328,296,81432,1,0
416,336,81620,2,2,B|416:168|416:168,1,150,2|0
416,186,81995,1,2
472,112,82182,1,0
416,40,82370,1,2
136,48,82745,5,2
64,112,82932,1,0
136,176,83120,2,2,B|48:280|136:360|136:360,1,200
256,264,83682,1,0
376,176,83870,2,2,B|464:280|376:360|376:360,1,200
256,264,84432,1,0
256,264,84620,2,2,B|256:104|256:104,1,150,2|0
256,114,84995,1,2
256,114,85183,1,0
256,208,85370,12,0,86120
256,88,86495,5,2
256,88,86683,1,0
296,304,87058,5,0
296,304,87245,1,0
296,304,87433,1,0
384,264,87620,2,2,B|464:208|432:80|432:80,1,200,2|0
432,81,88183,1,2
216,304,88558,5,0
216,304,88746,1,0
216,304,88933,1,0
128,264,89121,2,2,B|48:208|80:80|80:80,1,200,2|0
79,81,89683,1,2
256,32,90058,5,0
256,32,90246,1,0
256,32,90433,1,0
352,96,90621,5,2
160,160,90996,1,2
440,224,91371,1,2
72,288,91746,1,2
256,64,92121,6,2,B|256:280|256:280,1,200,2|0
256,264,92684,1,2
344,88,93059,5,0
344,88,93246,1,0
344,88,93434,1,0
416,144,93621,2,2,B|448:280|328:344|328:344,1,200,2|0
356,323,94184,1,2
168,88,94559,5,0
168,88,94746,1,0
168,88,94934,1,0
96,144,95121,2,2,B|64:280|184:344|184:344,1,200,2|0
155,323,95684,1,2
256,56,96059,5,0
256,144,96246,1,0
256,232,96434,1,0
256,320,96622,5,2
464,192,96997,1,0
256,56,97372,1,2
48,192,97747,1,0
256,208,98122,12,0,100372
