osu file format v12

[General]
AudioFilename: escape.mp3
AudioLeadIn: 0
PreviewTime: 44307
Countdown: 0
SampleSet: Soft
StackLeniency: 0.7
Mode: 0
LetterboxInBreaks: 1
WidescreenStoryboard: 1

[Editor]
Bookmarks: 38860
DistanceSpacing: 1
BeatDivisor: 4
GridSize: 4

[Metadata]
Title:Escape to the Sky (Short ver.)
TitleUnicode:Escape to the Sky (Short ver.)
Artist:TERRA
ArtistUnicode:TЁЯRA
Creator:oslea
Version:BOstyle
Source:DDR GuitarFreaks V & DrumMania V
Tags:Bluoxy
BeatmapID:359338
BeatmapSetID:144634

[Difficulty]
HPDrainRate:6
CircleSize:4
OverallDifficulty:6
ApproachRate:9
SliderMultiplier:1.9
SliderTickRate:1

[Events]
//Background and Video events
0,0,"escapetothesky-bg.png",0,0
//Break Periods
//Storyboard Layer 0 (Background)
//Storyboard Layer 1 (Fail)
//Storyboard Layer 2 (Pass)
//Storyboard Layer 3 (Foreground)
//Storyboard Sound Samples
//Background Colour Transformations
3,100,163,162,255

[TimingPoints]
256,315.789473684211,4,3,1,40,1,0
571,315.789473684211,4,1,1,60,1,0
1992,315.789473684211,4,2,1,80,1,0
8939,-100,4,1,1,70,0,0
9018,-100,4,2,1,60,0,0
9570,-100,4,2,1,70,0,0
9570,-100,4,2,1,80,0,0
9649,-100,4,2,1,75,0,0
10834,-100,4,1,1,40,0,0
10913,-100,4,2,1,65,0,0
12097,-100,4,1,1,40,0,0
12176,-100,4,2,1,75,0,0
13183,-100,4,2,1,90,0,0
13281,-100,4,2,1,65,0,0
14623,-100,4,1,1,50,0,0
14702,-100,4,2,2,50,0,0
14939,-100,4,2,2,30,0,0
19360,-100,4,2,2,50,0,0
19676,-100,4,1,1,50,0,0
19755,-100,4,2,1,50,0,0
19992,-100,4,2,2,30,0,0
20939,-100,4,2,2,40,0,0
23149,-100,4,1,1,50,0,0
23228,-100,4,2,1,50,0,0
23623,-100,4,1,1,50,0,0
23781,-100,4,1,1,65,0,0
24097,-100,4,1,1,75,0,0
25044,-100,4,2,3,75,0,0
25123,-100,4,2,3,45,0,0
25676,-100,4,2,3,75,0,0
25755,-100,4,2,3,45,0,0
26307,-100,4,2,3,75,0,0
26386,-100,4,2,3,45,0,0
26939,-100,4,2,3,75,0,0
27018,-100,4,2,3,45,0,0
27570,-100,4,2,3,75,0,0
27649,-100,4,2,3,45,0,0
28202,-100,4,2,3,75,0,0
28281,-100,4,2,3,45,0,0
28676,-100,4,2,3,65,0,0
29465,-100,4,1,1,65,0,0
29544,-100,4,2,2,70,0,0
29789,-100,4,2,2,45,0,0
29789,-100,4,2,2,65,0,0
33886,-100,4,1,1,55,0,0
34202,-100,4,1,1,70,0,0
34518,-100,4,1,1,85,0,0
34834,-100,4,1,1,75,0,0
34992,-100,4,2,1,55,0,0
39886,-100,4,2,2,55,0,0
42097,-100,4,1,1,55,0,0
42176,-100,4,2,2,55,0,0
42413,-100,4,2,1,55,0,0
43676,-100,4,1,1,55,0,0
44939,-83.3333333333333,4,2,2,80,0,1
46202,-83.3333333333333,4,1,1,70,0,1
46281,-83.3333333333333,4,2,2,80,0,1
47465,-83.3333333333333,4,1,1,70,0,1
47544,-83.3333333333333,4,2,2,80,0,1
48728,-83.3333333333333,4,1,1,70,0,1
48807,-83.3333333333333,4,2,2,80,0,1
49992,-83.3333333333333,4,1,1,70,0,1
50070,-83.3333333333333,4,2,2,80,0,1
51255,-83.3333333333333,4,1,1,70,0,1
51334,-83.3333333333333,4,2,2,80,0,1
52518,-83.3333333333333,4,1,1,70,0,1
52597,-83.3333333333333,4,2,2,80,0,1
53939,-83.3333333333333,4,1,1,70,0,1
55044,-83.3333333333333,4,1,1,70,0,1
55123,-83.3333333333333,4,2,2,80,0,1
56307,-83.3333333333333,4,1,1,70,0,1
56386,-83.3333333333333,4,2,2,80,0,1
57570,-83.3333333333333,4,1,1,70,0,1
57649,-83.3333333333333,4,2,2,80,0,1
58834,-83.3333333333333,4,1,1,70,0,1
58913,-83.3333333333333,4,2,2,80,0,1
60097,-83.3333333333333,4,1,1,70,0,1
60176,-83.3333333333333,4,2,2,80,0,1
61360,-83.3333333333333,4,1,1,70,0,1
61439,-83.3333333333333,4,2,2,80,0,1
62623,-100,4,1,1,60,0,0
64518,-100,4,3,1,60,0,0
64597,-100,4,2,2,80,0,0
64834,-100,4,3,1,60,0,0
64913,-100,4,2,1,80,0,0
65149,-83.3333333333333,4,1,1,70,0,1
65228,-83.3333333333333,4,2,2,70,0,1
66413,-83.3333333333333,4,1,1,70,0,1
66492,-83.3333333333333,4,2,2,80,0,1
67676,-83.3333333333333,4,1,1,70,0,1
67755,-83.3333333333333,4,2,2,80,0,1
68939,-83.3333333333333,4,1,1,70,0,1
69018,-83.3333333333333,4,2,2,80,0,1
70202,-83.3333333333333,4,1,1,70,0,1
70281,-83.3333333333333,4,2,2,80,0,1
71465,-83.3333333333333,4,1,1,70,0,1
71544,-83.3333333333333,4,2,2,80,0,1
72728,-83.3333333333333,4,1,1,70,0,1
72807,-83.3333333333333,4,2,2,80,0,1
74284,-83.3333333333333,4,1,1,70,0,1
75255,-83.3333333333333,4,1,1,70,0,1
75334,-83.3333333333333,4,2,2,80,0,1
76518,-83.3333333333333,4,1,1,70,0,1
76597,-83.3333333333333,4,2,2,80,0,1
77781,-83.3333333333333,4,1,1,70,0,1
77860,-83.3333333333333,4,2,2,70,0,1
78097,-83.3333333333333,4,1,1,70,0,1
79044,-83.3333333333333,4,1,1,60,0,1
80307,-83.3333333333333,4,1,1,70,0,1
80386,-83.3333333333333,4,2,2,80,0,1
81575,-83.3333333333333,4,1,1,70,0,1
81649,-83.3333333333333,4,2,2,80,0,1
82834,-83.3333333333333,4,1,1,70,0,1
82913,-83.3333333333333,4,2,2,80,0,1
85360,-100,4,2,2,60,0,0
87886,-100,4,1,1,60,0,0
87965,-100,4,2,2,60,0,0
90097,-100,4,1,1,60,0,0
90176,-100,4,2,2,60,0,0
90413,-100,4,1,1,60,0,0
90492,-100,4,2,2,60,0,0
91992,-100,4,1,1,60,0,0
92070,-100,4,2,2,60,0,0
92307,-100,4,1,1,60,0,0
92386,-100,4,1,1,60,0,0
92486,-100,4,2,2,60,0,0
92939,-100,4,1,1,60,0,0
93255,-100,4,2,1,60,0,0
95307,-100,4,1,1,60,0,0

[HitObjects]
52,88,256,2,0,P|108:120|232:128,1,190
256,120,649,1,0,0:0:0:0:
280,108,728,2,0,P|312:156|304:220,1,95
248,260,1044,1,0,0:0:0:0:
408,224,1202,1,0,0:0:0:0:
256,100,1360,1,0,0:0:0:0:
228,112,1439,1,0,0:0:0:0:
204,124,1518,1,0,0:0:0:0:
180,140,1597,1,0,0:0:0:0:
160,160,1676,1,0,0:0:0:0:
140,180,1755,1,0,0:0:0:0:
124,204,1834,1,0,0:0:0:0:
112,228,1913,1,0,0:0:0:0:
100,256,1992,6,0,P|164:312|272:336,1,190,2|8,0:0|0:0,0:0:0:0:
448,288,2465,1,0,0:0:0:0:
448,288,2544,1,0,0:0:0:0:
448,288,2623,1,0,0:0:0:0:
268,224,2781,1,0,0:0:0:0:
412,100,2939,1,8,0:0:0:0:
336,304,3097,1,0,0:0:0:0:
244,120,3255,6,0,P|264:76|308:36,1,95,2|0,0:0|0:0,0:0:0:0:
336,304,3570,2,0,P|296:332|238:344,1,95,8|0,0:0|0:0,0:0:0:0:
52,192,3886,2,0,L|160:192,1,95
340,192,4202,1,8,0:0:0:0:
340,192,4281,1,0,0:0:0:0:
340,192,4360,1,0,0:0:0:0:
252,152,4518,5,2,0:0:0:0:
360,284,4676,1,0,0:0:0:0:
404,120,4834,1,8,0:0:0:0:
268,256,4992,1,0,0:0:0:0:
312,80,5149,1,0,0:0:0:0:
312,80,5228,1,0,0:0:0:0:
312,80,5307,1,0,0:0:0:0:
452,308,5465,1,8,0:0:0:0:
412,332,5544,1,0,0:0:0:0:
364,344,5623,1,0,0:0:0:0:
316,348,5702,1,0,0:0:0:0:
272,336,5781,6,0,P|212:328|164:344,1,95,2|0,0:0|0:0,0:0:0:0:
32,216,6097,2,0,P|79:252|129:263,1,95,8|0,0:0|0:0,0:0:0:0:
216,104,6413,2,0,P|192:48|155:14,1,95,2|0,0:0|0:0,0:0:0:0:
216,208,6728,1,8,0:0:0:0:
352,76,6886,1,0,0:0:0:0:
456,272,7044,6,0,P|416:344|312:376,1,190,2|8,0:0|0:0,0:0:0:0:
232,340,7518,1,0,0:0:0:0:
312,288,7676,1,0,0:0:0:0:
312,288,7755,1,0,0:0:0:0:
312,288,7834,1,0,0:0:0:0:
160,280,7992,1,8,0:0:0:0:
356,196,8149,1,0,0:0:0:0:
92,192,8307,6,0,P|44:160|12:104,1,95,2|0,0:0|0:0,0:0:0:0:
224,136,8623,2,0,P|220:193|187:249,1,95,8|0,0:0|0:0,0:0:0:0:
92,52,8939,2,0,P|143:26|208:26,1,95
364,84,9255,2,0,P|389:135|389:200,1,95,8|0,0:0|0:0,0:0:0:0:
208,212,9570,5,4,0:0:0:0:
272,140,9728,1,0,0:0:0:0:
300,232,9886,1,0,0:0:0:0:
300,232,10044,1,0,0:0:0:0:
201,159,10202,1,0,0:0:0:0:
316,152,10360,1,0,0:0:0:0:
262,254,10518,1,0,0:0:0:0:
262,254,10676,1,0,0:0:0:0:
240,119,10834,5,4,0:0:0:0:
344,211,10992,1,0,0:0:0:0:
212,252,11150,1,0,0:0:0:0:
212,252,11308,1,0,0:0:0:0:
300,112,11465,1,0,0:0:0:0:
310,277,11623,1,0,0:0:0:0:
164,200,11781,1,0,0:0:0:0:
164,200,11939,1,0,0:0:0:0:
366,145,12097,5,4,0:0:0:0:
234,294,12255,1,0,0:0:0:0:
176,104,12413,1,0,0:0:0:0:
176,104,12571,1,0,0:0:0:0:
382,252,12728,1,0,0:0:0:0:
143,266,12886,1,0,0:0:0:0:
256,56,13044,1,0,0:0:0:0:
256,56,13202,1,0,0:0:0:0:
268,340,13518,5,2,0:0:0:0:
268,340,13676,2,0,P|212:316|168:272,1,95,2|0,0:0|0:0,0:0:0:0:
80,88,13992,2,0,L|184:68,1,95,2|0,0:0|0:0,0:0:0:0:
432,88,14307,2,0,L|328:68,1,95,2|0,0:0|0:0,0:0:0:0:
256,120,14623,6,0,B|236:176|280:244|256:320,1,190,4|2,0:0|0:0,0:0:0:0:
176,260,15097,1,0,0:0:0:0:
356,196,15255,2,0,P|408:244|424:280,1,95
92,208,15570,2,0,P|124:180|190:164,1,95,2|0,0:0|0:0,0:0:0:0:
180,352,15886,6,0,B|120:348|92:300|92:300|8:344,1,190,0|2,0:0|0:0,0:0:0:0:
332,352,16518,2,0,B|392:348|420:300|420:300|504:344,1,190,0|2,0:0|0:0,0:0:0:0:
332,256,16992,1,0,0:0:0:0:
468,120,17149,6,0,L|484:216,1,95
380,168,17465,2,0,L|332:80,1,95,2|0,0:0|0:0,0:0:0:0:
332,352,17781,2,0,L|436:344,1,95
332,256,18097,2,0,L|224:200,1,95,2|0,0:0|0:0,0:0:0:0:
432,252,18413,1,0,0:0:0:0:
144,344,18728,1,2,0:0:0:0:
248,60,19044,1,0,0:0:0:0:
324,120,19202,2,0,P|256:152|208:156,1,95,0|2,0:0|0:0,0:0:0:0:
144,180,19518,1,0,0:0:0:0:
304,216,19676,5,0,0:0:0:0:
156,88,19834,1,0,0:0:0:0:
220,304,19992,2,0,P|176:320|116:312,1,95,4|0,0:0|0:0,0:0:0:0:
56,192,20307,2,0,L|160:192,1,95,4|0,0:0|0:0,0:0:0:0:
220,80,20623,2,0,P|176:64|116:72,1,95,2|0,0:0|0:0,0:0:0:0:
292,16,20939,5,0,0:0:0:0:
248,168,21097,1,0,0:0:0:0:
324,112,21255,1,2,0:0:0:0:
160,124,21413,1,0,0:0:0:0:
252,256,21570,1,0,0:0:0:0:
240,72,21728,1,0,0:0:0:0:
164,216,21886,1,2,0:0:0:0:
332,204,22044,1,0,0:0:0:0:
132,304,22202,6,0,P|84:264|72:224,1,95
196,132,22518,2,0,P|244:172|256:212,1,95,2|0,0:0|0:0,0:0:0:0:
120,88,22834,1,0,0:0:0:0:
276,88,22992,1,0,0:0:0:0:
16,224,23149,1,2,0:0:0:0:
94,359,23307,1,0,0:0:0:0:
92,176,23465,5,0,0:0:0:0:
420,208,23781,5,2,0:0:0:0:
468,292,23939,1,2,0:0:0:0:
332,248,24097,1,2,0:0:0:0:
372,120,24255,1,2,0:0:0:0:
508,164,24413,1,2,0:0:0:0:
200,240,24728,5,4,0:0:0:0:
56,124,25044,2,0,L|172:80,1,95,8|0,0:0|0:0,0:0:0:0:
164,332,25360,2,0,P|120:304|104:240,1,95
240,152,25676,2,0,P|284:180|300:244,1,95,8|0,0:0|0:0,0:0:0:0:
268,308,25992,5,2,0:0:0:0:
392,220,26149,1,0,0:0:0:0:
360,296,26307,1,8,0:0:0:0:
344,144,26465,1,0,0:0:0:0:
216,248,26623,1,0,0:0:0:0:
184,80,26781,1,0,0:0:0:0:
304,228,26939,1,8,0:0:0:0:
132,256,27097,1,0,0:0:0:0:
24,116,27255,5,2,0:0:0:0:
312,16,27570,1,8,0:0:0:0:
268,100,27728,1,0,0:0:0:0:
336,168,27886,2,0,P|388:160|432:128,1,95
312,252,28202,1,8,0:0:0:0:
356,72,28360,1,0,0:0:0:0:
212,196,28518,5,2,0:0:0:0:
424,260,28834,1,8,0:0:0:0:
140,320,29149,2,0,P|100:288|84:240,1,95
360,232,29465,2,0,P|352:282|318:320,1,95,8|0,0:0|0:0,0:0:0:0:
152,80,29781,5,2,0:0:0:0:
56,272,30097,2,0,P|96:344|200:376,1,190,8|0,0:0|0:0,0:0:0:0:
284,340,30571,1,0,0:0:0:0:
200,280,30729,1,8,0:0:0:0:
200,280,30808,1,0,0:0:0:0:
200,280,30887,1,0,0:0:0:0:
380,332,31045,5,2,0:0:0:0:
328,152,31202,1,0,0:0:0:0:
144,188,31360,2,0,P|96:220|64:276,1,95,8|0,0:0|0:0,0:0:0:0:
276,244,31676,2,0,P|272:186|239:130,1,95
144,328,31992,2,0,P|195:353|260:353,1,95,8|0,0:0|0:0,0:0:0:0:
416,296,32308,6,0,P|441:244|441:179,1,95,2|0,0:0|0:0,0:0:0:0:
408,120,32623,1,8,0:0:0:0:
360,236,32781,1,0,0:0:0:0:
276,152,32939,2,0,P|276:104|300:56,1,95
160,192,33255,1,8,0:0:0:0:
360,236,33413,1,0,0:0:0:0:
104,360,33570,6,0,P|52:364|0:344,1,95,2|0,0:0|0:0,0:0:0:0:
244,268,33886,1,8,0:0:0:0:
244,268,33965,1,0,0:0:0:0:
244,268,34044,1,0,0:0:0:0:
80,104,34202,5,2,0:0:0:0:
160,56,34360,1,2,0:0:0:0:
252,36,34518,1,10,0:0:0:0:
344,52,34676,1,2,0:0:0:0:
424,104,34834,6,0,P|464:72|480:24,1,95,6|0,0:0|0:0,0:0:0:0:
308,100,35149,2,0,P|268:132|252:180,1,95,8|0,0:0|0:0,0:0:0:0:
292,304,35465,2,0,P|336:320|396:312,1,95
456,192,35781,2,0,L|352:192,1,95,8|0,0:0|0:0,0:0:0:0:
264,216,36097,5,2,0:0:0:0:
220,368,36255,1,0,0:0:0:0:
188,272,36413,1,8,0:0:0:0:
352,260,36571,1,0,0:0:0:0:
260,128,36728,1,0,0:0:0:0:
272,312,36886,1,0,0:0:0:0:
348,168,37044,1,8,0:0:0:0:
180,180,37202,1,0,0:0:0:0:
380,80,37360,6,0,P|428:120|440:160,1,95,2|0,0:0|0:0,0:0:0:0:
316,252,37676,2,0,P|268:212|256:172,1,95,8|0,0:0|0:0,0:0:0:0:
392,296,37992,1,0,0:0:0:0:
236,296,38150,1,0,0:0:0:0:
496,160,38307,1,8,0:0:0:0:
418,25,38465,1,0,0:0:0:0:
420,208,38623,6,0,L|280:192,1,95,2|0,0:0|0:0,0:0:0:0:
92,176,38939,5,8,0:0:0:0:
44,92,39097,1,0,0:0:0:0:
180,136,39255,1,0,0:0:0:0:
140,264,39413,1,0,0:0:0:0:
4,220,39571,1,8,0:0:0:0:
312,144,39886,6,0,L|196:188,1,95,2|0,0:0|0:0,0:0:0:0:
456,260,40202,2,0,L|340:304,1,95,8|0,0:0|0:0,0:0:0:0:
348,52,40518,2,0,P|392:80|408:144,1,95
272,232,40834,2,0,P|228:204|212:140,1,95,8|0,0:0|0:0,0:0:0:0:
244,76,41150,5,2,0:0:0:0:
120,164,41307,1,0,0:0:0:0:
152,88,41465,1,8,0:0:0:0:
168,240,41623,1,0,0:0:0:0:
296,136,41781,1,0,0:0:0:0:
328,304,41939,1,0,0:0:0:0:
208,156,42097,1,8,0:0:0:0:
380,128,42255,1,0,0:0:0:0:
488,268,42413,5,2,0:0:0:0:
200,368,42728,1,8,0:0:0:0:
244,284,42886,1,0,0:0:0:0:
176,216,43044,2,0,P|124:224|80:256,1,95
200,132,43360,1,8,0:0:0:0:
156,312,43518,1,0,0:0:0:0:
300,188,43676,5,2,0:0:0:0:
88,124,43992,1,8,0:0:0:0:
372,64,44307,2,0,P|412:96|428:144,1,95
152,152,44623,2,0,P|159:101|193:63,1,95,8|0,0:0|0:0,0:0:0:0:
348,320,44939,6,0,P|244:332|108:252,1,227.999993041992,6|8,0:0|0:0,0:0:0:0:
64,124,45413,1,0,0:0:0:0:
208,212,45570,1,0,0:0:0:0:
36,220,45728,1,0,0:0:0:0:
172,116,45886,1,8,0:0:0:0:
180,288,46044,1,0,0:0:0:0:
324,196,46202,6,0,B|392:204|420:264|420:264|468:156,1,227.999993041992,6|8,0:0|0:0,0:0:0:0:
332,288,46676,1,0,0:0:0:0:
236,92,46834,2,0,P|296:60|348:56,1,113.999996520996
244,252,47149,2,0,P|186:216|156:173,1,113.999996520996,8|0,0:0|0:0,0:0:0:0:
420,140,47465,5,6,0:0:0:0:
332,288,47623,1,0,0:0:0:0:
244,140,47781,1,8,0:0:0:0:
436,264,47939,2,0,P|456:332|452:376,1,113.999996520996
152,268,48255,1,0,0:0:0:0:
332,188,48413,1,8,0:0:0:0:
144,368,48570,6,0,P|64:344|20:304,1,113.999996520996,0|2,0:0|0:0,0:0:0:0:
404,264,48886,2,0,P|434:215|445:160,1,113.999996520996,0|8,2:0|0:0,0:0:0:0:
64,208,49202,1,0,0:0:0:0:
332,188,49360,5,0,0:0:0:0:
152,268,49518,1,0,0:0:0:0:
336,84,49676,1,8,0:0:0:0:
384,308,49834,1,0,0:0:0:0:
172,104,49992,6,0,P|92:96|24:120,1,113.999996520996,6|0,0:0|0:0,0:0:0:0:
152,268,50307,2,0,P|208:276|264:267,1,113.999996520996,8|0,0:0|0:0,0:0:0:0:
336,192,50623,1,0,0:0:0:0:
284,352,50781,1,0,0:0:0:0:
176,232,50939,1,8,0:0:0:0:
356,284,51097,1,0,0:0:0:0:
128,112,51255,6,0,P|132:52|156:0,1,113.999996520996,6|0,0:0|0:0,0:0:0:0:
176,320,51570,2,0,P|116:316|64:292,1,113.999996520996,8|0,0:0|0:0,0:0:0:0:
108,208,51886,1,0,0:0:0:0:
316,300,52044,1,0,0:0:0:0:
324,72,52202,1,8,0:0:0:0:
324,72,52360,1,0,0:0:0:0:
280,176,52518,6,0,P|356:188|412:176,1,113.999996520996,2|0,0:0|0:0,0:0:0:0:
232,208,52834,2,0,P|156:196|100:208,1,113.999996520996,8|0,0:0|0:0,0:0:0:0:
36,276,53149,1,0,0:0:0:0:
104,100,53307,1,0,0:0:0:0:
220,256,53465,1,8,0:0:0:0:
32,172,53623,1,0,0:0:0:0:
200,64,53781,5,0,0:0:0:0:
112,252,53939,1,0,0:0:0:0:
312,212,54097,1,4,0:0:0:0:
96,132,54255,1,0,0:0:0:0:
144,336,54413,5,0,0:0:0:0:
274,127,54570,1,0,0:0:0:0:
392,355,54728,1,4,0:0:0:0:
158,208,54886,1,0,0:0:0:0:
428,84,55044,6,0,P|480:116|512:168,1,113.999996520996,6|0,0:0|0:0,0:0:0:0:
472,268,55360,2,0,P|412:288|352:280,1,113.999996520996,8|0,0:0|0:0,0:0:0:0:
272,212,55676,1,0,0:0:0:0:
344,368,55834,1,0,0:0:0:0:
448,236,55992,1,8,0:0:0:0:
260,320,56149,1,0,0:0:0:0:
368,172,56307,6,0,P|424:156|480:164,1,113.999996520996,6|0,0:0|0:0,0:0:0:0:
232,120,56623,2,0,P|176:136|120:128,1,113.999996520996,8|0,0:0|0:0,0:0:0:0:
168,24,56939,1,0,0:0:0:0:
208,240,57097,1,0,0:0:0:0:
0,160,57255,1,8,0:0:0:0:
232,120,57413,1,0,0:0:0:0:
148,344,57570,6,0,L|128:208,1,113.999996520996,6|0,0:0|0:0,0:0:0:0:
364,40,57886,2,0,L|344:176,1,113.999996520996,8|0,0:0|0:0,0:0:0:0:
216,212,58202,1,0,0:0:0:0:
448,252,58360,1,0,0:0:0:0:
240,300,58518,1,8,0:0:0:0:
432,164,58676,1,0,0:0:0:0:
320,344,58834,6,0,P|376:364|400:316,1,113.999996520996,2|0,0:0|0:0,0:0:0:0:
352,124,59149,2,0,P|296:104|272:152,1,113.999996520996,8|0,0:0|0:0,0:0:0:0:
336,236,59465,1,0,0:0:0:0:
400,36,59623,1,0,0:0:0:0:
184,100,59781,1,8,0:0:0:0:
432,164,59939,1,0,0:0:0:0:
256,316,60097,6,0,P|188:316|116:264,1,113.999996520996,6|0,0:0|0:0,0:0:0:0:
316,136,60413,2,0,P|350:194|340:283,1,113.999996520996,8|0,0:0|0:0,0:0:0:0:
100,188,60728,2,0,P|133:129|215:92,1,113.999996520996
204,212,61044,1,8,0:0:0:0:
56,60,61202,1,0,0:0:0:0:
272,20,61360,6,0,P|340:56|376:104,1,113.999996520996,6|0,0:0|0:0,0:0:0:0:
160,192,61676,2,0,L|24:192,1,113.999996520996,8|0,0:0|0:0,0:0:0:0:
272,364,61992,2,0,P|340:328|376:280,1,113.999996520996,0|0,0:0|0:0,0:0:0:0:
392,196,62307,1,8,0:0:0:0:
440,384,62465,1,0,0:0:0:0:
244,328,62623,6,0,L|128:292,1,95,2|0,0:0|0:0,0:0:0:0:
64,268,62939,1,8,0:0:0:0:
208,228,63097,1,0,0:0:0:0:
172,380,63255,5,0,0:0:0:0:
120,184,63413,1,0,0:0:0:0:
320,360,63570,1,8,0:0:0:0:
383,125,63728,1,0,0:0:0:0:
420,224,64044,5,2,0:0:0:0:
420,224,64202,1,2,0:0:0:0:
208,72,64518,2,0,P|144:92|92:136,1,95,2|0,0:0|0:0,0:0:0:0:
88,140,64755,1,0,0:0:0:0:
68,184,64834,1,2,0:0:0:0:
68,232,64913,1,0,0:0:0:0:
84,276,64992,1,0,0:0:0:0:
120,304,65070,1,0,0:0:0:0:
160,328,65149,6,0,P|264:340|400:260,1,227.999993041992,6|8,0:0|0:0,0:0:0:0:
448,124,65623,1,0,0:0:0:0:
304,212,65780,1,0,0:0:0:0:
476,220,65938,1,0,0:0:0:0:
340,116,66096,1,8,0:0:0:0:
332,288,66254,1,0,0:0:0:0:
188,196,66412,6,0,B|120:204|92:264|92:264|44:156,1,227.999993041992,6|8,0:0|0:0,0:0:0:0:
180,288,66886,1,0,0:0:0:0:
276,92,67044,2,0,P|216:60|164:56,1,113.999996520996
268,252,67360,2,0,P|325:216|355:173,1,113.999996520996,8|0,0:0|0:0,0:0:0:0:
92,140,67675,5,6,0:0:0:0:
180,288,67833,1,0,0:0:0:0:
268,140,67991,1,8,0:0:0:0:
76,264,68149,2,0,P|56:332|60:376,1,113.999996520996
360,268,68465,1,0,0:0:0:0:
180,188,68623,1,8,0:0:0:0:
368,368,68781,6,0,P|448:344|492:304,1,113.999996520996,0|2,0:0|0:0,0:0:0:0:
108,264,69097,2,0,P|77:215|66:160,1,113.999996520996,0|8,0:0|0:0,0:0:0:0:
448,208,69412,1,0,0:0:0:0:
180,188,69570,5,0,0:0:0:0:
360,268,69728,1,0,0:0:0:0:
176,84,69886,1,8,0:0:0:0:
128,308,70044,1,0,0:0:0:0:
340,104,70202,6,0,P|420:96|488:120,1,113.999996520996,6|0,0:0|0:0,0:0:0:0:
360,268,70518,2,0,P|303:276|247:267,1,113.999996520996,8|0,0:0|0:0,0:0:0:0:
176,192,70833,1,0,0:0:0:0:
228,352,70991,1,0,0:0:0:0:
336,232,71149,1,8,0:0:0:0:
156,284,71307,1,0,0:0:0:0:
384,112,71465,6,0,P|380:52|356:0,1,113.999996520996,6|0,0:0|0:0,0:0:0:0:
336,320,71781,2,0,P|396:316|448:292,1,113.999996520996,8|0,0:0|0:0,0:0:0:0:
404,208,72096,1,0,0:0:0:0:
196,300,72254,1,0,0:0:0:0:
188,72,72412,1,8,0:0:0:0:
188,72,72570,1,0,0:0:0:0:
232,176,72728,6,0,P|156:188|100:176,1,113.999996520996,2|0,0:0|0:0,0:0:0:0:
280,208,73044,2,0,P|356:196|412:208,1,113.999996520996,8|0,0:0|0:0,0:0:0:0:
476,276,73359,1,0,0:0:0:0:
408,100,73517,1,0,0:0:0:0:
292,256,73675,1,8,0:0:0:0:
480,172,73833,1,0,0:0:0:0:
312,64,73991,5,0,0:0:0:0:
400,252,74149,1,0,0:0:0:0:
200,212,74307,1,4,0:0:0:0:
416,132,74465,1,0,0:0:0:0:
368,336,74623,5,0,0:0:0:0:
238,127,74780,1,0,0:0:0:0:
120,355,74938,1,4,0:0:0:0:
354,208,75096,1,0,0:0:0:0:
84,84,75255,6,0,P|32:116|0:168,1,113.999996520996,6|0,0:0|0:0,0:0:0:0:
40,268,75571,2,0,P|100:288|160:280,1,113.999996520996,8|0,0:0|0:0,0:0:0:0:
240,212,75887,1,0,0:0:0:0:
168,368,76045,1,0,0:0:0:0:
64,236,76203,1,8,0:0:0:0:
252,320,76360,1,0,0:0:0:0:
144,172,76518,6,0,P|88:156|32:164,1,113.999996520996,6|0,0:0|0:0,0:0:0:0:
280,120,76834,2,0,P|336:136|392:128,1,113.999996520996,8|0,0:0|0:0,0:0:0:0:
344,24,77150,1,0,0:0:0:0:
304,240,77308,1,0,0:0:0:0:
512,160,77466,1,8,0:0:0:0:
280,120,77624,1,0,0:0:0:0:
364,344,77781,6,0,L|384:208,1,113.999996520996,6|0,0:0|0:0,0:0:0:0:
148,40,78097,2,0,L|168:176,1,113.999996520996,8|0,0:0|0:0,0:0:0:0:
296,212,78413,1,0,0:0:0:0:
64,252,78571,1,0,0:0:0:0:
272,300,78729,1,8,0:0:0:0:
80,164,78887,1,0,0:0:0:0:
192,344,79045,6,0,P|136:364|112:316,1,113.999996520996,2|0,0:0|0:0,0:0:0:0:
160,124,79360,2,0,P|216:104|240:152,1,113.999996520996,8|0,0:0|0:0,0:0:0:0:
176,236,79676,1,0,0:0:0:0:
112,36,79834,1,0,0:0:0:0:
328,100,79992,1,8,0:0:0:0:
80,164,80150,1,0,0:0:0:0:
256,316,80308,6,0,P|324:316|396:264,1,113.999996520996,6|0,0:0|0:0,0:0:0:0:
196,136,80624,2,0,P|162:194|171:283,1,113.999996520996,8|0,0:0|0:0,0:0:0:0:
412,188,80939,2,0,P|378:129|296:92,1,113.999996520996
308,212,81255,1,8,0:0:0:0:
456,60,81413,1,0,0:0:0:0:
240,20,81571,6,0,P|172:56|136:104,1,113.999996520996,6|0,0:0|0:0,0:0:0:0:
352,192,81887,2,0,L|488:192,1,113.999996520996,8|0,0:0|0:0,0:0:0:0:
240,364,82203,2,0,P|172:328|136:280,1,113.999996520996
120,196,82518,1,8,0:0:0:0:
72,384,82676,1,0,0:0:0:0:
268,328,82834,6,0,L|388:288,1,113.999996520996,2|0,0:0|0:0,0:0:0:0:
488,260,83150,1,8,0:0:0:0:
344,220,83308,1,0,0:0:0:0:
380,372,83466,5,0,0:0:0:0:
432,176,83624,1,0,0:0:0:0:
232,352,83781,1,8,0:0:0:0:
169,117,83939,1,0,0:0:0:0:
92,224,84255,5,2,0:0:0:0:
92,224,84413,1,2,0:0:0:0:
304,72,84729,2,0,P|368:92|420:136,1,95,2|0,0:0|0:0,0:0:0:0:
424,140,84966,1,0,0:0:0:0:
444,184,85045,1,2,0:0:0:0:
444,232,85124,1,0,0:0:0:0:
428,276,85203,1,0,0:0:0:0:
392,304,85281,1,0,0:0:0:0:
348,324,85360,6,0,B|268:336|272:232|180:248,1,190,6|8,0:0|0:0,0:0:0:0:
64,288,85833,1,0,0:0:0:0:
64,288,85912,1,0,0:0:0:0:
64,288,85991,1,0,0:0:0:0:
244,224,86149,1,0,0:0:0:0:
100,100,86307,1,8,0:0:0:0:
176,304,86465,1,0,0:0:0:0:
268,120,86623,6,0,P|248:76|204:36,1,95,2|0,0:0|0:0,0:0:0:0:
176,304,86939,2,0,P|216:332|274:344,1,95,8|0,0:0|0:0,0:0:0:0:
460,192,87255,2,0,L|352:192,1,95
172,192,87570,1,8,0:0:0:0:
172,192,87649,1,0,0:0:0:0:
172,192,87728,1,0,0:0:0:0:
260,152,87886,5,2,0:0:0:0:
152,284,88044,1,0,0:0:0:0:
108,120,88202,1,8,0:0:0:0:
244,256,88360,1,0,0:0:0:0:
200,80,88517,1,0,0:0:0:0:
200,80,88596,1,0,0:0:0:0:
200,80,88675,1,0,0:0:0:0:
60,308,88833,1,8,0:0:0:0:
100,332,88912,1,0,0:0:0:0:
148,344,88991,1,0,0:0:0:0:
196,348,89070,1,0,0:0:0:0:
240,336,89149,6,0,P|300:328|348:344,1,95,2|0,0:0|0:0,0:0:0:0:
480,216,89465,2,0,P|433:252|383:263,1,95,8|0,0:0|0:0,0:0:0:0:
296,104,89781,2,0,P|320:48|357:14,1,95
296,208,90096,1,8,0:0:0:0:
160,76,90254,1,0,0:0:0:0:
56,272,90412,6,0,P|96:344|200:376,1,190,2|8,0:0|0:0,0:0:0:0:
280,340,90886,1,0,0:0:0:0:
200,288,91044,1,0,0:0:0:0:
200,288,91123,1,0,0:0:0:0:
200,288,91202,1,0,0:0:0:0:
352,280,91360,1,8,0:0:0:0:
156,196,91517,1,0,0:0:0:0:
420,192,91676,6,0,P|468:160|500:104,1,95,2|0,0:0|0:0,0:0:0:0:
288,136,91991,2,0,P|292:193|325:249,1,95,8|0,0:0|0:0,0:0:0:0:
420,52,92307,2,0,P|369:26|304:26,1,95
148,84,92623,2,0,P|123:135|123:200,1,95,8|0,0:0|0:0,0:0:0:0:
304,212,92938,5,2,0:0:0:0:
240,140,93096,1,0,0:0:0:0:
212,232,93254,1,8,0:0:0:0:
212,232,93412,1,0,0:0:0:0:
311,159,93570,1,0,0:0:0:0:
196,152,93728,1,0,0:0:0:0:
250,254,93886,1,8,0:0:0:0:
250,254,94044,1,0,0:0:0:0:
256,64,94360,5,2,0:0:0:0:
388,105,94518,1,2,0:0:0:0:
388,105,94676,1,0,0:0:0:0:
88,128,94833,1,2,0:0:0:0:
78,293,94991,1,0,0:0:0:0:
300,356,95149,1,6,0:0:0:0:
300,356,95307,1,6,0:0:0:0:
