osu file format v6

[General]
AudioFilename: beatmania IIDX 12 HAPPY SKY - EDEN(1).mp3
AudioLeadIn: 0
PreviewTime: -1
Countdown: 1
SampleSet: Soft
StackLeniency: 0.7
Mode: 0
LetterboxInBreaks: 1

[Editor]
DistanceSpacing: 1
BeatDivisor: 4
GridSize: 8

[Metadata]
Title:Eden
Artist:TERRA
Creator:YtRaM
Version:Expert
Source:beatmania IIDX 12 HAPPY SKY
Tags:beatmania IIDX 12 HAPPY SKY ddr dance dance revolution terra ytram

[Difficulty]
HPDrainRate:7
CircleSize:5
OverallDifficulty:8
SliderMultiplier:2
SliderTickRate:1

[Events]
//Background and Video events
Video,0,"Eden_-_T__RA.avi"
0,0,"Beatmania_IIDX.jpg"
//Break Periods
//Storyboard Layer 0 (Background)
//Storyboard Layer 1 (Fail)
//Storyboard Layer 2 (Pass)
//Storyboard Layer 3 (Foreground)
//Storyboard Sound Samples
//Background Colour Transformations
3,100,94,56,95

[TimingPoints]
740,600,4,2,0,100,1,0
119240,-100,4,2,0,0,0,0

[Colours]
Combo1 : 175,67,70
Combo2 : 78,169,65
Combo3 : 73,61,160
Combo4 : 170,165,64

[HitObjects]
176,96,740,1,0
176,96,890,1,0
176,96,1040,1,0
328,96,1340,1,0
168,192,2240,5,0
168,192,2390,1,0
168,192,2540,1,0
168,88,2840,1,0
168,88,2990,1,0
168,88,3140,1,0
264,88,3440,1,0
264,88,3590,1,0
264,88,3740,2,0,B|264:144,3,50
264,138,4340,1,0
352,88,4640,6,0,B|352:32,3,50
352,32,5240,1,0
360,40,5540,5,0
360,40,5690,1,0
360,40,5840,1,0
456,40,6140,1,0
440,88,6290,1,0
448,136,6440,1,0
464,184,6590,1,0
456,232,6740,1,0
456,328,7040,5,0
408,328,7190,1,0
352,328,7340,1,0
256,336,7640,1,0
208,328,7790,1,0
160,336,7940,1,0
56,336,8240,5,0
48,288,8390,1,0
56,240,8540,1,0
88,200,8690,1,0
136,184,8840,1,0
184,184,8990,1,0
232,200,9140,1,0
336,184,9440,5,0
296,152,9590,1,0
280,104,9740,1,0
288,56,9890,1,0
320,16,10040,1,0
216,16,10340,1,0
248,56,10490,1,0
256,104,10640,1,0
240,152,10790,1,0
208,192,10940,1,0
64,56,11840,5,0
48,104,11990,1,0
72,144,12140,1,0
88,240,12440,1,0
64,280,12590,1,0
96,320,12740,1,0
192,344,13040,1,0
288,344,13340,1,0
384,344,13640,1,0
432,344,13790,1,0
360,272,14090,1,0
408,272,14240,1,0
408,168,14540,1,0
480,232,14840,1,0
464,328,15140,5,0
416,328,15290,1,0
368,328,15440,1,0
320,328,15590,1,0
272,328,15740,1,4
416,184,16340,1,0
368,184,16490,1,0
320,184,16640,1,0
272,184,16790,1,0
224,184,16940,1,4
368,48,17540,1,0
320,48,17690,1,0
272,48,17840,1,0
224,48,17990,1,0
176,48,18140,1,4
256,192,18290,12,0,19040
192,176,19340,5,0
232,264,19640,1,0
40,40,20390,1,0
88,40,20540,1,0
240,40,20990,1,0
392,40,21440,1,0
488,40,21740,1,0
488,136,22040,1,0
488,184,22190,1,0
488,336,22640,1,0
384,336,22940,1,0
384,232,23240,1,0
384,184,23390,1,0
384,32,23840,1,0
280,32,24140,1,0
80,32,24740,1,0
176,32,25040,1,0
264,32,25340,1,0
360,32,25640,1,0
408,32,25790,1,0
456,32,26240,1,0
456,128,26540,1,0
456,328,27140,1,0
256,328,27740,1,0
104,328,28190,1,0
104,280,28340,1,0
104,176,28640,1,0
104,72,28940,1,0
200,72,29240,1,0
248,72,29390,1,0
344,72,29690,5,0
392,72,29840,1,0
488,72,30140,1,0
488,168,30440,1,0
488,216,30590,1,0
488,368,31040,1,0
448,328,31190,1,0
408,296,31340,1,0
336,232,31640,1,0
296,200,31790,1,0
184,96,32240,1,0
184,192,32540,1,0
184,288,32840,1,0
232,288,32990,1,0
384,288,33440,1,0
384,184,33740,1,0
384,80,34040,1,0
336,80,34190,2,0,B|232:80,1,100
184,80,34640,1,0
80,80,34940,1,0
80,176,35240,5,0
80,224,35390,1,0
80,376,35840,5,0
80,328,35990,1,0
80,280,36140,1,0
176,224,36590,1,0
224,224,36740,1,0
376,224,37190,1,0
424,224,37340,1,0
424,120,37640,1,0
376,120,37790,1,0
272,120,38090,1,0
224,120,38240,1,0
120,120,38540,1,0
16,120,38840,1,0
16,216,39140,5,0
112,216,39440,1,0
208,216,39740,1,0
304,216,40040,1,8
352,216,40190,1,0
400,216,40340,1,0
448,216,40490,1,0
480,176,40640,1,8
480,128,40790,1,0
480,80,40940,1,0
392,24,41240,1,8
352,56,41390,1,0
392,88,41540,1,0
352,120,41690,1,0
392,152,41840,1,8
352,184,41990,1,0
392,216,42140,1,0
392,368,42590,1,0
240,368,43040,1,8
312,304,43340,1,0
240,240,43640,1,8
312,176,43940,1,0
240,104,44240,1,8
312,32,44540,1,0
384,96,44840,1,8
416,136,44990,1,0
376,168,45140,1,0
416,200,45290,1,0
376,232,45440,1,8
416,264,45590,1,0
376,296,45740,1,0
272,296,46040,5,8
232,264,46190,1,0
272,232,46340,1,0
232,200,46490,1,0
272,168,46640,1,8
232,136,46790,1,0
272,104,46940,1,0
168,104,47240,1,8
120,104,47390,1,0
16,104,47690,1,0
64,104,47840,1,8
64,200,48140,1,2
160,200,48440,1,2
256,200,48740,1,2
352,200,49040,1,2
352,296,49340,1,0
248,296,49640,5,8
200,280,49790,1,0
168,240,49940,1,0
160,192,50090,1,0
176,144,50240,1,8
216,120,50390,1,0
264,128,50540,1,0
360,120,50840,5,8
400,152,50990,1,0
416,200,51140,1,0
408,248,51290,1,0
384,288,51440,1,8
280,288,51740,1,0
176,288,52040,1,8
128,288,52190,1,0
128,136,52640,1,8
128,32,52940,5,0
176,32,53090,1,0
224,32,53240,1,8
272,32,53390,1,0
320,32,53540,1,0
368,32,53690,1,0
416,32,53840,1,8
416,128,54140,1,0
416,224,54440,5,8
400,272,54590,1,0
368,312,54740,1,0
328,336,54890,1,0
280,336,55040,1,8
232,312,55190,1,0
208,272,55340,1,0
304,264,55640,1,0
272,224,55790,1,0
232,216,55940,1,0
128,216,56240,1,0
128,168,56390,1,0
128,120,56540,1,0
224,120,56840,1,0
272,120,56990,1,0
368,120,57290,1,0
416,120,57440,1,0
416,168,57590,1,0
416,216,57740,2,0,B|416:336,1,100
328,216,58340,5,0
128,216,58940,1,0
128,112,59240,1,8
128,64,59390,1,0
176,64,59540,1,0
272,64,59840,1,8
368,64,60140,1,0
464,64,60440,1,8
464,112,60590,1,0
464,264,61040,1,8
464,304,61190,1,0
464,352,61340,1,0
360,352,61640,1,8
360,304,61790,1,0
360,256,61940,1,0
360,152,62240,1,8
360,104,62390,1,0
360,56,62540,1,0
256,56,62840,1,8
256,104,62990,1,0
256,200,63290,1,0
256,248,63440,1,8
256,344,63740,5,0
256,240,64040,1,8
256,200,64190,1,0
256,152,64340,1,0
256,48,64640,5,8
256,96,64790,1,0
256,144,64940,1,0
152,152,65240,5,8
104,152,65390,1,0
56,152,65540,1,0
56,248,65840,1,8
104,248,65990,1,0
152,248,66140,1,0
248,248,66440,1,8
296,248,66590,1,0
344,248,66740,1,0
440,248,67040,5,8
440,200,67190,1,8
440,152,67340,1,8
408,112,67490,1,8
368,80,67640,1,8
320,72,67790,1,8
272,88,67940,1,8
136,152,68240,1,0
104,192,68390,1,0
136,224,68540,1,0
208,288,68840,1,8
240,248,68990,1,0
272,208,69140,1,0
360,256,69440,1,8
400,256,69590,1,0
448,256,69740,1,0
448,152,70040,1,8
400,152,70190,1,0
248,152,70640,1,0
200,152,70790,1,0
144,152,70940,1,0
40,144,71240,1,8
40,104,71390,1,0
40,56,71540,1,0
136,56,71840,1,8
232,56,72140,1,0
328,56,72440,1,0
376,56,72590,1,0
424,144,72890,1,0
424,192,73040,1,8
320,200,73340,1,0
216,200,73640,1,8
168,200,73790,1,0
120,200,73940,1,4
16,200,74240,1,8
16,152,74390,1,0
16,104,74540,1,4
16,0,74840,1,8
64,0,74990,1,0
112,0,75140,1,4
208,0,75440,1,0
304,8,75740,1,0
400,8,76040,1,0
448,8,76190,1,0
496,8,76340,1,0
496,56,76490,1,0
496,104,76640,1,0
496,200,76940,1,4
496,248,77090,1,0
496,296,77240,1,0
496,344,77390,1,0
448,344,77540,1,0
400,344,77690,1,0
352,344,77840,1,0
304,344,77990,1,0
256,344,78140,1,0
152,344,78440,1,0
104,344,78590,1,0
0,344,78890,1,0
0,296,79040,1,0
8,96,79640,1,0
40,56,79790,1,0
72,96,79940,1,0
104,56,80090,1,0
208,168,80540,1,0
240,128,80690,1,0
272,168,80840,1,0
304,128,80990,1,0
336,168,81140,1,0
400,240,81440,1,0
368,280,81590,1,0
456,160,82040,1,0
424,120,82190,1,0
392,160,82340,1,0
328,232,82640,1,0
256,304,82940,1,0
184,232,83240,1,0
144,192,83390,1,0
80,112,83690,1,0
48,72,83840,1,0
48,224,84290,1,0
96,224,84440,1,0
192,224,84740,1,0
288,224,85040,1,0
384,224,85340,1,0
384,72,85790,1,0
336,72,85940,1,0
232,72,86240,1,0
184,72,86390,1,0
32,72,86840,1,0
32,168,87140,1,0
128,168,87440,1,0
224,168,87740,5,4
320,168,88040,1,0
352,128,88190,1,0
384,168,88340,1,0
416,128,88490,1,0
448,168,88640,1,0
480,128,88790,1,0
512,168,88940,1,2
472,256,89240,2,0,B|472:312,1,50
472,352,89540,2,0,B|416:352,1,50
368,352,89840,2,0,B|368:280,1,50
368,248,90140,5,2
368,144,90440,1,0
336,104,90590,1,0
304,144,90740,1,0
272,104,90890,1,0
240,144,91040,1,0
208,104,91190,1,0
184,144,91340,1,0
224,192,91940,1,0
392,296,92540,5,2
392,248,92690,1,0
344,248,92840,1,0
344,200,92990,1,0
296,200,93140,1,0
296,152,93290,1,0
248,152,93440,1,0
248,104,93590,1,0
200,104,93740,5,2
200,56,93890,1,0
152,56,94040,1,0
152,104,94190,1,0
104,104,94340,1,0
104,152,94490,1,0
56,152,94640,1,0
56,200,94790,1,0
8,200,94940,5,2
8,248,95090,1,0
8,296,95240,1,0
56,296,95390,1,0
56,248,95540,1,0
104,248,95690,1,0
104,200,95840,1,0
152,200,95990,1,0
256,256,96140,5,4
232,240,96215,1,0
216,224,96290,1,0
192,208,96365,1,0
176,192,96440,1,4
200,176,96515,1,0
216,160,96590,1,0
232,144,96665,1,0
256,128,96740,1,4
272,144,96815,1,0
296,160,96890,1,0
312,176,96965,1,0
336,192,97040,1,4
320,208,97115,1,0
296,224,97190,1,0
280,240,97265,1,0
256,256,97340,5,0
152,256,97640,1,8
40,192,97940,1,0
128,136,98240,1,8
40,160,98540,1,0
144,128,98840,1,8
144,128,98990,1,0
360,144,99440,5,8
336,192,99590,1,2
312,144,99740,1,0
296,192,99890,1,2
272,144,100040,1,8
256,192,100190,1,2
232,144,100340,1,0
216,192,100490,1,2
192,144,100640,1,8
176,192,100790,1,2
152,144,100940,1,0
136,192,101090,1,2
112,144,101240,1,10
72,168,101390,1,0
72,264,101690,1,0
72,312,101840,1,8
160,352,102140,1,0
256,352,102440,1,8
352,352,102740,1,0
448,352,103040,1,8
448,248,103340,1,0
448,144,103640,1,8
448,96,103790,1,0
496,8,104090,1,0
496,56,104240,1,8
392,40,104540,1,0
288,40,104840,1,8
240,40,104990,1,0
120,40,105290,1,2
72,40,105440,1,2
72,136,105740,5,8
104,176,105890,1,8
136,136,106040,1,8
168,176,106190,1,8
200,136,106340,1,8
232,176,106490,1,8
264,136,106640,1,10
328,56,106940,1,2
392,136,107240,1,8
408,184,107390,1,2
456,208,107540,1,2
352,216,107840,1,8
336,264,107990,1,2
296,288,108140,1,2
296,184,108440,1,8
272,136,108590,1,2
128,104,109040,1,0
128,200,109340,1,2
128,296,109640,1,8
128,344,109790,1,2
176,352,109940,1,0
272,344,110240,1,8
376,344,110540,1,2
376,240,110840,1,8
376,192,110990,1,2
376,88,111290,1,2
376,40,111440,1,8
272,40,111740,1,2
272,136,112040,1,8
272,184,112190,1,2
272,232,112340,1,2
168,240,112640,1,8
168,192,112790,1,2
168,144,112940,1,2
168,40,113240,1,8
168,88,113390,1,2
256,40,113690,1,2
256,88,113840,1,8
256,184,114140,1,2
256,280,114440,1,2
256,328,114590,1,2
152,328,114890,1,2
192,296,115040,1,2
152,264,115190,1,2
192,240,115340,1,2
152,200,115490,1,2
192,176,115640,1,2
152,136,115790,1,2
192,112,115940,1,2
280,56,116240,1,2
112,16,116540,5,2
160,104,116840,1,8
192,136,116990,1,0
216,176,117140,1,0
264,160,117290,1,0
312,152,117440,1,8
352,176,117590,1,0
232,200,117740,5,2
304,264,118040,1,8
336,296,118190,1,0
376,288,118340,1,0
384,240,118490,1,0
424,208,118640,1,8
472,224,118790,1,0
464,272,118940,5,2
256,192,119240,12,2,120440
