osu file format v6

[General]
AudioFilename: beatmania IIDX 12 HAPPY SKY - EDEN(1).mp3
AudioLeadIn: 0
PreviewTime: -1
Countdown: 1
SampleSet: Soft
StackLeniency: 0.7
Mode: 0
LetterboxInBreaks: 1

[Editor]
DistanceSpacing: 0.800000011920929
BeatDivisor: 4
GridSize: 8

[Metadata]
Title:Eden
Artist:TERRA
Creator:YtRaM
Version:Beginner
Source:beatmania IIDX 12 HAPPY SKY
Tags:beatmania IIDX 12 HAPPY SKY ddr dance dance revolution terra ytram

[Difficulty]
HPDrainRate:4
CircleSize:3
OverallDifficulty:3
SliderMultiplier:1.4
SliderTickRate:1

[Events]
//Background and Video events
Video,0,"Eden_-_T__RA.avi"
0,0,"Beatmania_IIDX.jpg"
//Break Periods
2,33940,35300
2,50440,52700
//Storyboard Layer 0 (Background)
//Storyboard Layer 1 (Fail)
//Storyboard Layer 2 (Pass)
//Storyboard Layer 3 (Foreground)
//Storyboard Sound Samples
//Background Colour Transformations
3,100,145,187,138

[TimingPoints]
740,600,4,2,0,100,1,0

[Colours]
Combo1 : 41,34,91
Combo2 : 37,80,31
Combo3 : 41,34,91
Combo4 : 37,80,31

[HitObjects]
216,96,740,2,0,B|296:96,2,70
184,264,2240,1,0
184,208,2540,1,0
184,152,2840,2,0,B|184:80,3,70
368,32,5540,1,0
368,88,5840,1,0
368,144,6140,1,0
368,312,7040,1,0
304,344,7340,1,0
248,328,7640,2,0,B|176:328,3,70
480,192,10340,2,0,B|408:192,2,70
312,192,11840,1,0
256,192,12140,1,0
200,192,12440,1,0
144,192,12740,2,0,B|72:192,2,70
272,88,14240,1,0
440,88,15140,1,0
440,144,15440,1,0
440,200,15740,1,0
440,312,16340,1,0
384,312,16640,1,0
328,312,16940,1,0
216,312,17540,1,0
160,312,17840,1,0
104,312,18140,1,0
504,328,20540,1,0
432,304,20990,1,0
336,272,21440,1,0
288,264,21740,1,0
216,240,22190,1,0
152,160,22640,1,0
160,104,22940,1,0
232,80,23390,1,0
328,88,23840,1,0
360,112,24140,1,0
344,208,24740,1,0
312,240,25040,1,0
272,256,25340,1,0
200,264,25790,1,0
120,216,26240,1,0
104,168,26540,1,0
184,104,27140,1,0
272,80,27740,1,0
368,200,28640,1,0
384,240,28940,1,0
232,288,29840,1,0
184,296,30140,1,0
136,240,30590,1,0
160,136,31040,1,0
216,120,31340,1,0
296,112,31790,1,0
320,192,32240,1,0
408,232,32540,1,0
384,312,32990,1,0
280,304,33440,1,0
232,280,33740,1,0
280,224,36740,5,0
256,192,37340,12,0,38540
168,216,39140,5,0
144,176,39440,1,0
104,144,39740,1,0
472,216,41840,1,0
424,216,42140,1,0
352,208,42590,1,0
256,200,43040,1,0
208,192,43340,1,0
168,184,43640,1,0
128,176,43940,1,0
88,160,44240,1,0
96,112,44540,1,0
440,280,46640,1,0
400,256,46940,1,0
320,224,47390,1,0
232,184,47840,1,0
184,168,48140,1,0
400,200,49340,1,0
216,184,50240,1,0
320,184,54140,5,0
160,152,55040,1,0
376,296,56540,1,0
320,256,56990,1,0
248,208,57440,1,0
192,168,57740,1,0
120,88,58340,1,0
224,112,58940,1,0
328,136,59540,1,0
392,224,60140,1,0
296,248,60740,1,0
192,232,61340,1,0
136,152,61940,1,0
232,104,62540,1,0
336,104,63140,1,0
408,184,63740,1,0
376,280,64340,1,0
272,280,64940,1,0
184,232,65540,1,0
176,128,66140,1,0
264,88,66740,1,0
440,216,67940,1,0
336,232,68540,1,0
232,224,69140,1,0
120,208,69740,1,0
120,88,70340,1,0
232,64,70940,1,0
280,88,71240,1,0
312,136,71540,1,0
352,272,72440,1,0
264,248,73040,1,0
224,240,73340,1,0
144,184,73940,1,0
240,128,74540,1,0
336,96,75140,1,0
432,64,75740,1,0
384,80,76040,1,0
336,104,76340,1,0
240,128,76940,1,0
240,128,77240,1,0
240,128,77540,1,0
240,128,77840,1,0
240,128,78140,1,0
240,128,78440,1,0
240,128,79040,1,0
144,168,79640,1,0
296,120,80540,1,0
368,160,80990,1,0
296,120,81440,1,0
88,296,82940,1,0
144,248,83390,1,0
224,192,83840,1,0
288,144,84440,1,0
112,248,85340,1,0
176,208,85790,1,0
256,160,86240,1,0
256,160,86840,1,0
96,96,87740,1,0
144,64,88040,2,0,B|216:64,3,70
272,64,89240,1,0
328,64,89540,1,0
384,64,89840,1,0
440,64,90140,5,0
440,120,90440,2,0,B|440:192,5,70
112,184,92540,2,0,B|112:96,3,70
168,112,93740,2,0,B|248:112,3,70
240,168,94940,2,0,B|240:240,3,70
240,296,96140,2,0,B|240:336,9,23.3333333333333
368,160,99440,1,0
320,152,99740,1,0
272,152,100040,1,0
224,152,100340,1,0
168,160,100640,1,0
120,152,100940,1,0
48,144,101390,1,0
248,96,104240,1,0
232,136,104540,1,0
184,184,104990,1,0
104,256,105440,1,0
320,192,106640,1,0
352,136,106940,1,0
304,136,107240,1,0
248,144,107540,1,0
200,160,107840,1,0
160,192,108140,1,0
200,248,108590,1,0
296,232,109040,1,0
328,200,109340,1,0
312,152,109640,1,0
272,120,109940,1,0
232,96,110240,1,0
184,88,110540,1,0
112,104,110990,1,0
72,256,111740,1,0
120,256,112040,1,0
168,248,112340,1,0
216,224,112640,1,0
256,200,112940,1,0
264,120,113390,1,0
176,88,113840,1,0
200,120,114140,1,0
176,184,114590,1,0
256,248,115040,1,0
112,16,116540,5,2
232,200,117740,1,2
440,296,118940,1,2
