osu file format v9

[General]
AudioFilename: EDEN.mp3
AudioLeadIn: 1004
PreviewTime: 59100
Countdown: 0
SampleSet: Soft
StackLeniency: 0.7
Mode: 0
LetterboxInBreaks: 0

[Editor]
DistanceSpacing: 1
BeatDivisor: 4
GridSize: 4

[Metadata]
Title:EDEN
Artist:TERRA
Creator:Holoaz
Version:Normal
Source:beatmania IIDX 12 HAPPY SKY
Tags:Ryafuka Naoki Maeda Junko Karashima Konami

[Difficulty]
HPDrainRate:2
CircleSize:3
OverallDifficulty:3
ApproachRate:3
SliderMultiplier:0.799999999999999
SliderTickRate:1

[Events]
//Background and Video events
0,0,"BG.jpg"
//Break Periods
2,78495,86455
//Storyboard Layer 0 (Background)
//Storyboard Layer 1 (Fail)
//Storyboard Layer 2 (Pass)
//Storyboard Layer 3 (Foreground)
//Storyboard Sound Samples
//Background Colour Transformations
3,100,163,162,255

[TimingPoints]
1495,300,4,2,1,60,1,0
1495,-166.666666666667,4,2,1,60,0,0
19344,-100,4,2,1,60,0,0
20695,-100,4,1,1,60,0,0
39895,-100,4,1,1,60,0,1
39896,-100,4,1,1,60,0,0
59095,-100,4,1,1,60,0,1
78295,-100,4,1,1,60,0,0
87820,-100,4,2,1,60,0,0
96295,-100,4,2,1,60,0,0
96895,-100,4,1,1,60,0,0
97495,-100,4,1,1,60,0,1
116395,-100,4,1,1,60,0,0
116620,-100,4,2,1,60,0,0

[Colours]
Combo1 : 255,255,128
Combo2 : 128,255,128
Combo3 : 255,128,255
Combo4 : 255,128,128

[HitObjects]
80,124,1495,2,0,B|152:112|232:112,1,144.000003433228,0|2
272,112,2695,1,0
368,112,3295,1,0
412,196,3895,6,0,B|424:244,1,48.0000011444092,0|2
424,292,4495,1,0
336,252,5095,2,0,B|292:288,1,48.0000011444092,0|2
252,276,5695,2,0,B|208:312,1,48.0000011444092,0|2
176,336,6295,6,0,B|144:272|128:196,1,144.000003433228,0|2
124,152,7495,1,0
212,192,8095,1,0
288,252,8695,6,0,B|344:264,1,48.0000011444092,0|2
380,272,9295,1,0
348,180,9895,2,0,B|384:148,1,48.0000011444092,0|2
420,120,10495,2,0,B|456:88,1,48.0000011444092,0|2
460,40,11095,6,0,B|392:24|312:24,1,144.000003433228,4|2
308,72,12295,2,0,B|240:56|160:56,1,144.000003433228,0|2
116,56,13495,1,0
272,168,14695,6,0,B|252:216,1,48.0000011444092,0|2
292,240,15295,2,0,B|308:284,1,48.0000011444092,0|2
328,328,15895,6,0,B|372:272|392:200,1,144.000003433228,4|0
440,200,17095,2,0,B|420:132|368:72,1,144.000003433228,4|0
328,52,18295,1,4
256,192,19495,12,4,20695
240,176,21295,5,8
100,100,21895,2,0,B|164:88|232:84,2,120,0|8|8
56,168,23095,1,0
176,272,23695,1,8
332,312,24295,2,0,B|364:220|376:72,1,240,0|8
300,48,25495,5,0
268,204,26095,1,8
124,268,26695,2,0,B|112:208|108:144,2,120,0|8|8
192,312,27895,5,0
352,336,28495,1,8
408,184,29095,2,0,B|396:124|392:60,2,120,0|8|8
432,260,30295,6,0,B|352:280|296:272,1,120,0|8
196,256,31195,1,0
128,296,31495,2,0,B|96:208|92:172,1,120,8|0
88,60,32395,1,0
160,92,32695,2,0,B|232:104|292:104,2,120,8|8|0
88,60,33895,1,0
408,52,35095,6,0,B|428:136|432:184,1,120,8|0
420,288,35995,1,0
364,232,36295,2,0,B|280:220|228:220,2,120,8|8|0
256,192,37495,12,0,38695
256,196,39295,5,0
128,292,39895,2,0,B|104:216|100:132,2,160,4|2|0
208,280,41395,1,2
288,296,41695,2,0,B|368:312,1,79.9999999999999,0|2
412,244,42295,6,0,B|428:168|432:72,2,160,0|2|0
336,224,43795,1,2
344,144,44095,2,0,B|260:112,1,79.9999999999999,0|2
188,112,44695,6,0,B|176:196|176:284,1,160,0|2
88,140,45895,2,0,B|76:224|76:312,1,160,0|2
148,332,46795,1,0
224,312,47095,6,0,B|312:300|352:300,2,120,2|2|0
204,232,48295,1,2
284,224,48595,2,0,B|372:216,1,79.9999999999999,0|2
444,212,49195,1,2
444,132,49495,6,0,B|340:116|204:120,1,240,4|2
128,136,50695,1,0
160,292,51295,1,2
52,176,51895,6,0,B|40:104|36:44,2,120,0|2|2
124,212,53095,2,0,B|208:224,1,79.9999999999999,0|2
280,204,53695,2,0,B|368:196,1,79.9999999999999,0|2
404,264,54295,6,0,B|296:324|172:336,1,240,0|2
132,268,55495,2,0,B|240:208|364:196,1,240,0|2
436,176,56695,2,0,B|448:104|448:56,2,120,2|2|2
364,140,57895,1,0
256,260,58495,5,4
136,152,59095,6,0,B|96:240,2,79.9999999999999,4|8|0
88,88,59995,1,8
164,76,60295,2,0,B|220:60|296:60,2,120,0|8|8
188,152,61495,2,0,B|192:240,1,79.9999999999999,0|8
268,204,62095,2,0,B|272:292,1,79.9999999999999,0|8
232,356,62695,1,0
120,316,63145,2,0,B|60:316|-4:280,1,120,0|8
48,220,63895,6,0,B|40:132,2,79.9999999999999,4|8|0
128,232,64795,1,8
160,156,65095,2,0,B|224:144|288:140,2,120,0|8|8
164,76,66295,2,0,B|228:64|292:60,2,120,0|8|8
256,192,67495,12,4,68695
444,268,69295,5,0
384,216,69595,1,8
316,176,69895,2,0,B|264:244|256:296,2,120,0|8|8
240,148,71095,2,0,B|172:180|164:184,2,79.9999999999999,0|8|0
300,92,71995,1,8
224,60,72295,2,0,B|152:20,1,79.9999999999999,0|8
128,96,72895,2,0,B|48:108,1,79.9999999999999,0|12
56,188,73495,6,0,B|48:240|48:320,2,120,4|8|8
132,224,74695,2,0,B|196:276,2,79.9999999999999,0|8|0
136,144,75595,2,0,B|232:144,1,79.9999999999999,8|8
288,180,76195,1,8
360,144,76495,2,0,B|380:224|384:276,2,120,8|0|8
368,60,77695,2,0,B|284:48,1,79.9999999999999,0|8
208,48,78295,5,4
72,80,87895,6,0,B|168:68|312:68,1,240,4|2
336,144,89095,2,0,B|240:156|96:156,1,240,0|2
112,236,90295,2,0,B|208:248|352:248,1,240,0|2
396,316,91495,2,0,B|312:340,1,79.9999999999999,0|2
240,324,92095,2,0,B|156:348,1,79.9999999999999,0|2
92,308,92695,5,4
100,224,92995,2,0,B|84:132|120:60,1,160,2|2
180,116,93895,1,4
184,196,94195,2,0,B|256:220|348:204,1,160,2|2
420,188,95095,1,4
292,288,95695,1,0
256,192,96295,12,4,97495
216,260,98095,6,0,B|136:280,1,79.9999999999999,0|8
84,220,98695,2,0,B|60:268|44:336,2,120,0|8|8
148,172,99895,6,0,B|92:100,2,79.9999999999999,0|8|0
200,112,100795,1,8
268,68,101095,2,0,B|344:56|400:56,2,120,0|8|8
276,148,102295,6,0,B|344:160|440:168,1,160,4|8
436,248,103195,1,0
356,244,103495,2,0,B|340:308|336:368,2,120,8|8|0
276,228,104695,2,0,B|260:292|256:352,2,120,8|8|0
256,192,105895,12,4,107095
232,268,107695,6,0,B|316:240,1,79.9999999999999,0|8
308,164,108295,2,0,B|300:92|300:36,2,120,0|8|8
384,184,109495,2,0,B|392:276,1,79.9999999999999,0|8
468,236,110095,2,0,B|460:144,1,79.9999999999999,0|8
400,104,110695,2,0,B|280:88|160:88,1,240,0|8
88,120,111895,6,0,B|56:208,1,79.9999999999999,4|8
140,200,112495,2,0,B|108:288,1,79.9999999999999,0|8
192,280,113095,2,0,B|224:192,1,79.9999999999999,4|8
300,204,113695,2,0,B|332:116,2,79.9999999999999,0|8|8
272,280,114595,1,0
352,288,114895,2,0,B|400:304|468:316,2,120,8|8|8
384,216,116095,2,0,B|416:128,1,79.9999999999999
440,64,116695,5,4
256,324,117895,1,0
72,64,119095,1,0
