osu file format v9

[General]
AudioFilename: DoLL.mp3
AudioLeadIn: 1500
PreviewTime: -1
Countdown: 0
SampleSet: Soft
StackLeniency: 0.7
Mode: 0
LetterboxInBreaks: 1

[Editor]
DistanceSpacing: 0.9
BeatDivisor: 4
GridSize: 4

[Metadata]
Title:DoLL
Artist:TERRA
Creator:YtRaM
Version:Beginner
Source:Dance dance revolution super nova 2
Tags:doll terra ddr bemani super nova dance dance revolution beatmania

[Difficulty]
HPDrainRate:2
CircleSize:3
OverallDifficulty:2
ApproachRate:2
SliderMultiplier:1
SliderTickRate:1

[Events]
//Background and Video events
0,0,"TERRA_Desktop_by_Zashire.jpg"
Video,-900,"doll.flv"
//Break Periods
2,44669,49263
2,68316,79616
2,89848,90204
//Storyboard Layer 0 (Background)
//Storyboard Layer 1 (Fail)
//Storyboard Layer 2 (Pass)
//Storyboard Layer 3 (Foreground)
//Storyboard Sound Samples
//Background Colour Transformations
3,100,0,0,0

[TimingPoints]
0,352.941176470588,4,2,0,60,1,0
20470,-200,4,2,0,60,0,0
23294,-200,4,2,0,60,0,0
28941,-100,4,2,0,60,0,0
81176,-200,4,2,0,60,0,0
83647,-100,4,2,0,60,0,0
92470,-100,4,1,0,60,0,1
109411,-100,4,2,0,30,0,0

[Colours]
Combo1 : 128,0,138
Combo2 : 255,255,255
Combo3 : 0,244,244
Combo4 : 193,0,0

[HitObjects]
256,160,10588,1,2
88,220,11294,2,0,B|144:176|188:236,1,100
136,304,11999,2,0,B|164:344|244:344|284:296,1,150
376,220,13058,5,0
376,220,13411,2,0,B|424:164|376:128,1,100
308,80,14117,2,0,B|264:40|208:72,1,100
192,256,15882,5,0
196,168,16235,2,0,B|196:120|196:120|256:120,1,100
324,168,16941,2,0,B|324:220|324:220|276:220,1,100
356,68,18705,6,0,B|316:16|264:76,1,100
312,148,19411,2,0,B|272:96|220:156,1,100
268,228,20117,1,0
268,228,20470,2,0,B|228:176|176:236,1,100
96,48,23294,6,0,B|208:48,1,100
288,48,24705,2,0,B|400:48,1,100
384,144,26117,2,0,B|384:256,1,100
288,240,27529,2,0,B|176:240,1,100
16,32,28941,6,0,B|128:32,1,100,0|0
208,32,29647,2,0,B|320:32,1,100
400,32,30352,2,0,B|512:32,1,100
448,96,31058,1,0
384,160,31411,1,0
256,304,32117,6,0,B|256:192,1,100
256,112,32823,2,0,B|256:0,1,100
256,176,34588,5,0
256,176,34941,2,0,B|256:288,1,100
192,112,36000,6,0,B|80:112,1,100
96,208,36705,2,0,B|208:208,1,100
288,208,37412,2,0,B|224:112|384:80,1,200,8|0
384,176,38470,6,0,B|384:288,1,100
384,368,39176,2,0,B|272:368,1,100
192,368,39882,2,2,B|80:368,1,100
64,96,41294,6,0,B|112:64|160:96,1,100
240,96,42000,2,0,B|288:64|336:96,1,100
416,96,42705,1,0
416,192,43058,2,0,B|416:320|416:320|288:256|288:256|192:352,1,400
256,336,50823,6,0,B|368:336,1,100
448,336,51529,2,0,B|448:224,1,100
352,48,52588,5,0
352,48,52941,2,0,B|240:48,1,100
352,192,54001,5,2
352,288,54353,2,2,B|128:288,1,200
64,288,55411,2,0,B|64:176,1,100
64,96,56117,2,2,B|176:96,1,100
256,96,56823,1,2
352,224,58236,6,2,B|352:336|352:336|288:320|288:320|288:192,1,300,10|0
288,111,59647,2,0,B|176:112,1,100
96,112,60352,1,0
256,192,61059,6,2,B|256:288|256:288|160:288|160:288|160:224|160:224|0:224,1,400
16,128,62823,1,0
112,128,63176,2,0,B|176:128,1,50
304,128,63882,6,0,B|368:208,1,100
416,272,64588,2,0,B|320:336,1,100
288,256,65294,2,0,B|224:176,1,100
48,176,66352,2,2,B|48:64|48:64|160:64|160:64|160:176|160:176|336:176,1,500
192,208,81176,6,0,B|128:128,1,100
240,80,82588,2,0,B|304:160,1,100
304,240,83647,6,0,B|416:240,1,100
416,336,84354,2,0,B|304:336,1,100
336,240,85059,2,0,B|336:128,1,100
240,160,85765,2,0,B|128:160,1,100
128,336,86824,5,8
256,336,87353,2,2,B|416:336|416:336|416:256|416:256|256:256|256:256|256:80,1,550,8|8
256,16,89648,1,2
304,128,91764,6,0,B|304:240,1,100
304,320,92470,2,0,B|192:320,1,100
112,320,93176,2,0,B|112:208,1,100
112,128,93882,2,0,B|272:128,1,150
464,32,94941,5,0
464,32,95294,2,2,B|272:32|272:32|272:256,1,400,10|0
96,240,97411,6,0,B|96:128,1,100
184,144,98117,2,0,B|184:248,1,100
184,336,98823,1,0
368,336,99529,6,0,B|448:256,1,100
432,176,100235,2,0,B|352:96,1,100
288,48,100941,2,0,B|176:48,1,100
384,144,102000,5,0
384,144,102352,2,0,B|384:256,1,100
384,336,103058,2,0,B|272:336,1,100
192,336,103764,6,2,B|192:256|192:256|224:256|224:256|224:64|224:64,1,300
320,64,105176,2,0,B|432:64,1,100
416,160,105882,2,0,B|416:272,1,100
256,192,106588,12,0,109411
