osu file format v9

[General]
AudioFilename: DoLL.mp3
AudioLeadIn: 1500
PreviewTime: -1
Countdown: 0
SampleSet: Soft
StackLeniency: 0.7
Mode: 0
LetterboxInBreaks: 1

[Editor]
DistanceSpacing: 0.9
BeatDivisor: 4
GridSize: 8

[Metadata]
Title:DoLL
Artist:TERRA
Creator:YtRaM
Version:Basic
Source:Dance dance revolution super nova 2
Tags:doll terra ddr bemani super nova dance dance revolution beatmania

[Difficulty]
HPDrainRate:5
CircleSize:4
OverallDifficulty:4
ApproachRate:4
SliderMultiplier:1
SliderTickRate:2

[Events]
//Background and Video events
0,0,"TERRA_Desktop_by_Zashire.jpg"
Video,-900,"doll.flv"
//Break Periods
2,44934,49503
2,68670,79856
2,89847,90444
//Storyboard Layer 0 (Background)
//Storyboard Layer 1 (Fail)
//Storyboard Layer 2 (Pass)
//Storyboard Layer 3 (Foreground)
//Storyboard Sound Samples
//Background Colour Transformations
3,100,0,0,0

[TimingPoints]
0,352.941176470588,4,2,0,60,1,0
6446,-100,4,2,0,60,0,0
10681,-100,4,2,0,60,0,1
10769,-100,4,2,0,60,0,0
44563,-100,4,2,0,60,0,1
44651,-100,4,2,0,60,0,0
44828,-100,4,2,0,60,0,1
44916,-100,4,2,0,60,0,0
50916,-100,4,2,0,60,0,1
51269,-100,4,2,0,60,0,0
68563,-100,4,2,0,60,0,1
68651,-100,4,2,0,60,0,0
86916,-100,4,2,0,60,0,1
87004,-100,4,2,0,60,0,0
91857,-100,4,2,0,60,0,1
92210,-100,4,2,0,60,0,0
97505,-100,4,2,0,60,0,1
100681,-100,4,2,0,60,0,0
101034,-100,4,2,0,60,0,1
109328,-100,4,2,0,70,0,0
109504,-100,4,2,0,70,0,0
109504,-100,4,2,0,70,0,1

[Colours]
Combo1 : 128,0,138
Combo2 : 255,255,255
Combo3 : 0,244,244
Combo4 : 193,0,0

[HitObjects]
256,160,10588,1,2
64,160,11294,5,2
160,160,11647,1,0
256,160,12000,1,0
352,160,12352,1,0
448,160,12705,1,0
352,160,13058,1,0
448,160,13411,6,0,B|352:64,1,100,2|0
288,96,14117,2,2,B|192:32,1,100
128,96,14823,2,0,B|128:32|128:32|64:32,1,100
96,128,15529,1,0
96,224,15882,5,0
192,224,16235,1,0
288,224,16588,1,0
384,224,16941,1,0
384,128,17294,1,2
384,224,17647,5,0
384,320,18000,1,2
384,320,18175,1,0
192,320,18705,5,2
96,320,19058,1,0
96,224,19411,1,2
96,128,19764,1,0
96,32,20117,1,2
192,32,20470,1,0
288,32,20823,1,0
288,128,20999,1,0
288,128,21176,2,10,B|288:352|288:352|480:352,1,400,10|2
416,192,23294,5,0
224,192,23999,1,0
32,192,24705,1,0
128,352,25411,1,0
320,352,26117,1,0
512,352,26823,1,0
416,192,27529,1,0
224,192,28235,1,0
32,192,28763,5,0
32,192,28941,1,2
32,96,29294,1,0
128,96,29647,1,2
128,192,30000,1,0
128,288,30352,1,2
128,384,30705,1,0
128,288,31058,1,2
224,288,31411,1,0
320,288,31764,1,2
320,192,32117,5,0
384,128,32470,1,2
384,32,32823,2,2,B|256:32,1,100,10|2
288,128,33529,5,2
288,224,33882,1,0
288,320,34235,1,2
192,320,34588,1,8
96,320,34941,1,2
96,320,35116,1,0
96,128,35647,5,0
192,128,36000,1,0
192,224,36352,1,8
288,224,36705,1,0
288,320,37058,1,0
384,320,37411,2,0,B|512:384|480:192,1,200,8|0
384,224,38470,5,2
384,320,38823,1,2
288,320,39176,1,2
288,224,39529,1,2
192,224,39882,1,0
192,128,40235,2,2,B|192:352,1,200
192,224,41294,5,2
192,128,41647,1,0
288,128,42000,1,2
288,224,42352,1,0
288,320,42705,1,0
192,320,43058,2,0,B|96:288|128:128|416:64|416:256|320:320,1,400,8|4
368,320,44734,1,4
224,32,50823,5,0
224,128,51176,1,2
224,224,51529,2,0,B|224:352,1,100
320,320,52235,1,8
224,320,52588,5,0
320,320,52941,2,2,B|416:384|480:256,1,200
480,160,54000,1,2
384,160,54352,2,2,B|160:160,1,200
96,160,55411,1,0
96,64,55764,1,0
96,160,56117,5,0
192,160,56470,1,2
288,160,56823,1,0
384,160,57176,2,2,B|480:128|480:128|448:224,1,200,0|8
352,224,58235,6,2,B|256:288|256:288|192:256|192:256|288:192,1,300,10|0
192,192,59647,1,2
288,192,60000,1,0
384,192,60352,1,10
384,192,60528,1,8
480,96,61058,6,2,B|480:192|480:192|384:160|384:160|288:224|288:224|288:96,1,400
384,128,62823,1,0
384,224,63176,1,8
384,224,63352,1,8
192,224,63882,5,0
192,128,64235,1,0
160,224,64588,1,0
160,128,64941,1,0
256,128,65294,1,0
352,128,65647,2,2,B|480:128,1,100,10|2
448,224,66175,1,2
448,224,66352,2,2,B|448:448|32:256,1,500
32,160,68470,5,4
256,256,81176,6,0,B|384:160|384:160|256:96,1,300,0|2
160,96,82588,6,0,B|32:192|32:192|160:256,1,300,0|2
256,256,83999,1,0
352,256,84353,2,0,B|480:256,1,100
448,160,85058,2,0,B|320:160,1,100
256,160,85764,2,0,B|128:160,1,100
156,160,86469,1,0
160,160,86823,5,8
288,160,87352,2,2,B|448:128|448:128|448:224|448:224|544:288|544:288|352:288,1,550,8|8
288,288,89647,1,2
128,32,91764,5,2
128,128,92117,1,0
224,128,92470,2,8,B|224:296|224:296,1,150
224,224,93529,5,2
128,192,93882,1,0
224,160,94235,1,2
128,128,94588,1,0
224,96,94941,1,2
312,96,95293,2,2,B|312:200,1,100
312,240,95822,1,8
312,240,95999,1,8
64,256,97411,5,2
64,160,97764,1,8
64,64,98117,2,0,B|192:64,1,100
256,64,98823,1,2
256,160,99176,5,2
256,64,99529,1,2
256,160,99882,1,2
256,256,100235,1,2
256,64,100941,5,8
352,64,101294,1,8
352,64,101469,1,10
352,256,102000,5,0
256,256,102352,1,2
256,160,102705,1,0
160,160,103058,1,0
160,256,103411,1,8
256,256,103763,1,8
352,256,104116,1,8
352,256,104293,1,8
448,168,104822,5,2
384,96,105176,1,0
288,96,105529,1,2
288,192,105882,1,2
288,96,106235,1,0
256,192,106588,12,0,109058
256,192,109411,5,2
