osu file format v5

[General]
AudioFilename: Dance Dance Revolution feat TERRA NON STOP MEGAMIX.mp3
AudioLeadIn: 0
PreviewTime: -1
Countdown: 0
SampleSet: Soft
StackLeniency: 0.7
Mode: 0
LetterboxInBreaks: 1
EditorBookmarks: 5680,22080,27680,33280,38794,46180,53280,58280,63580,72336,152919,260648,362858,474919,576444,584158,691198,803500,915989,1015996,1113113,1227520,1344174,1428546

[Metadata]
Title:Dance Dance Revolution NON STOP MEGAMIX
Artist:TERRA
Creator:James
Version:STARS
Source:
Tags:

[Difficulty]
HPDrainRate:7
CircleSize:4
OverallDifficulty:7
SliderMultiplier:1.4
SliderTickRate:2

[Events]
//Background and Video events
//Break Periods
//Storyboard Layer 0 (Background)
4,0,0,"info.png",-60,400 F,0,2480,2880,0,1 F,0,4080,4280,1,0
4,0,0,"white.png",0,0 L,4080,1 F,0,0,400,1,0 L,6480,28 F,0,0,400,1,0 L,19980,1 F,0,0,400,1,0 L,20780,1 F,0,0,400,1,0 L,27908,1 F,0,0,400,1,0 L,32980,1 F,0,0,400,1,0 L,33370,1 F,0,0,400,1,0 L,38910,1 F,0,0,400,1,0 L,46070,1 F,0,0,400,1,0 L,53280,1 F,0,0,400,1,0 L,58700,1 F,0,0,400,1,0 L,64013,1 F,0,0,400,1,0 L,69987,1 F,0,0,400,1,0
4,0,0,"stars.png",-60,400 F,0,73201,73610,0,1 F,0,76610,77039,1,0
4,0,0,"northwind.png",-60,400 F,0,146906,147250,0,1 F,0,153456,153875,1,0
4,0,0,"16billionth.png",-60,400 F,0,261047,261460,0,1 F,0,267666,268080,1,0
4,0,0,"doll.png",-60,400 F,0,364494,364790,0,1 F,0,375731,376080,1,0
4,0,0,"weare.png",-60,400 F,0,475603,475720,0,1 F,0,482148,482577,1,0
4,0,0,"mugen.png",-60,400 F,0,585005,585220,0,1 F,0,590138,590139,1,0
4,0,0,"ultimate.png",-60,400 F,0,691629,691804,0,1 F,0,696837,697173,1,0
4,0,0,"escape.png",-60,400 F,0,807357,807673,0,1 F,0,817463,817778,1,0
4,0,0,"baby.png",-60,400 F,0,924422,924735,0,1 F,0,929735,930047,1,0
4,0,0,"impulse.png",-60,400 F,0,1016610,1016685,0,1 F,0,1022891,1023305,1,0
4,0,0,"heart.png",-60,400 F,0,1125875,1126250,0,1 F,0,1128875,1129250,1,0
4,0,0,"termination.png",-60,400 F,0,1228250,1228340,0,1 F,0,1235906,1236167,1,0
4,0,0,"eversnow.png",-60,400 F,0,1344971,1345348,0,1 F,0,1349931,1350348,1,0
4,0,0,"last.png",-60,400 F,0,1430186,1430409,0,1 F,0,1434159,1434575,1,0
//Storyboard Layer 1 (Failing)
//Storyboard Layer 2 (Passing)
//Storyboard Layer 3 (Foreground)
//Storyboard Sound Samples
//Background Colour Transformations
3,100,0,0,0

[TimingPoints]
80,400,4,2,0,100
6480,400,4,1,0,100
23585,352.941176470588,4,2,0,100
28480,315.789473684211,4,1,0,100
34090,428.571428571429,4,1,0,100
39410,350.877192982456,4,1,0,100
46876,413.793103448276,4,1,0,100
53850,413.793103448276,4,1,0,100
59180,333.333333333333,4,1,0,100
64630,428.571428571429,4,1,0,100
73610,428.63266180883,4,1,0,100
147250,413.793103448276,4,2,0,100
153875,413.791813494809,4,1,0,100
261460,413.791813494809,4,1,0,100
364790,705.882352941176,4,2,0,100
376080,352.920416446091,4,1,0,100
475720,428.571428571429,4,2,0,100
585226,350.877192982456,4,1,0,100
691810,670.391061452514,4,1,0,100
702495,333.351852880716,4,1,0,100
804200,315.789473684211,4,1,0,100
916610,625,4,1,0,100
1016681,413.793103448276,4,1,0,100
1114250,375.046880860108,4,1,0,100
1228340,521.839030434781,4,2,0,100
1345348,833.333333333333,4,1,0,100
1351970,413.793103448276,4,1,0,100
1430405,416.666666666667,4,2,0,100

[Colours]
Combo1 : 255,150,0
Combo2 : 7,245,234
Combo3 : 192,192,192
Combo4 : 49,192,247

[HitObjects]
440,192,73630,5,0
384,184,73824,1,2
336,152,74038,1,0
296,112,74252,1,2
280,56,74467,1,0
280,56,74574,1,0
280,56,74681,1,2
336,64,74895,5,0
384,96,75110,1,2
400,152,75324,1,0
384,208,75538,1,2
336,240,75753,1,0
280,232,75967,1,2
224,208,76181,1,0
184,168,76396,5,2
184,168,76503,1,0
184,168,76610,1,0
232,152,76824,1,2
288,152,77039,1,0
320,192,77253,1,2
312,248,77467,1,0
264,272,77682,1,2
248,216,77896,2,0,B|248:344,2,105
464,344,79396,5,0
408,344,79610,2,0,B|312:344,1,70
280,344,80039,2,0,B|184:344,1,70
152,344,80468,2,2,B|24:344,2,105
152,344,81325,1,2
96,184,81968,5,0
152,168,82182,2,2,B|219:152|291:145|376:176,1,210
408,184,83039,1,0
480,40,83682,5,0
424,40,83897,2,2,B|328:48|272:88,1,140
240,104,84540,1,0
192,136,84754,2,2,B|112:192|72:256,1,140
56,272,85397,1,0
256,192,85826,12,4,87326
256,192,87754,1,0
160,128,88183,1,0
104,144,88397,1,2
56,248,88826,1,2
160,280,89255,1,2
216,264,89469,1,0
216,264,89683,1,2
216,264,89790,1,0
408,280,90540,5,0
408,280,90648,1,0
408,280,90755,1,2
352,264,90969,1,0
312,224,91183,1,2
288,168,91398,1,0
304,112,91612,1,2
336,64,91826,1,0
400,160,92255,6,0,B|248:160,1,140
200,160,92898,2,0,B|112:160,1,70
130,160,93327,1,0
40,328,94184,5,2
96,328,94398,1,0
152,328,94613,1,2
208,328,94827,1,0
264,328,95041,1,2
320,328,95255,1,2
376,232,95684,2,0,B|296:232,1,70
248,232,96113,2,0,B|152:232,1,70
176,232,96541,1,0
176,232,96649,1,0
56,72,97399,5,0
112,72,97613,1,2
168,72,97827,1,0
224,72,98042,1,2
280,72,98256,2,0,B|368:72,2,70
168,72,99113,2,0,B|112:152|208:208|152:304,1,210
164,275,99970,1,0
164,275,100078,1,0
384,304,101042,5,0
256,72,101471,1,0
128,304,101899,1,0
128,304,102114,1,0
256,288,102542,1,0
240,232,102757,1,2
264,184,102971,1,0
240,136,103185,1,2
256,80,103399,1,0
256,80,103507,1,2
448,160,104257,5,0
408,120,104471,2,0,B|352:72|256:104,1,140
224,112,105114,1,2
240,168,105328,2,0,B|280:240|200:304,1,140
160,320,105971,1,2
192,272,106186,2,0,B|248:192|332:193|403:286|320:368,1,280
392,248,107471,5,0
352,208,107686,1,0
304,176,107900,2,2,B|232:200|224:264|240:328|256:360,1,210
336,280,108972,1,0
280,280,109186,1,2
224,280,109400,1,0
168,288,109615,2,2,B|271:245|364:320|464:256,2,280
256,192,111972,12,4,113044
256,192,113258,1,4
256,192,113901,5,4
256,192,114115,1,4
88,192,114758,6,0,B|98:125|160:63|264:72,1,210
239,71,115616,1,0
352,72,116044,5,2
392,112,116258,1,0
400,168,116473,1,2
384,216,116687,1,0
384,216,116794,1,0
344,256,117009,1,0
344,256,117116,1,0
288,272,117330,1,2
232,272,117544,1,0
232,272,117652,1,0
176,256,117866,1,0
176,256,117973,1,0
136,216,118187,6,2,B|156:300|80:336,1,140
32,344,118830,1,0
88,328,119045,2,2,B|168:312|256:336,1,140
280,336,119688,2,0,B|369:359|448:328,1,140
472,320,120330,1,2
472,80,120973,5,0
416,80,121188,1,2
360,80,121402,1,0
304,80,121616,1,2
248,80,121831,1,0
192,80,122045,1,2
136,80,122259,1,0
48,192,122688,5,0
72,192,122795,1,0
96,192,122902,1,2
160,192,123117,1,0
216,192,123331,1,2
272,192,123545,1,0
296,192,123652,1,0
320,192,123760,1,2
376,192,123974,1,0
456,304,124402,5,0
400,304,124617,1,2
344,304,124831,1,0
288,304,125045,1,2
232,304,125260,1,0
176,304,125474,1,2
120,304,125688,1,0
256,192,126117,12,0,128046
256,192,128474,1,4
104,112,131689,5,0
104,112,131904,1,0
432,176,132761,1,0
120,312,133618,1,0
344,64,134475,1,0
192,136,134904,1,0
320,240,135333,6,0,C|232:288,1,70
176,280,135761,2,0,C|176:184,1,70
232,152,136190,2,2,C|352:104,1,105
440,120,136833,1,0
440,200,137047,2,2,L|440:288|400:288,1,105
304,288,137690,1,0
304,200,137904,1,2
216,200,138119,1,0
216,288,138333,1,2
128,288,138547,1,0
128,200,138762,6,0,B|40:224,1,70
16,144,139190,2,0,B|16:48,1,70
88,32,139619,2,2,B|216:32,1,105
320,32,140262,1,0
320,112,140476,2,2,L|321:196|368:196,1,105
341,196,140905,1,0
424,200,141119,1,0
424,280,141333,2,0,L|328:280,1,70
272,280,141762,2,0,L|184:280,1,70
120,288,142191,6,2,L|118:200|144:200,1,105
134,200,142619,1,0
216,200,142834,1,0
296,200,143048,2,2,L|408:200,1,105
401,200,143477,1,0
400,112,143691,1,0
312,112,143905,2,2,L|313:200|272:200,1,105
296,200,144334,1,0
208,200,144548,2,0,L|104:200,1,70
72,248,144977,2,0,L|112:344,1,70
96,312,145405,5,0
