osu file format v5

[General]
AudioFilename: Dance Dance Revolution feat TERRA NON STOP MEGAMIX.mp3
AudioLeadIn: 0
PreviewTime: -1
Countdown: 0
SampleSet: Soft
StackLeniency: 0.7
Mode: 0
LetterboxInBreaks: 1
EditorBookmarks: 5680,22080,27680,33280,38794,46180,53280,58280,63580,72336,152919,260648,362858,474919,576444,584158,691198,803500,915989,1015996,1113113,1227520,1344174,1428546

[Metadata]
Title:Dance Dance Revolution NON STOP MEGAMIX
Artist:TERRA
Creator:James
Version:North Wind
Source:
Tags:

[Difficulty]
HPDrainRate:7
CircleSize:4
OverallDifficulty:7
SliderMultiplier:1.4
SliderTickRate:2

[Events]
//Background and Video events
//Break Periods
2,173937,179457
//Storyboard Layer 0 (Background)
4,0,0,"info.png",-60,400 F,0,2480,2880,0,1 F,0,4080,4280,1,0
4,0,0,"white.png",0,0 L,4080,1 F,0,0,400,1,0 L,6480,28 F,0,0,400,1,0 L,19980,1 F,0,0,400,1,0 L,20780,1 F,0,0,400,1,0 L,27908,1 F,0,0,400,1,0 L,32980,1 F,0,0,400,1,0 L,33370,1 F,0,0,400,1,0 L,38910,1 F,0,0,400,1,0 L,46070,1 F,0,0,400,1,0 L,53280,1 F,0,0,400,1,0 L,58700,1 F,0,0,400,1,0 L,64013,1 F,0,0,400,1,0 L,69987,1 F,0,0,400,1,0
4,0,0,"stars.png",-60,400 F,0,73201,73610,0,1 F,0,76610,77039,1,0
4,0,0,"northwind.png",-60,400 F,0,146906,147250,0,1 F,0,153456,153875,1,0
4,0,0,"16billionth.png",-60,400 F,0,261047,261460,0,1 F,0,267666,268080,1,0
4,0,0,"doll.png",-60,400 F,0,364494,364790,0,1 F,0,375731,376080,1,0
4,0,0,"weare.png",-60,400 F,0,475603,475720,0,1 F,0,482148,482577,1,0
4,0,0,"mugen.png",-60,400 F,0,585005,585220,0,1 F,0,590138,590139,1,0
4,0,0,"ultimate.png",-60,400 F,0,691629,691804,0,1 F,0,696837,697173,1,0
4,0,0,"escape.png",-60,400 F,0,807357,807673,0,1 F,0,817463,817778,1,0
4,0,0,"baby.png",-60,400 F,0,924422,924735,0,1 F,0,929735,930047,1,0
4,0,0,"impulse.png",-60,400 F,0,1016610,1016685,0,1 F,0,1022891,1023305,1,0
4,0,0,"heart.png",-60,400 F,0,1125875,1126250,0,1 F,0,1128875,1129250,1,0
4,0,0,"termination.png",-60,400 F,0,1228250,1228340,0,1 F,0,1235906,1236167,1,0
4,0,0,"eversnow.png",-60,400 F,0,1344971,1345348,0,1 F,0,1349931,1350348,1,0
4,0,0,"last.png",-60,400 F,0,1430186,1430409,0,1 F,0,1434159,1434575,1,0
//Storyboard Layer 1 (Failing)
//Storyboard Layer 2 (Passing)
//Storyboard Layer 3 (Foreground)
//Storyboard Sound Samples
//Background Colour Transformations
3,100,0,0,0

[TimingPoints]
80,400,4,2,0,100
6480,400,4,1,0,100
23585,352.941176470588,4,2,0,100
28480,315.789473684211,4,1,0,100
34090,428.571428571429,4,1,0,100
39410,350.877192982456,4,1,0,100
46876,413.793103448276,4,1,0,100
53850,413.793103448276,4,1,0,100
59180,333.333333333333,4,1,0,100
64630,428.571428571429,4,1,0,100
73610,428.63266180883,4,1,0,100
147250,413.793103448276,4,2,0,100
153875,413.791813494809,4,1,0,100
261460,413.791813494809,4,1,0,100
364790,705.882352941176,4,2,0,100
376080,352.920416446091,4,1,0,100
475720,428.571428571429,4,2,0,100
585226,350.877192982456,4,1,0,100
691810,670.391061452514,4,1,0,100
702495,333.351852880716,4,1,0,100
804200,315.789473684211,4,1,0,100
916610,625,4,1,0,100
1016681,413.793103448276,4,1,0,100
1114250,375.046880860108,4,1,0,100
1228340,521.839030434781,4,2,0,100
1345348,833.333333333333,4,1,0,100
1351970,413.793103448276,4,1,0,100
1430405,416.666666666667,4,2,0,100

[Colours]
Combo1 : 255,150,0
Combo2 : 7,245,234
Combo3 : 192,192,192
Combo4 : 49,192,247

[HitObjects]
136,104,147250,1,2
408,328,148905,1,2
144,168,150560,1,2
256,168,150974,1,0
256,168,151181,1,0
368,168,151594,2,0,L|200:168,1,140
456,328,153043,5,2
368,328,153353,1,2
368,328,153456,1,2
312,328,153663,1,2
256,328,153875,1,0
144,328,154288,1,0
88,232,154702,1,0
144,136,155116,1,2
88,40,155530,5,0
192,72,155943,1,0
296,40,156357,1,0
400,72,156771,1,2
336,160,157185,1,0
400,248,157599,1,0
336,336,158012,1,0
224,304,158426,1,2
224,304,158633,1,0
224,304,158737,1,0
224,304,158840,1,0
456,80,159668,6,0,L|336:80,2,105
456,80,160495,1,0
120,80,161737,2,0,L|120:168,1,70
152,104,162150,2,0,L|152:264,1,140
184,200,162771,2,0,L|184:32,1,140
216,104,163392,2,0,L|216:264,1,140
248,200,164012,2,0,L|248:112,1,70
280,80,164426,2,0,L|280:232,1,140
280,216,165254,1,0
448,320,166288,5,2
360,320,166599,1,2
272,320,166909,1,2
272,320,167116,1,2
88,96,168357,2,0,L|192:96,1,70
120,136,168771,2,0,L|264:136,1,140
304,168,169392,2,0,L|72:168,1,210
96,168,170426,1,0
336,320,171254,1,0
280,320,171461,1,2
224,320,171668,1,0
168,320,171874,1,0
256,192,172081,12,4,173737
88,80,180357,6,0,L|232:80,1,140
336,80,181185,1,2
416,160,181599,2,0,L|248:160,1,140
160,160,182426,1,0
80,240,182840,2,2,L|224:240,1,140
328,240,183668,1,0
408,320,184081,2,0,L|256:320,1,140
152,320,184909,1,2
72,240,185323,1,2
96,128,185736,5,2
96,128,185943,1,0
96,128,186150,1,2
192,72,186564,1,0
304,96,186978,6,0,L|456:96,1,140
400,128,187599,2,0,L|232:128,1,140
168,192,188426,2,0,B|260:178|295:238|261:311|216:328,1,210
120,336,189461,1,2
48,248,189874,1,2
144,192,190288,2,0,B|288:192,1,140
232,160,190909,2,0,B|144:160,1,70
48,160,191530,1,2
112,64,191943,2,0,B|272:64,1,140
208,104,192564,2,0,B|128:104,1,70
64,192,193185,5,2
160,248,193599,6,0,B|320:248,1,140
256,280,194219,2,0,B|400:280,1,140
400,280,195047,1,0
400,280,195254,1,0
328,192,195667,1,2
400,112,196081,1,2
328,24,196495,1,2
256,112,196909,6,0,B|256:264,1,140
224,296,197530,1,0
200,248,197736,1,0
224,200,197943,1,0
200,144,198150,1,0
224,88,198357,1,0
200,40,198564,2,0,B|200:336,1,280
200,320,199598,5,0
200,320,199702,1,0
200,320,199805,1,0
120,240,200219,6,0,B|264:240,1,140
304,208,200840,2,0,B|160:208,2,140
304,208,201874,1,0
400,160,202288,5,2
352,128,202495,5,0
296,104,202702,1,0
240,112,202909,1,0
184,136,203116,1,0
136,168,203323,1,0
136,168,203530,1,0
56,248,203943,2,0,B|224:248,1,140
152,280,204564,2,0,B|152:120,1,140
104,168,205185,2,0,B|336:168,1,210
314,168,206012,1,0
392,240,206426,5,2
464,328,206840,6,0,B|312:328,1,140
368,296,207461,2,0,B|216:296,2,140
400,80,209116,5,0
344,80,209323,1,0
288,80,209529,1,0
232,80,209736,1,0
176,80,209943,1,0
120,80,210150,1,0
64,176,210564,5,0
120,272,210978,1,0
120,272,211185,1,0
40,352,211598,1,0
40,352,211805,1,0
464,88,212633,6,0,B|416:70|384:105|352:92|304:72,2,140
464,88,213771,1,0
464,88,213874,1,0
432,136,214081,1,0
400,184,214288,1,0
368,232,214495,1,0
328,272,214702,2,0,B|248:240|184:280,1,140
144,304,215323,2,0,B|191:262|198:211|176:144,1,140
160,128,215943,2,0,B|135:49|56:24,2,140
488,192,217598,5,0
416,104,218012,1,0
304,88,218426,1,0
280,168,218736,1,0
200,192,219047,1,0
40,128,219667,2,0,B|-4:196|40:280,1,140
144,248,220495,1,2
256,264,220909,1,2
368,272,221323,6,0,B|400:184|480:168,1,140
400,176,221943,2,0,B|232:176,1,140
296,216,222564,2,0,B|456:216,3,140
436,216,224012,1,0
436,216,224219,1,0
256,192,225047,12,0,225667
256,192,225874,2,0,B|136:192,2,105
256,192,226702,1,0
152,48,227943,2,0,B|48:48,1,70
40,88,228357,2,0,B|200:88,1,140
224,120,228978,2,0,B|72:120,1,140
40,152,229598,2,0,B|192:152,2,140
40,152,230633,1,0
112,232,231047,2,0,B|280:232,1,140
456,336,232495,6,0,B|328:336,2,105
496,296,233323,2,0,B|200:296,1,280
160,200,234564,1,0
80,56,234978,2,0,B|320:56,1,210
248,88,235805,2,0,B|96:88,2,140
368,200,237254,1,0
312,200,237460,1,0
256,200,237667,1,0
200,200,237874,1,0
144,200,238081,1,0
72,336,239116,6,2,B|208:336,2,105
72,336,239943,1,4
184,216,240564,2,2,B|328:216,2,140
192,216,241598,1,4
312,96,242219,2,2,B|456:96,2,140
312,96,243254,1,4
216,152,243667,1,4
184,256,244081,1,6
184,256,244288,1,6
288,304,244702,1,4
392,256,245116,1,6
392,256,245322,1,6
448,160,245736,5,0
360,160,246047,1,0
272,160,246357,1,0
272,160,246564,1,0
160,168,246978,1,2
72,96,247391,1,2
168,48,247805,2,0,B|256:48,1,70
280,80,248219,2,0,B|120:80,1,140
104,120,248840,2,0,B|256:120,1,140
288,160,249460,2,0,B|144:160,1,140
256,192,250495,12,0,253185
200,32,254426,1,0
312,32,254840,1,0
256,192,255460,1,0
312,352,256081,1,0
200,352,256495,1,0
