osu file format v6

[General]
AudioFilename: Catharsis Garden.mp3
AudioLeadIn: 1974
PreviewTime: 0
Countdown: 1
SampleSet: Normal
StackLeniency: 0.7
Mode: 0
LetterboxInBreaks: 1

[Editor]
Bookmarks: 5601,9593,13285,18062,30208,32978,39439,47747,55439,60208,66216,72362,77747,84670,89593,99439
DistanceSpacing: 0.800000011920929
BeatDivisor: 4
GridSize: 8

[Metadata]
Title:Catharsis Garden
Artist:TERRA
Creator:ouranhshc
Version:Normal
Source:GuitarFreaks V6 & DrumMania V6
Tags:Jun Naoki NM Konami Bemani

[Difficulty]
HPDrainRate:4
CircleSize:3
OverallDifficulty:5
SliderMultiplier:1
SliderTickRate:1

[Events]
//Background and Video events
0,0,"Catharsis Garden-bg.jpg"
//Break Periods
2,20872,29318
//Storyboard Layer 0 (Background)
//Storyboard Layer 1 (Fail)
//Storyboard Layer 2 (Pass)
//Storyboard Layer 3 (Foreground)
//Storyboard Sound Samples
//Background Colour Transformations
3,100,0,0,0

[TimingPoints]
980,307.692307692308,4,1,1,80,1,0
1908,-100,4,1,1,71,0,0
2216,-100,4,1,1,80,0,0
3208,-100,4,1,1,70,0,0
3362,-100,4,1,1,80,0,0
4370,-100,4,1,1,70,0,0
4678,-100,4,1,1,80,0,0
5670,-100,4,1,1,70,0,0
5824,-100,4,1,1,80,0,0
6831,-100,4,1,1,70,0,0
7139,-100,4,1,1,79,0,0
10593,-100,4,1,1,70,0,0
10747,-100,4,1,1,80,0,0
11754,-100,4,1,1,70,0,0
12062,-100,4,1,1,80,0,0
13054,-100,4,1,1,70,0,0
13208,-100,4,1,1,80,0,0
14297,-100,4,1,1,70,0,0
14451,-100,4,1,1,80,0,0
18143,-100,4,1,1,71,0,0
18297,-100,4,1,1,80,0,0
18754,-100,4,1,1,70,0,0
18908,-100,4,1,1,80,0,0
19370,-100,4,1,1,70,0,0
19524,-100,4,1,1,80,0,0
19985,-100,4,1,1,70,0,0
20139,-100,4,1,1,80,0,0
32593,-100,4,1,1,70,0,0
32747,-100,4,1,1,79,0,0
34754,-100,4,1,1,70,0,0
34908,-100,4,1,1,79,0,0
39062,-100,4,1,1,70,0,0
39216,-100,4,1,1,80,0,0
43370,-100,4,1,1,71,0,0
43524,-100,4,1,1,79,0,0
43985,-100,4,1,1,70,0,0
44139,-100,4,1,1,80,0,0
46439,-100,4,1,1,71,0,0
46593,-100,4,1,1,80,0,0
47054,-100,4,1,1,70,0,0
47208,-100,4,1,1,80,0,0
47670,-100,4,1,1,70,0,0
47824,-100,4,1,1,80,0,0
48901,-100,4,1,1,69,0,0
49054,-100,4,1,1,80,0,0
50139,-100,4,1,1,70,0,0
50293,-100,4,1,1,79,0,0
56293,-100,4,1,1,70,0,0
56447,-100,4,1,1,79,0,0
56908,-100,4,1,1,70,0,0
57062,-100,4,1,1,81,0,0
57605,-100,4,1,1,81,0,1
58747,-100,4,1,1,69,0,1
58901,-100,4,1,1,80,0,1
61062,-100,4,1,1,70,0,1
61216,-100,4,1,1,79,0,1
62293,-100,4,1,1,70,0,1
62447,-100,4,1,1,81,0,1
63524,-100,4,1,1,69,0,1
63678,-100,4,1,1,80,0,1
67216,-100,4,1,1,70,0,1
67370,-100,4,1,1,80,0,1
68447,-100,4,1,1,70,0,1
68601,-100,4,1,1,80,0,1
69678,-100,4,1,1,70,0,1
69831,-100,4,1,1,81,0,1
70908,-100,4,1,1,71,0,1
71062,-100,4,1,1,80,0,1
77216,-100,4,1,1,70,0,1
77297,-100,4,1,1,70,0,0
77370,-100,4,1,1,81,0,0
84601,-100,4,1,1,70,0,0
84754,-100,4,1,1,79,0,0
86216,-100,4,1,1,80,0,0
87054,-100,4,1,1,70,0,1
87143,-100,4,1,1,70,0,1
87208,-100,4,1,1,81,0,1
88285,-100,4,1,1,70,0,1
88439,-100,4,1,1,80,0,1
89516,-100,4,1,1,70,0,1
89670,-100,4,1,1,81,0,1
90747,-100,4,1,1,69,0,1
90901,-100,4,1,1,80,0,1
94447,-100,4,1,1,70,0,1
94593,-100,4,1,1,80,0,1
95670,-100,4,1,1,69,0,1
95824,-100,4,1,1,79,0,1
96990,-100,4,1,1,79,0,0
99362,-100,4,1,1,70,0,0
99516,-100,4,1,1,81,0,0
99824,-100,4,1,1,70,0,0
99978,-100,4,1,1,78,0,0
100285,-100,4,1,1,70,0,0
100439,-100,4,1,1,79,0,0
100747,-100,4,1,1,70,0,0
100901,-100,4,1,1,80,0,0
101208,-100,4,1,1,70,0,0
101362,-100,4,1,1,80,0,0
101516,-100,4,1,1,70,0,0
101670,-100,4,1,1,79,0,0
106747,-100,4,1,1,0,0,0

[Colours]
Combo1 : 128,128,192
Combo2 : 0,128,192
Combo3 : 64,0,128
Combo4 : 0,0,128

[HitObjects]
120,192,979,2,0,B|112:136|152:80,2,100
240,192,2056,2,0,B|224:280|320:320,1,150,2|0
384,336,2826,1,0
384,336,2980,1,4
384,216,3287,6,0,B|384:128|296:88,1,150,6|0
232,64,4056,1,0
232,64,4210,1,4
112,64,4518,6,0,B|56:120|112:176|144:208,1,150,2|0
192,248,5287,1,0
192,248,5441,1,4
64,272,5749,6,0,B|88:320|144:360|192:352,1,150,6|0
264,352,6518,1,0
264,352,6672,1,4
384,344,6980,6,4,B|440:336|464:312|488:272|488:240,1,150,2|4
488,168,7749,2,0,B|488:128|456:72,1,100,4|0
384,104,8364,2,0,B|408:152|416:208,1,100,4|0
336,224,8980,2,0,B|328:168|304:128,1,100,4|0
48,40,10672,6,0,B|40:136|112:184,1,150,6|0
168,216,11441,1,0
168,96,11903,6,0,B|256:112|288:208,1,150,2|0
280,264,12672,1,0
368,344,13133,6,0,B|440:296|448:216,1,150,6|0
440,144,13903,1,0
440,144,14056,1,4
392,80,14364,2,0,B|288:104|360:240,1,150,6|0
344,280,15133,1,0
344,280,15287,1,4
128,344,16056,6,0,B|64:336|40:288,1,100
88,232,16672,2,0,B|136:216|168:288,1,100
224,336,17287,1,4
304,344,17595,1,4
384,336,17903,1,4
464,328,18210,6,0,B|491:288|467:208|411:216,1,150,2|4
376,216,18826,2,0,B|317:244|277:205|257:156,1,150,2|4
248,120,19441,2,0,B|258:60|202:28|138:44,1,150,2|4
112,40,20056,2,0,B|56:54|39:105|56:160,1,150,2|0
64,200,20672,1,4
40,144,30518,6,0,B|32:208|64:256,1,100,4|0
120,192,31133,2,0,B|144:240|128:304,1,100
208,288,31749,2,0,B|192:240|216:184,1,100,4|0
280,232,32364,2,0,B|304:176|272:128,1,100,0|6
320,64,32980,6,0,B|280:24,2,50,4|0|0
400,64,33595,2,0,B|439:24,2,50,4|0|0
360,128,34210,2,0,B|448:152|472:240|352:280,1,200,0|2
256,256,35441,6,0,B|256:312|184:312,1,100,0|0
184,232,36056,2,0,B|128:232|128:160,1,100,0|4
208,168,36672,2,0,B|208:112|280:112,1,100,0|0
280,192,37287,2,0,B|336:192|336:264,1,100,0|4
256,256,37903,6,4,B|232:264|144:216|216:136|184:56|56:56,1,300
8,16,39133,1,2
312,24,39749,6,0,B|264:8|200:24,1,100
256,88,40364,2,0,B|280:136|256:192,1,100
192,136,40980,2,0,B|152:104|96:136,1,100
144,200,41595,2,0,B|176:248|144:296,1,100
80,248,42210,2,0,B|24:248,2,50,0|0|4
80,168,42826,6,4,B|80:112,2,50
160,168,43441,2,0,B|216:176|232:264|272:280,1,150,2|0
296,296,44056,2,0,B|352:304|400:304|440:256,1,150,2|0
448,224,44672,1,0
464,144,44980,5,0
464,144,45287,1,0
464,144,45595,1,0
408,80,45903,2,4,B|360:48|312:80,1,100
360,144,46518,1,2
288,176,46826,1,0
352,224,47133,1,2
280,256,47441,1,0
216,304,47749,6,0,B|166:304,2,50,2|0|0
280,352,48364,2,4,B|344:360|368:304,1,100
432,272,48980,2,4,B|488:168|408:48,1,200,6|4
347,80,49903,1,0
267,80,50210,6,0,B|206:167|262:272,1,200,2|0
200,320,51133,2,0,B|160:368,2,50
160,248,51749,1,4
160,168,52056,1,4
184,88,52364,1,4
256,192,52672,12,0,55133
256,288,56364,6,0,B|256:232|160:216|160:144,1,150,2|0
160,136,56980,2,0,B|160:80|200:40|264:32|328:32,1,200,2|0
384,32,57903,5,0
440,88,58210,1,0
480,160,58518,2,4,B|512:208|480:280,1,100,4|6
448,328,59133,1,0
368,344,59441,1,0
288,344,59749,1,0
288,344,59903,2,0,B|232:328|247:277|264:248|192:216,1,150,0|4
136,248,60672,1,0
136,248,60826,1,0
40,176,61133,6,0,B|40:120|72:64|128:40,1,150,2|0
184,32,61903,2,0,B|240:32,1,50
312,32,62364,2,0,B|368:64|392:112|360:176,1,150,2|0
344,232,63133,1,0
344,232,63287,1,0
456,272,63595,6,0,B|360:376|192:344,1,250,2|0
152,328,64672,1,0
80,288,64980,2,4,B|72:232|104:192,1,100
128,168,65441,1,0
168,152,65595,2,4,B|200:192|176:248,1,100
320,312,66518,5,0
400,296,66826,1,0
488,216,67287,2,0,B|512:136|480:64,1,150,2|0
408,32,68056,1,0
408,32,68210,1,4
328,32,68518,2,0,B|272:120|320:184,1,150,2|0
360,240,69287,1,0
360,240,69441,1,4
344,352,69749,6,0,B|293:368|236:357|191:312,1,150,2|0
136,280,70518,1,0
136,280,70672,1,4
80,216,70980,2,0,B|64:136|136:72,1,150,2|0
192,32,71749,1,4
272,16,72056,1,4
424,72,72672,6,0,B|480:240|344:304,1,250,4|0
296,192,73903,2,0,B|336:224|344:328|232:352,1,200
216,272,74826,5,4
216,272,75133,1,0
160,216,75441,1,4
160,216,75749,1,0
216,160,76056,1,4
216,160,76364,1,0
272,216,76672,1,4
272,216,76980,1,0
352,200,77287,6,0,B|400:176|408:120,1,100,2|0
416,40,77903,2,0,B|480:48|504:104,1,100
496,168,78518,2,4,B|496:224|464:264,1,100
392,296,79133,2,0,B|352:336|296:288,1,100
224,264,79749,6,0,B|176:240|120:264,3,100,0|0|0|0
120,184,80980,2,0,B|152:144|120:88,3,100,4|0|0|0
200,88,82210,6,0,B|240:120|296:88,3,100,0|0|0|0
304,168,83441,2,0,B|272:224|304:264,3,100,4|0|0|0
224,264,84672,1,2
64,280,85287,6,0,B|64:392|360:320,1,300
384,272,86518,1,0
432,208,86826,2,0,B|448:160|424:104,1,100,0|2
384,40,87441,1,0
304,32,87749,2,0,B|256:16|200:32,2,100,0|0|2
256,96,88672,5,0
304,160,88980,2,0,B|248:184|200:152,2,100,0|0|2
304,240,89903,6,0,B|256:224|200:240,3,100,0|0|0|2
256,304,91133,1,0
312,360,91441,6,0,B|352:328|328:264,1,100,0|0
408,264,92056,2,0,B|424:216|400:160,1,100,0|0
480,136,92672,2,0,B|480:80|440:40,1,100,0|0
368,40,93287,2,0,B|312:0|232:104|112:0|64:32,1,300,0|0
104,104,94518,6,0,B|160:192,1,100,2|0
192,256,95133,2,0,B|280:192,1,100
320,256,95749,2,0,B|392:328,1,100,2|0
456,280,96364,2,0,B|488:240|488:184,1,100
488,104,96980,6,0,B|488:0,1,100,0|4
424,48,97595,2,0,B|320:48,1,100,0|4
376,112,98210,2,0,B|376:216,1,100,0|4
312,168,98826,2,0,B|208:168,1,100,0|4
248,240,99441,6,0,B|256:296|232:344|160:352,2,150,2|2|2
168,152,100826,1,2
56,200,101287,2,4,B|48:256|96:304,1,100,6|6
256,192,101903,12,0,106826
