osu file format v6

[General]
AudioFilename: Catharsis Garden.mp3
AudioLeadIn: 1974
PreviewTime: 0
Countdown: 1
SampleSet: Normal
StackLeniency: 0.7
Mode: 0
LetterboxInBreaks: 1

[Editor]
Bookmarks: 9593,13285,18220,30208,32978,35139,39439,47747,55439,60208,72362,77747,84670,89593,94524,99439
DistanceSpacing: 1
BeatDivisor: 4
GridSize: 8

[Metadata]
Title:Catharsis Garden
Artist:TERRA
Creator:ouranhshc
Version:Hard
Source:GuitarFreaks V6 & DrumMania V6
Tags:Jun Naoki NM Konami Bemani

[Difficulty]
HPDrainRate:7
CircleSize:4
OverallDifficulty:7
SliderMultiplier:1.5
SliderTickRate:2

[Events]
//Background and Video events
0,0,"Catharsis Garden-bg.jpg"
//Break Periods
2,20882,29628
//Storyboard Layer 0 (Background)
//Storyboard Layer 1 (Fail)
//Storyboard Layer 2 (Pass)
//Storyboard Layer 3 (Foreground)
//Storyboard Sound Samples
//Background Colour Transformations
3,100,0,0,0

[TimingPoints]
980,307.692307692308,4,1,1,80,1,0
1670,-100,4,1,1,70,0,0
1824,-100,4,1,1,80,0,0
2908,-100,4,1,1,70,0,0
3062,-100,4,1,1,80,0,0
4139,-100,4,1,1,70,0,0
4293,-100,4,1,1,80,0,0
5678,-100,4,1,1,70,0,0
5831,-100,4,1,1,80,0,0
6908,-100,4,1,1,70,0,0
7062,-100,4,1,1,79,0,0
10601,-100,4,1,1,70,0,0
10754,-100,4,1,1,80,0,0
11831,-100,4,1,1,70,0,0
11985,-100,4,1,1,80,0,0
13062,-100,4,1,1,70,0,0
13216,-100,4,1,1,80,0,0
14282,-100,4,1,1,70,0,0
14436,-100,4,1,1,80,0,0
18143,-100,4,1,1,70,0,0
18297,-100,4,1,1,80,0,0
18747,-100,4,1,1,70,0,0
18901,-100,4,1,1,79,0,0
19374,-100,4,1,1,70,0,0
19528,-100,4,1,1,79,0,0
19978,-100,4,1,1,70,0,0
20131,-100,4,1,1,80,0,0
20605,-100,4,1,1,70,0,0
20759,-100,4,1,1,80,0,0
30908,-100,4,1,1,70,0,0
31062,-100,4,1,1,80,0,0
31524,-100,4,1,1,71,0,0
31678,-100,4,1,1,80,0,0
32139,-100,4,1,1,70,0,0
32293,-100,4,1,1,80,0,0
33370,-100,4,1,1,70,0,0
33524,-100,4,1,1,80,0,0
33985,-100,4,1,1,70,0,0
34139,-100,4,1,1,80,0,0
35831,-100,4,1,1,70,0,0
35985,-100,4,1,1,80,0,0
36447,-100,4,1,1,70,0,0
36601,-100,4,1,1,80,0,0
37062,-100,4,1,1,70,0,0
37216,-100,4,1,1,80,0,0
38293,-100,4,1,1,69,0,0
38447,-100,4,1,1,80,0,0
39054,-100,4,1,1,70,0,0
39208,-100,4,1,1,80,0,0
46447,-100,4,1,1,69,0,0
47601,-100,4,1,1,80,0,0
50131,-100,4,1,1,70,0,0
50285,-100,4,1,1,80,0,0
52285,-100,4,1,1,70,0,0
52439,-100,4,1,1,80,0,0
57524,-100,4,1,1,70,0,1
57678,-100,4,1,1,80,0,1
58601,-100,4,1,1,70,0,1
58754,-100,4,1,1,80,0,1
59831,-100,4,1,1,69,0,1
59985,-100,4,1,1,79,0,1
61062,-100,4,1,1,70,0,1
61216,-100,4,1,1,80,0,1
62293,-100,4,1,1,69,0,1
62447,-100,4,1,1,80,0,1
63524,-100,4,1,1,70,0,1
63678,-100,4,1,1,80,0,1
64901,-100,4,1,1,70,0,1
65054,-100,4,1,1,79,0,1
65516,-100,4,1,1,71,0,1
65670,-100,4,1,1,80,0,1
67216,-100,4,1,1,70,0,1
67370,-100,4,1,1,80,0,1
68451,-100,4,1,1,71,0,1
68605,-100,4,1,1,80,0,1
69678,-100,4,1,1,70,0,1
69831,-100,4,1,1,80,0,1
73370,-100,4,1,1,69,0,1
73524,-100,4,1,1,79,0,1
74139,-100,4,1,1,69,0,1
74293,-100,4,1,1,81,0,1
74754,-100,4,1,1,71,0,1
74908,-100,4,1,1,80,0,1
75370,-100,4,1,1,70,0,1
75524,-100,4,1,1,80,0,1
75985,-100,4,1,1,70,0,1
76139,-100,4,1,1,79,0,1
76601,-100,4,1,1,70,0,1
76754,-100,4,1,1,79,0,1
77297,-100,4,1,1,79,0,0
78293,-100,4,1,1,69,0,0
78447,-100,4,1,1,79,0,0
79524,-100,4,1,1,70,0,0
79678,-100,4,1,1,79,0,0
80754,-100,4,1,1,70,0,0
80908,-100,4,1,1,79,0,0
81985,-100,4,1,1,70,0,0
82139,-100,4,1,1,80,0,0
83216,-100,4,1,1,70,0,0
83370,-100,4,1,1,79,0,0
84451,-100,4,1,1,70,0,0
84605,-100,4,1,1,80,0,0
86216,-100,4,1,1,81,0,0
86908,-100,4,1,1,70,0,0
87062,-100,4,1,1,80,0,0
87143,-100,4,1,1,80,0,1
88139,-100,4,1,1,69,0,1
88293,-100,4,1,1,80,0,1
89370,-100,4,1,1,70,0,1
89524,-100,4,1,1,79,0,1
90601,-100,4,1,1,70,0,1
90754,-100,4,1,1,80,0,1
91831,-100,4,1,1,70,0,1
91985,-100,4,1,1,80,0,1
93066,-100,4,1,1,69,0,1
93220,-100,4,1,1,79,0,1
94451,-100,4,1,1,70,0,1
94605,-100,4,1,1,80,0,1
95066,-100,4,1,1,70,0,1
95220,-100,4,1,1,80,0,1
95682,-100,4,1,1,70,0,1
95836,-100,4,1,1,79,0,1
96297,-100,4,1,1,69,0,1
96451,-100,4,1,1,79,0,1
96908,-100,4,1,1,70,0,0
97066,-100,4,1,1,80,0,0
98139,-100,4,1,1,69,0,0
98293,-100,4,1,1,80,0,0
99370,-100,4,1,1,69,0,0
99524,-100,4,1,1,80,0,0
100605,-100,4,1,1,70,0,0
100759,-100,4,1,1,80,0,0
106747,-100,4,1,1,0,0,0

[Colours]
Combo1 : 128,128,192
Combo2 : 128,128,255
Combo3 : 64,0,128
Combo4 : 0,0,160

[HitObjects]
256,336,979,2,0,B|160:328|152:224,1,150,4|4
256,136,1595,1,0
256,208,1749,1,2
256,56,2056,2,0,B|416:120|240:216,1,225,4|4
360,352,2826,5,0
284,352,2980,1,2
132,352,3287,2,0,B|44:320|52:240|132:248|172:192|116:144,1,225,4|4
256,88,4056,1,0
256,160,4210,1,2
256,312,4518,1,4
256,88,4980,1,4
256,240,5287,2,0,B|312:280|352:248,1,75,4|0
464,184,5749,6,0,B|472:136|448:96|416:64|384:48|344:40|320:40,1,225,6|0
248,32,6364,1,0
176,48,6518,1,0
112,88,6672,1,0
256,136,6980,6,0,B|136:280|264:320,1,225,6|0
328,320,7595,1,0
384,272,7749,1,0
328,136,8056,1,0
216,232,8364,6,4,B|152:168|160:80|248:24,1,225
305,37,8980,2,4,B|385:37|385:37|417:61|433:117,1,150
120,96,9903,5,0
256,32,10210,2,0,B|296:16|336:40,1,75
456,120,10672,2,0,B|464:176|392:224|320:176|328:96,1,225,2|0
264,64,11287,1,0
192,56,11441,2,4,B|160:24|104:72,1,75
64,192,11903,2,0,B|18:225|35:310|120:327|171:265,1,225,2|0
232,232,12518,1,0
304,232,12672,1,0
376,232,12826,2,0,B|437:221|448:104,1,150,4|6
344,248,13595,6,0,B|288:248|288:248|240:168|184:208,1,150
216,272,14056,1,0
64,272,14364,2,0,B|144:272|144:272|144:336|200:360|256:336,1,225,2|0
288,280,14979,1,0
272,208,15133,1,4
200,200,15287,1,4
480,32,16056,5,0
480,104,16210,1,0
472,176,16364,1,0
424,232,16518,1,0
360,272,16672,1,0
360,200,16826,2,4,B|360:128|360:128|352:72|296:32|224:88,1,225
120,160,17595,1,0
144,304,17903,1,0
280,360,18210,6,0,B|344:360|344:360|344:320|344:320|344:256|256:200,1,225,6|0
230,166,18826,2,0,B|170:129|170:65|170:65|170:25|170:25|234:25,1,225,6|0
308,25,19441,2,0,B|368:61|368:125|368:125|368:165|368:165|304:165,1,225,6|0
251,218,20056,2,0,B|188:218|188:218|188:258|188:258|188:322|248:359,1,225,6|0
280,288,20672,1,6
248,192,30518,5,0
208,256,30672,1,0
144,296,30826,1,0
72,288,30980,2,0,B|40:264|40:264|40:224|72:200|112:192,1,150,2|0
104,120,31441,1,0
104,48,31595,2,0,B|128:16|128:16|168:16|192:48|200:88,1,150,2|0
272,88,32056,1,0
344,88,32210,2,0,B|392:88|392:88|392:160|344:192,1,150,2|0
304,232,32672,1,4
248,184,32826,1,4
192,240,32980,5,0
176,312,33133,1,0
240,352,33287,1,0
304,312,33441,2,0,B|376:392|456:296,1,150,2|4
376,272,33903,1,0
440,232,34056,2,0,B|381:158|296:240,1,150,2|4
240,256,34518,1,4
168,264,34672,1,4
96,240,34826,1,4
344,336,35441,5,0
288,288,35595,1,0
312,216,35749,1,0
344,152,35903,2,0,B|360:112|360:112|344:80|296:64|264:72,1,150,2|0
280,144,36364,1,0
267,71,36518,2,0,B|224:72|224:72|184:128|216:184,1,150,2|0
280,144,36980,1,0
209,171,37133,2,0,B|240:208|240:208|240:240|208:264|168:272,1,150,2|0
96,272,37595,1,0
40,224,37749,1,0
48,152,37903,5,4
80,88,38056,1,4
144,56,38210,1,4
216,64,38364,2,0,B|256:80|280:120|280:160|280:160|320:160,1,150,2|0
384,160,38826,2,8,B|416:160|416:160|442:151|456:112,1,75,0|0
472,64,39133,1,2
272,288,39749,5,4
424,288,40056,1,4
352,160,40364,1,0
352,160,40518,1,0
352,160,40672,2,0,B|352:80|352:80|320:56|280:48|240:72|240:72|240:176,1,300
240,248,41441,2,0,B|320:264|368:336,1,150,4|0
400,264,41903,1,0
424,192,42056,2,0,B|344:176|296:104,1,150,4|0
232,72,42518,2,0,B|200:48|152:56,1,75
88,72,42826,6,0,B|32:136|56:216,1,150,4|0
88,280,43287,2,0,B|136:328|240:320,1,150,4|0
304,312,43749,2,0,B|344:296|360:248,1,75,0|4
368,184,44056,2,0,B|368:144|344:104|304:80|256:64|208:64|176:96,1,225
152,136,44672,1,4
216,272,44980,5,0
144,248,45133,1,0
88,200,45287,2,0,B|56:152|56:152|64:72|120:48,1,150,4|0
88,72,45749,2,0,B|91:45|171:37|171:37|219:69,1,150,4|0
264,128,46210,1,4
296,200,46364,1,0
360,160,46518,5,4
152,232,46826,1,4
328,96,47133,1,4
200,280,47441,1,4
88,184,47749,5,0
96,112,47903,1,0
144,56,48056,1,0
216,40,48210,2,0,B|256:40|296:72|328:120|320:152,1,150,0|0
328,208,48672,1,0
288,272,48826,1,0
232,320,48980,2,4,B|168:320|168:320|144:352|104:384|48:352|24:304,1,225
104,280,49595,2,4,B|104:208|104:208|184:248|248:208|248:208|248:120,1,300,4|6
344,72,50980,5,0
344,72,51133,1,4
344,72,51287,1,0
344,72,51441,1,0
224,264,51749,1,4
440,192,52056,1,4
224,120,52364,1,2
256,192,52672,12,4,55133
64,192,56364,6,4,B|144:192|144:192|144:272|192:304|256:280,1,225
226,211,56980,2,4,B|226:171|226:171|250:139|298:139|338:155|370:187|354:235|354:275|354:323,1,300,4|6
203,309,57903,5,0
203,157,58210,1,0
203,85,58364,2,0,B|243:85|275:133,1,75
267,197,58672,2,0,B|235:229|187:253|123:205|139:157,1,150,2|0
147,117,59133,1,0
75,141,59287,1,0
67,213,59441,1,0
107,277,59595,2,0,B|147:301|187:325|243:317|275:285,1,150,0|2
400,128,60364,5,0
360,64,60518,1,0
296,32,60672,1,0
224,32,60826,2,0,B|224:80|224:80|272:96|312:144,1,150,0|2
392,264,61441,1,4
336,312,61595,2,0,B|272:368|168:320,1,150
128,304,62056,1,0
128,152,62364,5,6
232,264,62672,2,0,B|280:248|280:184,1,75
280,136,62980,1,0
272,64,63133,2,0,B|264:16|200:0,1,75
360,72,63595,6,4,B|408:72|408:72|456:80|472:160,1,150,6|4
392,144,64056,1,0
352,208,64210,1,0
312,144,64364,1,0
160,144,64672,1,0
96,280,64980,6,0,B|120:280|120:280|144:344|184:344|232:344,1,150,2|0
200,264,65441,1,0
184,192,65595,2,0,B|216:191|256:191|280:255|280:255|304:255,2,150,2|0|0
472,336,66518,5,0
488,192,66826,2,0,B|488:112|464:96,1,75
352,32,67287,2,0,B|352:128|256:160|184:80,1,225,2|0
128,48,67903,1,0
72,96,68056,1,0
64,168,68210,2,0,B|96:256|192:264,1,150,0|6
256,56,68980,5,0
320,88,69133,1,0
360,152,69287,1,0
384,224,69441,2,0,B|352:312|320:304|296:192,1,150,0|2
192,32,70210,5,0
256,72,70364,1,0
296,136,70518,1,0
312,208,70672,2,0,B|312:256|312:256|312:320|224:328,1,150,0|4
240,176,71287,1,0
240,248,71441,1,0
240,96,71749,2,0,B|168:96|168:160|168:160|168:216,1,150,0|4
432,56,72672,6,0,B|384:56|384:56|320:64|400:112|320:160,1,150
304,200,73133,1,0
200,312,73441,2,0,B|185:350|113:366|73:310,1,150,2|0
136,272,73903,2,0,B|136:176,1,75,4|0
72,160,74210,2,0,B|112:104|184:120|204:170,1,150,2|0
344,112,74826,6,0,B|344:192|344:192|304:256|208:184,1,225,2|0
264,136,75441,2,0,B|208:96|152:120|132:162|130:213|176:264,1,225,2|4
224,280,76056,2,0,B|304:312|384:304|405:232|424:184,1,225,2|4
424,144,76672,2,0,B|424:80|424:80|384:32|352:24|272:24,1,225,2|4
208,24,77287,5,4
248,168,77595,1,4
304,312,77903,1,0
240,344,78056,1,0
184,296,78210,1,0
248,264,78364,2,0,B|224:224|176:192|128:240|104:280,1,150,2|0
88,320,78826,2,4,B|48:296|48:256,1,75
32,184,79133,2,0,B|16:120|104:136|104:136|104:80,1,150
144,32,79595,1,2
368,32,80056,5,0
464,144,80364,2,0,B|496:184|464:240,1,75
328,184,80826,1,2
184,144,81133,2,0,B|152:184|184:240,1,75
192,288,81441,1,0
120,264,81595,1,0
88,192,81749,2,0,B|88:96|176:56,1,150,0|2
376,32,82518,5,0
248,112,82826,2,0,B|232:152|256:200,1,75
400,168,83287,2,0,B|384:312|240:336,1,225,6|0
192,328,83903,1,0
120,304,84056,1,0
80,240,84210,2,0,B|40:192|8:128|48:72,1,150,0|6
256,192,85133,12,0,85903
256,200,86210,5,0
288,56,86518,2,0,B|240:40|192:72,1,75
120,176,86980,2,0,B|128:304|272:344,1,225,2|0
328,344,87595,1,0
400,328,87749,1,0
448,272,87903,2,0,B|480:240|488:176|416:120,1,150,0|2
248,32,88672,6,0,B|304:56|264:112,1,75
222,144,88980,1,0
169,197,89133,1,0
116,250,89287,2,0,B|88:285|144:309,1,75,0|2
256,120,89903,6,0,B|256:208,2,75
256,192,90364,1,0
320,328,90672,2,0,B|248:400|184:328,1,150,2|0
136,280,91133,1,0
112,208,91287,1,0
112,136,91441,2,0,B|112:96|160:56,1,75
288,32,91903,6,0,B|352:32|352:88|344:144|296:168,1,150,6|0
248,160,92364,1,0
224,232,92518,1,0
280,288,92672,1,0
328,344,92826,2,0,B|272:392|216:344|192:288,1,150,0|6
192,136,93441,5,0
224,64,93595,1,0
296,32,93749,1,0
360,72,93903,1,0
400,136,94056,1,0
400,208,94210,1,0
352,272,94364,1,0
424,296,94518,6,0,B|376:392|288:352|256:296|280:240|280:240,1,225,6|0
352,272,95133,2,0,B|348:289|372:233|340:177|252:137|204:233,1,225,6|0
272,264,95749,2,0,B|224:360|136:320|104:264|128:208|128:208,1,225,6|0
200,232,96364,2,0,B|196:249|220:193|188:137|100:97|52:193,1,225,2|0
120,224,96980,5,6
120,224,97133,1,4
152,296,97287,1,0
152,296,97441,1,0
224,320,97595,1,0
224,320,97749,1,0
280,272,97903,1,0
280,272,98056,1,0
344,232,98210,6,0,B|392:200|336:168,1,75,6|4
280,144,98518,2,0,B|240:128|232:88,1,75
184,32,98826,2,0,B|144:64|160:120,1,75
192,168,99133,2,0,B|144:192|96:144,1,75
176,296,99441,6,0,B|216:224,1,75,6|4
336,296,99749,2,0,B|296:224,1,75
176,232,100056,2,0,B|216:160,1,75
336,232,100364,2,4,B|296:160,1,75
176,88,100672,6,4,B|216:160,1,75,6|0
336,88,100980,2,0,B|296:160,1,75
176,152,101287,2,0,B|216:224,1,75
336,152,101595,2,4,B|296:224,1,75
256,280,101903,5,0
256,192,102056,12,0,106826
