osu file format v13

[General]
AudioFilename: Start and Stay with.mp3
AudioLeadIn: 0
PreviewTime: 64645
Countdown: 0
SampleSet: Soft
StackLeniency: 0.7
Mode: 0
LetterboxInBreaks: 0
EpilepsyWarning: 1
WidescreenStoryboard: 1

[Editor]
DistanceSpacing: 2
BeatDivisor: 4
GridSize: 32
TimelineZoom: 1

[Metadata]
Title:Start and Stay with
TitleUnicode:Start and Stay with
Artist:TENMON & Yanagi Eiichiro
ArtistUnicode:天門 & 柳 英一郎
Creator:Wafu
Version:ef
Source:ef - a tale of memories.
Tags:minori みのり original soundtrack piano ~fortissimo~ ost
BeatmapID:470351
BeatmapSetID:198299

[Difficulty]
HPDrainRate:6
CircleSize:4
OverallDifficulty:6
ApproachRate:7
SliderMultiplier:1.6
SliderTickRate:1

[Events]
//Background and Video events
0,0,"bg.jpg",0,0
//Break Periods
2,136845,141078
//Storyboard Layer 0 (Background)
//Storyboard Layer 1 (Fail)
//Storyboard Layer 2 (Pass)
//Storyboard Layer 3 (Foreground)
//Storyboard Sound Samples
//Background Colour Transformations
3,100,163,162,255

[TimingPoints]
645,666.666666666667,4,2,1,30,1,0
11311,-200,4,2,1,30,0,0
11978,-200,4,2,3,25,0,0
12145,-200,4,2,1,30,0,0
13311,-200,4,2,3,25,0,0
13478,-200,4,2,1,30,0,0
14645,-200,4,2,3,25,0,0
14811,-200,4,2,1,30,0,0
15978,-200,4,2,3,25,0,0
16145,-200,4,2,1,30,0,0
19978,-200,4,2,3,25,0,0
20145,-200,4,2,1,30,0,0
20988,659.340659340659,4,2,1,30,1,0
21977,659.340659340659,4,2,1,30,1,0
21977,-200,4,2,1,30,0,0
22636,-200,4,2,3,25,0,0
22801,-200,4,2,1,30,0,0
24625,670.391061452514,4,2,1,30,1,0
24625,-200,4,2,1,30,0,0
25295,-200,4,2,3,25,0,0
25462,-200,4,2,1,30,0,0
26636,-200,4,2,3,25,0,0
26803,-200,4,2,1,30,0,0
28645,-200,4,2,3,25,0,0
29485,-200,4,2,1,30,0,0
29988,666.666666666667,4,2,1,40,1,0
33988,-200,4,2,1,5,0,0
35321,-200,4,2,1,30,0,0
35988,-200,4,2,3,25,0,0
36154,-200,4,2,1,30,0,0
37321,-200,4,2,3,25,0,0
37488,-200,4,2,1,30,0,0
38654,-200,4,2,3,25,0,0
38821,-200,4,2,1,30,0,0
40654,659.340659340659,4,2,1,30,1,0
40654,-200,4,2,1,30,0,0
41313,-200,4,2,3,25,0,0
41478,-200,4,2,1,30,0,0
43291,705.882352941176,4,2,1,30,1,0
43291,-200,4,2,1,30,0,0
43996,-200,4,2,3,25,0,0
44173,-200,4,2,1,30,0,0
44702,652.173913043478,4,2,1,30,1,0
46006,662.983425414365,4,2,1,30,1,0
46006,-200,4,2,1,30,0,0
46668,-200,4,2,3,25,0,0
46834,-200,4,2,1,30,0,0
48657,666.666666666667,4,2,1,30,1,0
48657,-200,4,2,1,30,0,0
49323,-200,4,2,3,25,0,0
49490,-200,4,2,1,30,0,0
51990,-200,4,2,3,25,0,0
52157,-200,4,2,1,30,0,0
53323,-200,4,2,3,25,0,0
53490,-200,4,2,1,30,0,0
63657,-200,4,2,1,5,0,0
64645,666.666666666667,4,2,1,30,1,0
64645,-100,4,2,1,35,0,0
96645,-100,4,2,1,25,0,0
96811,-100,4,2,1,30,0,0
101978,-100,4,2,1,25,0,0
102145,-100,4,2,1,30,0,0
104645,-100,4,2,1,30,0,0
109978,-100,4,2,1,35,0,1
110145,-100,4,2,1,45,0,0
133811,-100,4,2,1,5,0,0
133978,-100,4,2,1,45,0,0
136645,-100,4,2,1,5,0,0
141978,-100,4,2,1,35,0,0
177311,-100,4,2,2,35,0,0
177478,-100,4,2,1,35,0,0
184645,-100,4,2,1,45,0,0
211978,-100,4,2,2,45,0,0
212145,-100,4,2,1,45,0,0
217311,-100,4,2,2,45,0,0
217478,-100,4,2,1,45,0,0
227145,-100,4,2,1,5,0,0
227311,-100,4,2,1,45,0,0
249311,-100,4,2,2,45,0,0
249478,-100,4,2,1,45,0,0
270645,-100,4,2,2,45,0,0
270811,-100,4,2,1,55,0,0
273311,-100,4,2,2,55,0,0
273478,-100,4,2,1,55,0,0
274645,-100,4,2,2,55,0,0
274811,-100,4,2,1,55,0,0
275478,-100,4,2,1,45,0,0
283311,-100,4,2,1,65,0,1
304311,-100,4,2,1,75,0,0
304645,-100,4,2,1,65,0,1
318645,-100,4,2,2,65,0,1
318811,-100,4,2,1,65,0,1
320811,-100,4,2,1,55,0,0
357978,-100,4,2,1,10,0,0
363311,-100,4,2,1,5,0,0

[Colours]
Combo1 : 149,255,202
Combo2 : 111,183,255
Combo3 : 176,230,255
Combo4 : 0,170,85

[HitObjects]
256,192,645,12,2,8645,0:0:0:0:
395,212,11311,6,0,P|386:336|308:238,2,320,0|0|0,0:0|0:0|0:0,0:0:0:0:
235,104,17978,2,0,L|157:122,1,80,0|2,0:0|0:0,0:0:0:0:
82,185,19311,2,0,P|80:261|142:306,1,160
176,214,21317,1,2,0:0:0:0:
252,154,21977,6,0,P|359:120|428:208,1,240,0|2,0:0|0:0,0:0:0:0:
430,303,24625,2,0,P|304:345|332:215,1,320
443,59,28647,2,0,L|287:91,1,160
256,192,30654,12,0,33988,0:0:0:0:
327,284,35321,6,0,P|430:206|371:91,1,280
328,113,37988,2,0,P|259:150|184:128,1,160
120,57,39988,1,2,0:0:0:0:
46,119,40654,2,0,P|20:191|66:252,1,160
201,302,42961,1,0,0:0:0:0:
201,302,43291,2,0,P|228:230|181:169,1,160
73,264,45680,1,0,0:0:0:0:
73,264,46006,6,0,L|54:105,1,160
127,43,47994,1,2,0:0:0:0:
213,86,48657,2,0,P|258:148|233:221,1,160
84,341,51323,2,0,P|38:279|64:206,2,160,0|0|0,0:0|0:0|0:0,0:0:0:0:
256,192,55323,12,0,63657,0:0:0:0:
366,116,64645,6,0,L|443:94,2,80,4|0|2,0:3|0:0|0:0,0:0:0:0:
272,93,65645,1,0,0:0:0:0:
188,46,65978,2,0,P|174:83|179:122,1,80
262,170,66645,2,0,P|267:210|253:247,1,80,8|0,0:0|0:0,0:0:0:0:
111,320,67311,2,0,L|268:357,1,160,0|2,0:0|0:0,0:0:0:0:
359,333,68311,2,0,P|408:273|397:196,1,160
348,112,69311,1,8,0:0:0:0:
193,154,69645,1,0,0:0:0:0:
193,154,69811,1,0,0:0:0:0:
193,154,69978,6,0,P|154:160|114:156,2,80,0|0|2,0:0|0:0|0:0,0:0:0:0:
314,258,70978,2,0,P|353:252|393:255,2,80,0|0|0,0:0|0:0|0:0,0:0:0:0:
221,286,71978,1,8,0:0:0:0:
149,349,72311,1,0,0:0:0:0:
149,349,72645,2,0,P|75:332|57:258,2,160,0|2|0,0:0|0:0|0:0,0:0:0:0:
191,325,74145,1,0,0:0:0:0:
191,325,74311,1,0,0:0:0:0:
247,247,74645,2,0,L|257:168,1,80,8|0,0:0|0:0,0:0:0:0:
400,97,75311,6,0,P|438:88|477:96,2,80,0|0|2,0:0|0:0|0:0,0:0:0:0:
317,146,76311,1,0,0:0:0:0:
240,204,76645,2,0,P|201:213|162:206,2,80,0|0|8,0:0|0:0|0:0,0:0:0:0:
317,146,77645,1,0,0:0:0:0:
178,66,77978,2,0,P|100:66|48:124,1,160,0|2,0:0|0:0,0:0:0:0:
61,219,78978,1,0,0:0:0:0:
141,271,79311,1,0,0:0:0:0:
141,271,79478,1,0,0:0:0:0:
141,271,79645,2,0,L|125:349,2,80,0|8|0,0:0|0:0|0:0,0:0:0:0:
259,162,80645,6,0,P|319:212|318:289,1,160,0|2,0:0|0:0,0:0:0:0:
229,252,81645,1,0,0:0:0:0:
259,162,81978,1,0,0:0:0:0:
259,162,82145,1,0,0:0:0:0:
259,162,82311,2,0,L|266:82,2,80,0|8|0,0:0|0:0|0:0,0:0:0:0:
262,257,83311,2,0,P|228:277|188:281,1,80
143,266,83811,1,0,0:0:0:0:
143,266,83978,1,2,0:0:0:0:
197,186,84311,1,0,0:0:0:0:
262,257,84645,2,0,B|325:252|341:311|413:294,1,160,0|8,0:0|0:0,0:0:0:0:
457,103,85978,6,0,P|391:63|317:87,2,160,0|2|0,0:0|0:0|0:0,0:0:0:0:
376,278,87978,1,8,0:0:0:0:
187,326,88645,2,0,L|110:303,1,80
76,214,89311,1,2,0:0:0:0:
152,154,89645,2,0,P|228:154|269:219,1,160
270,315,90645,1,8,0:0:0:0:
451,252,91311,6,0,L|467:331,2,80,0|0|2,0:0|0:0|0:0,0:0:0:0:
376,110,92311,2,0,L|360:31,2,80,0|0|0,0:0|0:0|0:0,0:0:0:0:
356,204,93311,1,8,0:0:0:0:
259,198,93645,1,0,0:0:0:0:
103,162,93978,2,0,P|38:204|41:281,2,160,0|2|0,0:0|0:0|0:0,0:0:0:0:
150,155,95478,1,0,0:0:0:0:
150,155,95645,1,0,0:0:0:0:
238,191,95978,2,0,P|278:193|314:178,1,80,8|0,0:0|0:0,0:0:0:0:
456,104,96645,6,0,P|504:166|502:244,2,160,4|2|0,0:0|0:0|0:0,0:0:0:0:
369,67,98311,1,0,0:0:0:0:
290,121,98645,2,0,P|252:134|213:133,1,80,8|0,0:0|0:0,0:0:0:0:
57,175,99311,2,0,L|28:333,2,160,0|2|0,0:0|0:0|0:0,0:0:0:0:
90,140,100811,1,0,0:0:0:0:
90,140,100978,1,0,0:0:0:0:
174,94,101311,2,0,P|213:88|253:91,1,80,8|0,0:0|0:0,0:0:0:0:
389,176,101978,6,0,B|428:244|367:258|408:330,2,160,4|2|0,0:0|0:0|0:0,0:0:0:0:
298,142,103645,2,0,L|218:138,2,80,0|8|0,0:0|0:0|0:0,0:0:0:0:
449,233,104645,2,0,P|455:273|445:311,1,80
405,337,105145,1,0,0:0:0:0:
405,337,105311,1,2,0:0:0:0:
354,255,105645,2,0,P|348:215|358:177,1,80
399,151,106145,1,0,0:0:0:0:
399,151,106311,1,0,0:0:0:0:
390,55,106645,1,8,0:0:0:0:
294,52,106978,1,0,0:0:0:0:
298,147,107311,6,0,P|223:168|152:137,1,160,0|2,0:0|0:0,0:0:0:0:
130,44,108311,1,0,0:0:0:0:
55,105,108645,2,0,L|31:138,2,40,0|0|0,0:0|0:0|0:0,0:0:0:0:
149,124,109311,1,8,0:0:0:0:
151,148,109478,1,0,0:0:0:0:
153,172,109645,1,0,0:0:0:0:
155,196,109811,1,0,0:0:0:0:
152,220,109978,6,0,P|87:260|18:226,1,160,4|2,0:0|0:0,0:0:0:0:
82,156,110978,1,0,0:0:0:0:
161,101,111311,2,0,P|199:90|239:95,2,80,0|0|8,0:0|0:0|0:0,0:0:0:0:
67,269,112645,1,0,0:0:0:0:
133,338,112978,1,0,0:0:0:0:
203,273,113311,2,0,P|242:265|280:276,1,80,2|0,0:0|0:0,0:0:0:0:
301,289,113811,1,0,0:0:0:0:
321,302,113978,2,0,P|359:312|398:305,2,80,0|0|8,0:0|0:0|0:0,0:0:0:0:
238,128,115311,5,0,0:0:0:0:
238,128,115645,2,0,L|244:48,2,80,0|2|0,0:0|0:0|0:0,0:0:0:0:
224,147,116478,1,0,0:0:0:0:
207,164,116645,2,0,P|169:176|129:175,2,80,0|0|8,0:0|0:0|0:0,0:0:0:0:
374,68,117978,2,0,P|437:111|437:188,1,160,0|2,0:0|0:0,0:0:0:0:
372,260,118978,1,0,0:0:0:0:
285,221,119311,2,0,L|269:143,1,80,0|0,0:0|0:0,0:0:0:0:
336,74,119978,1,8,0:0:0:0:
243,50,120311,1,0,0:0:0:0:
133,167,120645,6,0,P|57:179|7:120,2,160,0|2|0,0:0|0:0|0:0,0:0:0:0:
190,90,122311,1,0,0:0:0:0:
281,122,122645,1,8,0:0:0:0:
434,239,123311,2,0,P|447:277|443:316,2,80,0|0|2,0:0|0:0|0:0,0:0:0:0:
380,159,124311,1,0,0:0:0:0:
380,159,124478,1,0,0:0:0:0:
380,159,124645,2,0,P|367:122|371:82,2,80,0|0|8,0:0|0:0|0:0,0:0:0:0:
237,288,125978,6,0,B|181:327|131:281|82:310,2,160,0|2|0,0:0|0:0|0:0,0:0:0:0:
386,167,127978,1,8,0:0:0:0:
219,67,128645,2,0,P|154:106|159:182,2,160,0|2|0,0:0|0:0|0:0,0:0:0:0:
267,67,130145,1,0,0:0:0:0:
267,67,130311,1,0,0:0:0:0:
329,139,130645,1,8,0:0:0:0:
262,318,131311,1,0,0:0:0:0:
256,192,131478,12,0,133811,0:0:0:0:
256,192,133978,12,0,136645,0:0:0:0:
154,278,141978,6,0,P|116:286|76:289,2,80,0|0|8,0:0|0:0|0:0,0:0:0:0:
233,222,142978,1,0,0:0:0:0:
266,132,143311,1,0,0:0:0:0:
361,147,143645,2,0,P|400:138|440:136,1,80,0|8,0:0|0:0,0:0:0:0:
471,226,144311,1,0,0:0:0:0:
376,242,144645,2,0,P|300:230|266:161,1,160,0|8,0:0|0:0,0:0:0:0:
276,65,145645,1,0,0:0:0:0:
190,109,145978,2,0,L|109:120,1,80
58,200,146645,1,8,0:0:0:0:
58,200,146811,1,8,0:0:0:0:
58,200,146978,1,0,0:0:0:0:
77,293,147311,6,0,P|135:343|209:322,1,160,0|8,0:0|0:0,0:0:0:0:
159,241,148311,2,0,L|179:163,2,80,0|0|0,0:0|0:0|0:0,0:0:0:0:
232,305,149311,1,8,0:0:0:0:
232,305,149478,1,8,0:0:0:0:
232,305,149645,1,0,0:0:0:0:
320,267,149978,2,0,P|327:228|325:188,2,80,0|0|8,0:0|0:0|0:0,0:0:0:0:
232,305,150978,1,0,0:0:0:0:
232,305,151145,1,8,0:0:0:0:
232,305,151311,1,0,0:0:0:0:
166,234,151645,2,0,L|170:194,2,40,0|0|8,0:0|0:0|0:0,0:0:0:0:
134,270,152145,1,8,0:0:0:0:
134,270,152311,1,0,0:0:0:0:
70,197,152645,6,0,P|71:157|87:121,2,80,0|0|8,0:0|0:0|0:0,0:0:0:0:
134,270,153645,1,0,0:0:0:0:
229,278,153978,1,0,0:0:0:0:
267,190,154311,1,0,0:0:0:0:
194,127,154645,1,8,0:0:0:0:
194,127,154811,1,8,0:0:0:0:
194,127,154978,1,0,0:0:0:0:
112,176,155311,2,0,L|33:170,2,80,0|0|8,0:0|0:0|0:0,0:0:0:0:
272,180,156311,2,0,L|352:186,2,80,0|0|0,0:0|0:0|0:0,0:0:0:0:
213,256,157311,1,8,0:0:0:0:
213,256,157478,1,8,0:0:0:0:
213,256,157645,1,0,0:0:0:0:
163,338,157978,6,0,P|127:355|87:360,2,80,0|0|8,0:0|0:0|0:0,0:0:0:0:
213,256,158978,1,0,0:0:0:0:
213,256,159145,1,8,0:0:0:0:
213,256,159311,2,0,L|214:216,2,40,0|8|0,0:0|0:0|0:0,0:0:0:0:
287,316,159978,1,8,0:0:0:0:
287,316,160145,2,0,L|286:356,2,40,8|0|8,0:0|0:0|0:0,0:0:0:0:
248,287,160645,1,0,0:0:0:0:
143,126,161311,6,0,P|67:115|13:170,2,160,2|0|2,0:0|0:0|0:0,0:0:0:0:
308,225,163311,2,0,L|387:232,2,80,2|0|8,0:0|0:0|0:0,0:0:0:0:
28,154,164978,1,0,0:0:0:0:
36,249,165311,2,0,L|2:270,2,40,8|8|0,0:0|0:0|0:0,0:0:0:0:
117,299,165978,1,0,0:0:0:0:
117,299,166311,2,0,P|195:289|257:336,2,160,0|0|0,0:0|0:0|0:0,0:0:0:0:
13,29,168645,6,0,P|66:85|142:76,1,160,0|8,0:0|0:0,0:0:0:0:
229,35,169645,1,0,0:0:0:0:
302,96,169978,2,0,L|382:91,2,80,0|0|8,0:0|0:0|0:0,0:0:0:0:
265,184,170978,1,0,0:0:0:0:
265,184,171311,1,0,0:0:0:0:
194,249,171645,1,0,0:0:0:0:
134,170,171978,2,0,P|59:175|28:245,2,160,2|0|2,0:0|0:0|0:0,0:0:0:0:
250,326,173978,6,0,B|409:333,1,160,2|8,0:0|0:0,0:0:0:0:
486,273,174978,2,0,P|473:162|363:135,1,240,0|8,0:0|0:0,0:0:0:0:
173,157,176645,2,0,P|185:269|295:295,2,240,2|0|8,0:0|0:0|0:0,0:0:0:0:
206,122,178811,1,8,0:0:0:0:
206,122,178978,1,0,0:0:0:0:
289,74,179311,1,0,0:0:0:0:
256,192,179478,12,0,181978,0:0:0:0:
338,239,182645,5,8,0:0:0:0:
390,317,182978,2,0,L|400:356,2,40,0|8|0,0:0|0:0|0:0,0:0:0:0:
413,272,183478,1,8,0:0:0:0:
413,272,183645,1,0,0:0:0:0:
459,188,183978,2,0,L|449:149,1,40,0|8,0:0|0:0,0:0:0:0:
376,115,184311,2,0,L|366:76,1,40,0|8,0:0|0:0,0:0:0:0:
294,41,184645,6,0,P|231:84|232:161,1,160,2|8,0:0|0:0,0:0:0:0:
303,226,185645,2,0,P|302:302|239:346,1,160
211,254,186645,1,8,0:0:0:0:
303,226,186978,1,0,0:0:0:0:
383,278,187311,2,0,P|422:275|456:254,2,80,2|0|8,0:0|0:0|0:0,0:0:0:0:
303,226,188311,1,0,0:0:0:0:
300,322,188645,1,0,0:0:0:0:
424,174,189311,2,0,P|418:135|402:99,1,80,8|0,0:0|0:0,0:0:0:0:
245,67,189978,6,0,P|201:130|124:124,1,160,2|8,0:0|0:0,0:0:0:0:
30,101,190978,2,0,P|92:145|87:222,1,160
34,304,191978,1,8,0:0:0:0:
215,240,192645,2,0,B|291:224|286:278|370:257,1,160,2|8,0:0|0:0,0:0:0:0:
444,196,193645,1,0,0:0:0:0:
426,100,193978,2,0,P|359:62|286:88,1,160,0|8,0:0|0:0,0:0:0:0:
153,226,195311,6,0,P|220:264|293:238,1,160,2|8,0:0|0:0,0:0:0:0:
332,149,196311,1,0,0:0:0:0:
259,85,196645,1,0,0:0:0:0:
69,56,197311,1,8,0:0:0:0:
139,234,197978,2,0,L|295:265,1,160,2|8,0:0|0:0,0:0:0:0:
391,261,198978,1,0,0:0:0:0:
153,97,199978,2,0,L|144:57,2,40,8|8|0,0:0|0:0|0:0,0:0:0:0:
257,219,200645,6,0,P|333:226|387:170,1,160,2|8,0:0|0:0,0:0:0:0:
299,132,201645,1,0,0:0:0:0:
299,132,202311,2,0,P|222:122|169:177,1,160
161,270,203311,2,0,L|153:349,1,80,2|0,0:0|0:0,0:0:0:0:
247,330,203978,2,0,L|254:250,1,80,8|0,0:0|0:0,0:0:0:0:
48,49,205311,1,8,0:0:0:0:
120,112,205645,1,0,0:0:0:0:
275,70,205978,6,0,P|352:61|411:111,1,160,2|8,0:0|0:0,0:0:0:0:
325,154,206978,1,0,0:0:0:0:
52,249,207978,2,0,P|44:287|52:326,1,80,8|0,0:0|0:0,0:0:0:0:
139,285,208645,2,0,P|214:268|275:317,2,160,2|8|0,0:0|0:0|0:0,0:0:0:0:
46,116,210645,1,8,0:0:0:0:
123,60,210978,1,0,0:0:0:0:
261,141,211311,6,0,P|374:155|441:63,2,240,2|0|8,0:0|0:0|0:0,0:0:0:0:
261,141,213978,1,2,0:0:0:0:
261,141,214645,2,0,P|186:121|115:153,2,160,8|0|8,0:0|0:0|0:0,0:0:0:0:
421,245,216645,6,0,P|478:148|408:60,1,240,2|0,0:0|0:0,0:0:0:0:
125,114,218645,1,8,0:0:0:0:
92,204,218978,1,0,0:0:0:0:
177,246,219311,2,0,P|214:235|254:238,1,80,2|0,0:0|0:0,0:0:0:0:
295,325,219978,2,0,P|334:328|372:316,1,80,8|0,0:0|0:0,0:0:0:0:
431,132,220978,2,0,P|468:120|508:123,2,80,0|8|0,0:0|0:0|0:0,0:0:0:0:
363,200,221978,1,0,0:0:0:0:
256,192,222145,12,0,227145,0:0:0:0:
256,192,227311,12,0,229978,0:0:0:0:
198,103,231311,5,2,0:0:0:0:
124,280,231978,1,10,0:0:0:0:
411,139,232645,6,0,P|448:126|488:130,2,80,2|0|8,0:0|0:0|0:0,0:0:0:0:
338,201,233645,1,0,0:0:0:0:
338,201,233811,1,0,0:0:0:0:
338,201,233978,2,0,L|259:185,1,80
214,100,234645,1,10,0:0:0:0:
291,42,234978,1,0,0:0:0:0:
410,148,235311,6,0,P|447:160|487:155,2,80,2|0|8,0:0|0:0|0:0,0:0:0:0:
332,90,236311,1,0,0:0:0:0:
332,90,236478,1,0,0:0:0:0:
332,90,236645,2,0,P|295:77|255:79,1,80
169,122,237311,1,10,0:0:0:0:
419,320,237978,6,0,P|480:273|478:196,1,160,2|8,0:0|0:0,0:0:0:0:
423,117,238978,1,0,0:0:0:0:
423,117,239145,1,0,0:0:0:0:
423,117,239311,2,0,L|344:107,1,80,2|0,0:0|0:0,0:0:0:0:
260,156,239978,2,0,L|255:196,2,40,8|0|2,0:0|0:0|0:0,0:0:0:0:
118,74,240645,6,0,P|48:106|33:181,2,160,2|8|2,0:0|0:0|0:0,0:0:0:0:
166,88,242145,1,0,0:0:0:0:
166,88,242311,1,0,0:0:0:0:
255,123,242645,1,10,0:0:0:0:
335,70,242978,1,2,0:0:0:0:
429,199,243311,6,0,L|433:278,1,80,2|0,0:0|0:0,0:0:0:0:
362,343,243978,2,0,P|323:352|283:349,1,80,8|0,0:0|0:0,0:0:0:0:
262,338,244478,1,0,0:0:0:0:
240,327,244645,2,0,P|200:323|161:333,1,80,0|0,0:0|0:0,0:0:0:0:
67,349,245311,2,0,L|59:269,1,80,10|0,0:0|0:0,0:0:0:0:
136,126,245978,6,0,P|198:81|273:101,1,160,2|8,0:0|0:0,0:0:0:0:
356,150,246978,2,0,P|293:195|218:176,1,160,2|0,0:0|0:0,0:0:0:0:
135,127,247978,2,0,P|96:132|61:151,1,80,10|2,0:0|0:0,0:0:0:0:
86,309,248645,6,0,P|211:312|124:222,1,320,2|2,0:0|0:0,0:0:0:0:
28,213,250311,1,0,0:0:0:0:
66,124,250645,2,0,L|60:84,2,40,8|8|0,0:0|0:0|0:0,0:0:0:0:
189,225,251311,6,0,P|266:227|319:170,1,160,2|8,0:0|0:0,0:0:0:0:
310,75,252311,1,0,0:0:0:0:
310,75,252478,1,0,0:0:0:0:
310,75,252645,1,2,0:0:0:0:
123,119,253311,2,0,L|113:198,1,80,10|2,0:0|0:0,0:0:0:0:
196,336,253978,6,0,P|270:360|344:332,1,160,2|8,0:0|0:0,0:0:0:0:
398,253,254978,1,0,0:0:0:0:
398,253,255145,1,0,0:0:0:0:
398,253,255311,2,0,L|401:173,1,80
473,109,255978,1,10,0:0:0:0:
396,51,256311,1,2,0:0:0:0:
280,163,256645,6,0,P|211:201|132:201,1,160,2|8,0:0|0:0,0:0:0:0:
51,150,257645,1,0,0:0:0:0:
51,150,257811,1,0,0:0:0:0:
51,150,257978,1,0,0:0:0:0:
117,81,258311,1,0,0:0:0:0:
100,240,258645,1,10,0:0:0:0:
410,314,259311,6,0,P|435:239|420:162,1,160,2|8,0:0|0:0,0:0:0:0:
384,72,260311,1,0,0:0:0:0:
384,72,260478,1,0,0:0:0:0:
384,72,260645,2,0,L|225:92,1,160,2|8,0:0|0:0,0:0:0:0:
132,65,261645,1,2,0:0:0:0:
165,221,261978,6,0,P|241:229|292:171,2,160,2|8|2,0:0|0:0|0:0,0:0:0:0:
207,134,263645,1,0,0:0:0:0:
207,134,263811,1,0,0:0:0:0:
207,134,263978,2,0,L|246:64,1,80,10|2,0:0|0:0,0:0:0:0:
401,105,264645,6,0,P|448:167|437:244,1,160,2|8,0:0|0:0,0:0:0:0:
358,299,265645,1,0,0:0:0:0:
358,299,265811,1,0,0:0:0:0:
358,299,265978,2,0,L|274:310,1,80
185,280,266645,2,0,P|188:241|201:203,1,80,10|2,0:0|0:0,0:0:0:0:
321,96,267311,6,0,P|372:153|448:142,1,160,2|8,0:0|0:0,0:0:0:0:
413,52,268311,2,0,B|368:128|463:184|416:284,1,240,2|10,0:0|0:0,0:0:0:0:
332,332,269645,1,2,0:0:0:0:
172,329,269978,6,0,P|48:283|153:204,1,320,2|2,0:0|0:0,0:0:0:0:
340,54,272645,2,0,P|463:99|358:178,2,320,2|2|0,0:0|0:0|0:0,0:0:0:0:
256,192,275478,12,0,281978,0:0:0:0:
61,233,283311,6,0,P|135:211|159:139,1,160,2|8,0:0|0:0,0:0:0:0:
114,54,284311,2,0,P|170:106|245:90,1,160
320,30,285311,1,8,0:0:0:0:
320,30,285478,1,8,0:0:0:0:
320,30,285645,1,0,0:0:0:0:
448,124,285978,6,0,L|465:284,1,160,2|8,0:0|0:0,0:0:0:0:
391,345,286978,1,0,0:0:0:0:
391,345,287145,1,8,0:0:0:0:
391,345,287311,2,0,P|354:333|314:333,1,80
219,354,287978,2,0,P|179:354|141:341,1,80,8|0,0:0|0:0,0:0:0:0:
37,218,288645,6,0,P|47:141|111:99,1,160,2|8,0:0|0:0,0:0:0:0:
206,107,289645,1,0,0:0:0:0:
206,107,289811,1,8,0:0:0:0:
206,107,289978,2,0,L|245:100,2,40,0|8|0,0:0|0:0|0:0,0:0:0:0:
139,176,290645,1,8,0:0:0:0:
139,176,290811,1,8,0:0:0:0:
139,176,290978,1,0,0:0:0:0:
228,308,291311,6,0,L|306:321,1,80,2|0,0:0|0:0,0:0:0:0:
401,303,291978,1,8,0:0:0:0:
401,303,292311,2,0,P|455:248|445:172,1,160
321,70,293311,2,0,L|281:61,1,40,8|8,0:0|0:0,0:0:0:0:
211,101,293645,2,0,L|171:92,1,40,0|8,0:0|0:0,0:0:0:0:
94,113,293978,6,0,P|35:163|37:241,1,160,2|8,0:0|0:0,0:0:0:0:
108,305,294978,1,0,0:0:0:0:
108,305,295145,1,8,0:0:0:0:
108,305,295311,2,0,L|187:317,1,80
246,242,295978,1,8,0:0:0:0:
319,303,296311,1,0,0:0:0:0:
452,214,296645,6,0,P|454:137|391:93,1,160,2|8,0:0|0:0,0:0:0:0:
303,132,297645,2,0,P|247:185|173:168,1,160
220,84,298645,1,8,0:0:0:0:
379,77,298978,1,0,0:0:0:0:
379,77,299145,1,8,0:0:0:0:
379,77,299311,6,0,L|387:156,1,80,2|0,0:0|0:0,0:0:0:0:
445,233,299978,1,8,0:0:0:0:
375,299,300311,1,0,0:0:0:0:
375,299,300478,1,8,0:0:0:0:
375,299,300645,2,0,P|336:293|297:298,1,80
142,340,301311,2,0,L|133:300,1,40,8|8,0:0|0:0,0:0:0:0:
76,243,301645,2,0,L|67:203,1,40,0|8,0:0|0:0,0:0:0:0:
88,125,301978,6,0,P|125:112|165:113,1,80,2|0,0:0|0:0,0:0:0:0:
247,162,302645,1,8,0:0:0:0:
247,162,302811,1,0,0:0:0:0:
247,162,302978,1,0,0:0:0:0:
308,88,303311,2,0,L|310:48,2,40,0|8|0,0:0|0:0|0:0,0:0:0:0:
382,149,303978,2,0,L|379:188,1,40,8|0,0:0|0:0,0:0:0:0:
377,269,304311,2,0,L|394:278,3,20,0|0|0|0,0:0|0:0|0:0|0:0,0:0:0:0:
356,261,304645,6,0,P|278:252|209:289,1,160,2|8,0:0|0:0,0:0:0:0:
123,332,305645,2,0,L|98:173,1,160
160,100,306645,1,8,0:0:0:0:
285,199,306978,1,0,0:0:0:0:
285,199,307145,1,8,0:0:0:0:
285,199,307311,6,0,P|362:206|418:153,1,160,2|8,0:0|0:0,0:0:0:0:
406,57,308311,1,0,0:0:0:0:
406,57,308478,2,0,L|326:48,1,80,8|8,0:0|0:0,0:0:0:0:
287,76,308978,2,0,P|250:91|210:90,1,80,0|8,0:0|0:0,0:0:0:0:
54,54,309645,1,0,0:0:0:0:
54,54,309811,1,8,0:0:0:0:
54,54,309978,6,0,L|36:213,1,160,2|8,0:0|0:0,0:0:0:0:
130,233,310978,2,0,L|147:73,1,160
235,33,311978,1,8,0:0:0:0:
369,118,312311,1,0,0:0:0:0:
369,118,312478,1,8,0:0:0:0:
369,118,312645,6,0,L|376:197,2,80,2|0|8,0:0|0:0|0:0,0:0:0:0:
282,72,313645,2,0,P|205:63|147:115,1,160
259,230,314645,1,8,0:0:0:0:
281,238,314811,1,8,0:0:0:0:
303,247,314978,1,0,0:0:0:0:
324,257,315145,1,8,0:0:0:0:
346,264,315311,6,0,P|416:231|435:156,1,160,2|8,0:0|0:0,0:0:0:0:
382,76,316311,2,0,L|223:57,1,160
79,128,317311,1,8,0:0:0:0:
79,128,317478,1,8,0:0:0:0:
79,128,317645,1,0,0:0:0:0:
79,128,317811,1,8,0:0:0:0:
78,128,317978,6,0,P|90:241|197:281,2,240,2|0|8,0:0|0:0|0:0,0:0:0:0:
106,89,320145,1,0,0:0:0:0:
106,89,320311,1,0,0:0:0:0:
192,46,320645,1,0,0:0:0:0:
256,192,320811,12,0,324645,0:0:0:0:
362,298,325978,6,0,P|432:265|453:190,1,160,2|8,0:0|0:0,0:0:0:0:
419,99,326978,2,0,L|402:88,3,20,0|0|0|0,0:0|0:0|0:0|0:0,0:0:0:0:
382,82,327311,2,0,P|344:94|304:95,1,80
144,80,327978,2,0,L|137:40,1,40,8|8,0:0|0:0,0:0:0:0:
104,149,328311,2,0,L|110:188,1,40,0|8,0:0|0:0,0:0:0:0:
152,257,328645,6,0,P|225:283|292:245,1,160,2|8,0:0|0:0,0:0:0:0:
337,159,329645,2,0,L|338:139,4,20,0|0|0|0|0,0:0|0:0|0:0|0:0|0:0,0:0:0:0:
323,93,330145,1,8,0:0:0:0:
323,93,330311,1,0,0:0:0:0:
164,108,330645,2,0,L|124:99,1,40,8|8,0:0|0:0,0:0:0:0:
198,179,330978,2,0,L|237:187,1,40,0|8,0:0|0:0,0:0:0:0:
316,175,331311,6,0,P|389:199|407:273,1,160,2|8,0:0|0:0,0:0:0:0:
327,327,332311,2,0,L|328:346,4,20,0|0|0|0|0,0:0|0:0|0:0|0:0|0:0,0:0:0:0:
310,282,332811,1,8,0:0:0:0:
310,282,332978,1,0,0:0:0:0:
154,242,333311,2,0,L|115:232,1,40,8|8,0:0|0:0,0:0:0:0:
94,154,333645,2,0,L|55:144,1,40,0|8,0:0|0:0,0:0:0:0:
25,67,333978,6,0,P|97:41|165:78,1,160,2|8,0:0|0:0,0:0:0:0:
251,249,335311,2,0,P|178:276|110:240,1,160,0|8,0:0|0:0,0:0:0:0:
415,144,336645,6,0,P|463:204|450:281,1,160,2|8,0:0|0:0,0:0:0:0:
382,350,337645,2,0,L|362:353,3,20,0|0|0|0,0:0|0:0|0:0|0:0,0:0:0:0:
337,346,337978,2,0,P|300:333|260:332,1,80
105,291,338645,2,0,L|93:329,1,40,8|8,0:0|0:0,0:0:0:0:
159,231,338978,2,0,L|171:193,1,40,0|8,0:0|0:0,0:0:0:0:
193,116,339311,6,0,P|146:54|69:56,1,160,2|8,0:0|0:0,0:0:0:0:
104,145,340311,2,0,L|99:164,4,20,0|0|0|0|0,0:0|0:0|0:0|0:0|0:0,0:0:0:0:
103,212,340811,1,8,0:0:0:0:
103,212,340978,1,0,0:0:0:0:
159,289,341311,2,0,P|217:294|261:256,1,120,10|0,0:0|0:0,0:0:0:0:
308,190,341978,6,0,L|290:31,2,160,2|8|0,0:0|0:0|0:0,0:0:0:0:
371,262,343645,1,0,0:0:0:0:
371,262,343811,1,0,0:0:0:0:
371,262,343978,2,0,P|410:260|447:244,1,80,8|0,0:0|0:0,0:0:0:0:
353,114,344645,6,0,P|313:115|276:131,1,80,2|0,0:0|0:0,0:0:0:0:
214,204,345311,2,0,P|177:219|137:221,1,80,8|0,0:0|0:0,0:0:0:0:
115,211,345811,1,0,0:0:0:0:
94,198,345978,2,0,L|83:118,1,80
244,121,346645,2,0,L|283:115,1,40,8|8,0:0|0:0,0:0:0:0:
349,69,346978,2,0,L|388:63,1,40,0|8,0:0|0:0,0:0:0:0:
452,112,347311,6,0,P|467:148|467:188,1,80,2|0,0:0|0:0,0:0:0:0:
392,248,347978,1,8,0:0:0:0:
302,212,348311,1,0,0:0:0:0:
302,212,348478,1,8,0:0:0:0:
302,212,348645,2,0,L|296:172,2,40,0|8|0,0:0|0:0|0:0,0:0:0:0:
172,306,349311,2,0,L|133:311,1,40,8|8,0:0|0:0,0:0:0:0:
212,235,349645,2,0,L|207:196,1,40,0|8,0:0|0:0,0:0:0:0:
177,119,349978,6,0,P|140:108|100:111,2,80,2|0|8,0:0|0:0|0:0,0:0:0:0:
267,85,350978,1,0,0:0:0:0:
267,85,351145,1,8,0:0:0:0:
267,85,351311,2,0,L|271:45,2,40,0|8|0,0:0|0:0|0:0,0:0:0:0:
107,104,351978,2,0,L|68:113,1,40,8|8,0:0|0:0,0:0:0:0:
171,151,352311,2,0,L|209:141,1,40,0|8,0:0|0:0,0:0:0:0:
267,85,352645,1,0,0:0:0:0:
256,192,352811,12,0,363978,0:0:0:0:
