osu file format v7

[General]
AudioFilename: Departure.mp3
AudioLeadIn: 2000
PreviewTime: 31200
Countdown: 0
SampleSet: Soft
StackLeniency: 0.6
Mode: 0
LetterboxInBreaks: 1

[Editor]
DistanceSpacing: 0.800000011920929
BeatDivisor: 2
GridSize: 8

[Metadata]
Title:Departure
Artist:TEMPO
Creator:LKs
Version:Starlight
Source:TEMPO: QQR2's MUSIC TEAM
Tags:H-boy xBubu

[Difficulty]
HPDrainRate:3
CircleSize:3
OverallDifficulty:5
SliderMultiplier:1.2
SliderTickRate:1

[Events]
//Background and Video events
0,0,"d195ad395b58a80597ddd8a8.jpg"
//Break Periods
2,45004,59604
//Storyboard Layer 0 (Background)
//Storyboard Layer 1 (Fail)
//Storyboard Layer 2 (Pass)
//Storyboard Layer 3 (Foreground)
//Storyboard Sound Samples
//Background Colour Transformations
3,100,0,0,0

[TimingPoints]
4,400,4,2,0,70,1,0
73004,-100,4,2,0,70,0,1
97604,-100,4,2,0,70,0,0

[Colours]
Combo1 : 255,128,192
Combo2 : 255,255,104
Combo3 : 106,0,213
Combo4 : 128,128,192

[HitObjects]
256,208,4,12,0,5404
192,288,5804,6,0,B|128:288|120:144|216:144,1,180,0|0
256,216,6804,1,0
320,288,7204,2,0,B|384:288|392:144|296:144,1,180
256,24,8404,1,2
400,56,9004,6,0,B|464:144|408:248,1,180
336,184,10004,1,0
256,136,10404,2,0,B|192:224|248:328,1,180,0|0
144,200,11604,1,2
96,64,12204,6,0,B|152:96|152:96|208:48|208:48|272:88,1,180
328,120,13204,2,0,B|384:160|384:160|352:240,1,120
280,256,14004,2,0,B|224:216|224:216|256:136,3,120,0|0|0|0
243,168,15604,1,2
152,128,16004,6,0,B|88:264,1,120
200,232,16804,2,0,B|264:88,1,120
312,192,17604,1,0
72,192,18604,6,0,B|72:80|192:80,1,180
184,176,19604,1,0
280,208,20004,2,0,B|280:288|368:288,1,120,0|2
440,256,20804,1,0
440,256,21204,1,0
440,160,21604,2,0,B|352:168|376:72,1,120,0|2
280,64,22404,6,0,B|200:16|104:88|136:184,1,240,0|0
224,144,23604,1,2
200,240,24004,2,0,B|320:264|320:264|320:128,1,240
320,146,25204,1,2
256,72,25604,6,0,B|168:72|168:72|192:112|192:112|72:112,1,240
120,200,26804,1,2
160,288,27204,2,0,B|248:288|248:288|224:328|224:328|344:328,1,240
424,328,28404,1,2
376,248,28804,5,2
376,152,29204,2,0,B|376:80,2,60
288,104,30004,1,2
208,152,30404,1,6
256,208,30604,12,0,31604
440,192,32004,6,0,B|432:112|328:96|288:144,1,180
256,152,32804,2,0,B|248:232|144:248|104:200,1,180
118,212,34004,1,2
304,272,35204,6,0,B|416:272|416:128,1,180
376,128,36004,2,0,B|376:240|232:240,1,180
232,96,37204,1,2
120,192,37804,6,0,B|120:312|120:312|192:256|232:336|232:336|288:272,1,300
360,288,39204,2,0,B|408:256|408:256|368:208|424:168,1,120
328,128,40004,2,0,B|296:80|296:80|248:120|208:64,1,120
238,92,40604,1,0
160,144,41004,6,0,B|24:152|96:304,1,180,0|2
168,312,42004,2,0,B|248:216,1,120,0|2
320,288,42804,2,0,B|408:176,1,120,0|2
256,208,43404,12,4,44804
208,56,60804,6,0,B|128:56|128:144,1,120
216,152,61604,2,0,B|304:256,1,120,0|0
312,336,62404,2,0,B|392:336|384:248,1,120
293,243,63204,2,0,B|216:152,1,120,0|0
280,80,64004,6,0,B|360:144|352:272|240:336|136:272,1,360
80,216,65604,2,0,B|128:96,1,120
168,80,66204,1,0
208,56,66404,2,0,B|240:176,1,120
256,216,67004,1,0
280,256,67204,6,0,B|312:128,3,120
176,192,69004,1,0
320,192,69604,1,0
464,192,70204,1,0
456,288,70604,6,0,B|368:368|264:368|160:264,1,300,0|2
186,288,72004,1,4
186,288,72404,1,4
72,192,73004,6,0,B|176:88,1,120
192,80,73604,1,2
280,112,74004,1,2
368,152,74404,2,0,B|464:48,1,120,0|0
480,32,75004,1,2
480,176,75604,1,2
336,176,76204,6,0,B|336:320,1,120
336,296,76804,1,2
256,240,77204,1,2
176,296,77604,2,0,B|176:152,1,120
176,176,78204,1,2
256,64,78804,1,2
136,144,79404,6,0,B|96:264|96:264|192:240,1,180,0|0
192,240,80204,1,0
240,248,80404,2,0,B|291:260|291:260|251:140,1,180,0|0
232,96,81204,1,2
312,48,81604,1,2
392,96,82004,1,2
432,120,82204,1,2
368,184,82604,1,0
336,216,82804,1,0
304,248,83004,1,0
272,216,83204,6,0,B|224:160,3,60,2|0|0|0
184,168,84004,2,0,B|136:232,3,60,2|0|0|0
120,256,84804,1,2
352,328,85804,6,0,B|440:296|440:296|408:200,1,180
384,120,86804,1,2
296,160,87204,1,2
248,72,87604,1,2
152,88,88004,6,0,B|88:104|88:104|104:160,1,120,0|2
184,208,88804,1,2
144,296,89204,1,2
224,352,89604,6,0,B|272:296|336:352,1,120,0|2
408,288,90404,1,2
320,240,90804,1,2
408,200,91204,2,0,B|392:136,2,60,0|0|2
320,240,92004,1,2
232,280,92404,2,2,B|192:224,1,60,0|0
168,192,92804,6,0,B|176:104|272:136,1,120,0|2
336,160,93604,2,0,B|424:160|392:80,1,120,0|2
296,80,94404,2,0,B|160:80,1,120,0|2
120,160,95204,6,0,B|120:296,1,120
168,272,95804,2,0,B|168:368,1,60,0|2
256,288,96404,1,2
344,332,96804,2,0,B|344:272,1,60
392,280,97203,2,0,B|392:160,1,120,0|6
