osu file format v13

[General]
AudioFilename: Densha De D - Lightning Stage - Going My Way (Vocal).mp3
AudioLeadIn: 0
PreviewTime: 72017
Countdown: 1
SampleSet: None
StackLeniency: 0.7
Mode: 1
LetterboxInBreaks: 0
WidescreenStoryboard: 1

[Editor]
Bookmarks: 103,12470,18702,23376,24934,26492,32725,38957,45189,51421,57653,63885,68560,76350,82582,88814,95046
DistanceSpacing: 1.2
BeatDivisor: 2
GridSize: 32
TimelineZoom: 1.299999

[Metadata]
Title:~Going my way~
TitleUnicode:~Going my way~
Artist:TEKONDO
ArtistUnicode:TEKONDO
Creator:SomeGuyNamedDavid
Version:Taiko Futsuu
Source:Densha de D Lightning Stage
Tags:電車でD Initial D
BeatmapID:490989
BeatmapSetID:177935

[Difficulty]
HPDrainRate:4
CircleSize:4
OverallDifficulty:4
ApproachRate:5
SliderMultiplier:1.39999990463257
SliderTickRate:2

[Events]
//Background and Video events
0,0,"Multi-Track Drifting!.png",0,0
//Break Periods
//Storyboard Layer 0 (Background)
//Storyboard Layer 1 (Fail)
//Storyboard Layer 2 (Pass)
//Storyboard Layer 3 (Foreground)
//Storyboard Sound Samples
//Background Colour Transformations
3,100,0,0,96

[TimingPoints]
26493,389.51038961039,4,1,0,80,1,0
70118,-100,4,1,0,80,0,1
82581,-100,4,1,0,80,0,0
82582,-100,4,1,0,80,0,1
95046,-100,4,1,0,80,0,0

[Colours]
Combo1 : 255,64,0
Combo2 : 0,255,0
Combo3 : 0,255,255
Combo4 : 255,192,0

[HitObjects]
256,192,26492,5,0,0:0:0:0:
256,192,26882,1,0,0:0:0:0:
256,192,27272,1,0,0:0:0:0:
256,192,27661,1,2,0:0:0:0:
256,192,28051,5,0,0:0:0:0:
256,192,28440,1,0,0:0:0:0:
256,192,28830,1,0,0:0:0:0:
256,192,29024,1,0,0:0:0:0:
256,192,29219,1,0,0:0:0:0:
256,192,29609,5,0,0:0:0:0:
256,192,29998,1,0,0:0:0:0:
256,192,30389,1,0,0:0:0:0:
256,192,30778,1,2,0:0:0:0:
256,192,31167,5,0,0:0:0:0:
256,192,31556,1,0,0:0:0:0:
256,192,31946,1,2,0:0:0:0:
256,192,32140,1,2,0:0:0:0:
256,192,32335,1,2,0:0:0:0:
256,192,32725,5,0,0:0:0:0:
256,192,33115,1,2,0:0:0:0:
256,192,33505,1,0,0:0:0:0:
256,192,33894,1,2,0:0:0:0:
256,192,34284,5,0,0:0:0:0:
256,192,34673,1,0,0:0:0:0:
256,192,35063,1,0,0:0:0:0:
256,192,35256,1,0,0:0:0:0:
256,192,35452,1,0,0:0:0:0:
256,192,35842,5,0,0:0:0:0:
256,192,36230,1,2,0:0:0:0:
256,192,36620,1,0,0:0:0:0:
256,192,37009,1,2,0:0:0:0:
256,192,37399,5,4,0:0:0:0:
256,192,37788,1,0,0:0:0:0:
256,192,38178,1,6,0:0:0:0:
256,192,38567,1,2,0:0:0:0:
256,192,38957,5,0,0:0:0:0:
256,192,39346,1,0,0:0:0:0:
256,192,39736,1,0,0:0:0:0:
256,192,40125,1,2,0:0:0:0:
256,192,40515,5,0,0:0:0:0:
256,192,40904,1,0,0:0:0:0:
256,192,41294,1,2,0:0:0:0:
256,192,41683,1,2,0:0:0:0:
256,192,42073,5,0,0:0:0:0:
256,192,42462,1,0,0:0:0:0:
256,192,42852,1,0,0:0:0:0:
256,192,43241,1,2,0:0:0:0:
256,192,43631,5,0,0:0:0:0:
256,192,43826,1,0,0:0:0:0:
256,192,44020,1,0,0:0:0:0:
256,192,44410,1,2,0:0:0:0:
256,192,44605,1,2,0:0:0:0:
256,192,44799,1,2,0:0:0:0:
256,192,45189,5,0,0:0:0:0:
256,192,45578,1,0,0:0:0:0:
256,192,45968,1,0,0:0:0:0:
256,192,46357,1,2,0:0:0:0:
256,192,46747,5,0,0:0:0:0:
256,192,47136,1,0,0:0:0:0:
256,192,47526,1,2,0:0:0:0:
256,192,47915,1,2,0:0:0:0:
256,192,48305,5,0,0:0:0:0:
256,192,48694,1,0,0:0:0:0:
256,192,49084,1,0,0:0:0:0:
256,192,49473,1,2,0:0:0:0:
256,192,49863,5,0,0:0:0:0:
256,192,50058,1,0,0:0:0:0:
256,192,50253,1,0,0:0:0:0:
256,192,50642,1,2,0:0:0:0:
256,192,50837,1,2,0:0:0:0:
256,192,51032,1,2,0:0:0:0:
256,192,51421,5,0,0:0:0:0:
256,192,51811,1,0,0:0:0:0:
256,192,52201,1,0,0:0:0:0:
256,192,52590,1,2,0:0:0:0:
256,192,52980,5,0,0:0:0:0:
256,192,53369,1,0,0:0:0:0:
256,192,53759,1,0,0:0:0:0:
256,192,53953,1,0,0:0:0:0:
256,192,54148,1,0,0:0:0:0:
256,192,54538,5,0,0:0:0:0:
256,192,54928,1,0,0:0:0:0:
256,192,55316,1,0,0:0:0:0:
256,192,55707,1,2,0:0:0:0:
256,192,56096,5,0,0:0:0:0:
256,192,56485,1,0,0:0:0:0:
256,192,56875,1,2,0:0:0:0:
256,192,57069,1,2,0:0:0:0:
256,192,57264,1,2,0:0:0:0:
256,192,57654,5,0,0:0:0:0:
256,192,58044,1,2,0:0:0:0:
256,192,58432,1,0,0:0:0:0:
256,192,58823,1,2,0:0:0:0:
256,192,59211,5,0,0:0:0:0:
256,192,59602,1,0,0:0:0:0:
256,192,59990,1,0,0:0:0:0:
256,192,60186,1,0,0:0:0:0:
256,192,60381,1,0,0:0:0:0:
256,192,60769,5,0,0:0:0:0:
256,192,61159,1,2,0:0:0:0:
256,192,61548,1,0,0:0:0:0:
256,192,61938,1,2,0:0:0:0:
256,192,62328,5,4,0:0:0:0:
256,192,62717,1,0,0:0:0:0:
256,192,63106,1,6,0:0:0:0:
256,192,63496,1,2,0:0:0:0:
160,128,63885,6,0,L|379:127,1,218.749985098839
128,256,64665,2,0,L|419:256,1,279.999980926514
256,192,65833,1,0,0:0:0:0:
256,192,66223,1,2,0:0:0:0:
256,192,66612,1,2,0:0:0:0:
256,192,67002,12,2,68560,0:0:0:0:
256,192,68949,5,2,0:0:0:0:
256,192,69339,1,0,0:0:0:0:
256,192,69728,1,0,0:0:0:0:
256,192,70118,5,4,0:0:0:0:
256,192,70507,1,2,0:0:0:0:
256,192,70897,1,0,0:0:0:0:
256,192,71286,1,0,0:0:0:0:
256,192,71676,5,0,0:0:0:0:
256,192,72065,1,2,0:0:0:0:
256,192,72455,1,2,0:0:0:0:
256,192,72844,1,2,0:0:0:0:
256,192,73234,5,0,0:0:0:0:
256,192,73623,1,0,0:0:0:0:
256,192,74013,1,2,0:0:0:0:
256,192,74402,1,2,0:0:0:0:
256,192,74792,5,0,0:0:0:0:
256,192,75181,1,0,0:0:0:0:
256,192,75571,1,2,0:0:0:0:
256,192,75960,1,0,0:0:0:0:
256,192,76155,1,0,0:0:0:0:
256,192,76350,5,0,0:0:0:0:
256,192,76739,1,2,0:0:0:0:
256,192,77129,1,0,0:0:0:0:
256,192,77518,1,2,0:0:0:0:
256,192,77908,5,0,0:0:0:0:
256,192,78297,1,2,0:0:0:0:
256,192,78687,1,0,0:0:0:0:
256,192,78882,1,0,0:0:0:0:
256,192,79076,1,0,0:0:0:0:
256,192,79466,5,0,0:0:0:0:
256,192,79855,1,2,0:0:0:0:
256,192,80245,1,0,0:0:0:0:
256,192,80634,1,2,0:0:0:0:
256,192,81024,5,0,0:0:0:0:
256,192,81413,1,2,0:0:0:0:
256,192,81803,1,0,0:0:0:0:
256,192,82192,1,0,0:0:0:0:
256,192,82582,5,4,0:0:0:0:
256,192,82971,1,2,0:0:0:0:
256,192,83361,1,0,0:0:0:0:
256,192,83750,1,0,0:0:0:0:
256,192,84140,5,0,0:0:0:0:
256,192,84529,1,2,0:0:0:0:
256,192,84919,1,2,0:0:0:0:
256,192,85308,1,2,0:0:0:0:
256,192,85698,5,0,0:0:0:0:
256,192,86087,1,0,0:0:0:0:
256,192,86477,1,2,0:0:0:0:
256,192,86866,1,2,0:0:0:0:
256,192,87256,5,0,0:0:0:0:
256,192,87645,1,0,0:0:0:0:
256,192,88035,1,2,0:0:0:0:
256,192,88424,1,0,0:0:0:0:
256,192,88619,1,0,0:0:0:0:
256,192,88814,5,0,0:0:0:0:
256,192,89204,1,2,0:0:0:0:
256,192,89594,1,0,0:0:0:0:
256,192,89983,1,2,0:0:0:0:
256,192,90373,5,0,0:0:0:0:
256,192,90762,1,2,0:0:0:0:
256,192,91152,1,2,0:0:0:0:
256,192,91347,1,2,0:0:0:0:
256,192,91541,1,2,0:0:0:0:
256,192,91930,12,0,94657,0:0:0:0:
256,192,95046,5,4,0:0:0:0:
