osu file format v13

[General]
AudioFilename: Densha De D - Lightning Stage - Going My Way (Vocal).mp3
AudioLeadIn: 0
PreviewTime: 72017
Countdown: 1
SampleSet: Normal
StackLeniency: 0.7
Mode: 0
LetterboxInBreaks: 0
WidescreenStoryboard: 1

[Editor]
Bookmarks: 93,12460,18693,23367,24925,26483,32715,38947,45179,51411,57644,63876,68550,70108,76340,82183,88804,95037
DistanceSpacing: 1.2
BeatDivisor: 4
GridSize: 4
TimelineZoom: 2

[Metadata]
Title:~Going my way~
TitleUnicode:~Going my way~
Artist:TEKONDO
ArtistUnicode:TEKONDO
Creator:SomeGuyNamedDavid
Version:Insane
Source:Densha de D Lightning Stage
Tags:電車でD Initial D
BeatmapID:429697
BeatmapSetID:177935

[Difficulty]
HPDrainRate:7
CircleSize:4
OverallDifficulty:8
ApproachRate:8
SliderMultiplier:1.79999990463257
SliderTickRate:2

[Events]
//Background and Video events
0,0,"Multi-Track Drifting!.png",0,0
//Break Periods
//Storyboard Layer 0 (Background)
//Storyboard Layer 1 (Fail)
//Storyboard Layer 2 (Pass)
//Storyboard Layer 3 (Foreground)
//Storyboard Sound Samples

[TimingPoints]
26493,389.51038961039,4,1,0,60,1,0
68550,-83.3333333333333,4,1,0,60,0,0
70118,-83.3333333333333,4,1,0,60,0,1
82581,-83.3333333333333,4,1,0,60,0,0
82582,-83.3333333333333,4,1,0,60,0,1
95046,-100,4,1,0,60,0,0

[Colours]
Combo1 : 255,64,0
Combo2 : 0,255,0
Combo3 : 0,255,255
Combo4 : 255,192,0

[HitObjects]
74,96,26492,5,0,0:0:0:0:
107,62,26590,1,0,0:0:0:0:
140,95,26687,1,0,0:0:0:0:
174,60,26785,1,0,0:0:0:0:
207,93,26882,1,0,0:0:0:0:
303,93,27077,1,0,0:0:0:0:
350,93,27174,1,0,0:0:0:0:
417,160,27369,1,0,0:0:0:0:
349,227,27564,1,0,0:0:0:0:
301,227,27661,1,0,0:0:0:0:
204,227,27856,1,0,0:0:0:0:
107,226,28051,6,2,P|88:272|112:304,1,89.9999952316285
215,316,28440,1,0,0:0:0:0:
215,316,28538,1,0,0:0:0:0:
324,315,28732,2,0,P|364:332|408:320,1,89.9999952316285,2|2,0:0|0:0,0:0:0:0:
414,206,29122,1,0,0:0:0:0:
414,206,29219,1,0,0:0:0:0:
414,97,29414,1,0,0:0:0:0:
305,97,29609,5,0,0:0:0:0:
266,58,29706,1,0,0:0:0:0:
227,96,29804,1,0,0:0:0:0:
188,57,29901,1,0,0:0:0:0:
149,95,29998,1,0,0:0:0:0:
72,171,30193,1,0,0:0:0:0:
72,171,30290,1,0,0:0:0:0:
148,247,30485,1,0,0:0:0:0:
256,247,30680,1,0,0:0:0:0:
256,247,30777,1,0,0:0:0:0:
332,170,30972,1,0,0:0:0:0:
440,168,31167,6,2,P|452:212|436:252,1,89.9999952316285
364,332,31556,2,0,L|316:332,1,44.9999976158142
242,255,31849,2,0,P|223:212|234:167,1,89.9999952316285,2|2,0:0|0:0,0:0:0:0:
318,88,32238,1,0,0:0:0:0:
371,88,32335,1,0,0:0:0:0:
344,192,32530,1,0,0:0:0:0:
344,300,32725,5,0,0:0:0:0:
291,311,32822,1,0,0:0:0:0:
237,319,32920,1,0,0:0:0:0:
183,313,33017,1,0,0:0:0:0:
127,300,33114,1,0,0:0:0:0:
127,191,33309,1,0,0:0:0:0:
178,204,33406,2,0,P|225:216|270:202,1,89.9999952316285
337,125,33796,1,0,0:0:0:0:
290,98,33893,1,0,0:0:0:0:
181,98,34088,1,0,0:0:0:0:
72,96,34283,6,2,P|58:142|68:182,1,89.9999952316285
72,296,34672,2,0,L|116:296,1,44.9999976158143
117,187,34964,2,0,P|131:142|123:100,1,89.9999952316285,2|2,0:0|0:0,0:0:0:0:
224,96,35354,2,0,L|268:96,1,44.9999976158143
377,96,35646,1,0,0:0:0:0:
414,197,35841,5,0,0:0:0:0:
414,250,35938,1,0,0:0:0:0:
414,304,36036,1,0,0:0:0:0:
367,277,36133,1,0,0:0:0:0:
367,223,36230,1,0,0:0:0:0:
273,223,36425,1,0,0:0:0:0:
272,292,36522,2,0,P|220:272|204:236,1,89.9999952316285
72,222,36912,1,0,0:0:0:0:
72,222,37010,1,0,0:0:0:0:
72,114,37204,1,0,0:0:0:0:
153,53,37399,6,0,P|197:38|238:51,1,89.9999952316285
198,150,37788,2,0,L|248:150,1,44.9999976158143
243,258,38080,1,0,0:0:0:0:
311,174,38275,1,0,0:0:0:0:
362,78,38470,1,0,0:0:0:0:
362,78,38568,1,0,0:0:0:0:
408,174,38762,1,0,0:0:0:0:
408,284,38957,5,0,0:0:0:0:
299,284,39152,1,0,0:0:0:0:
190,284,39347,1,0,0:0:0:0:
75,169,39639,1,0,0:0:0:0:
189,54,39931,1,0,0:0:0:0:
297,54,40126,1,0,0:0:0:0:
404,54,40320,1,0,0:0:0:0:
404,162,40515,5,0,0:0:0:0:
295,162,40710,1,0,0:0:0:0:
187,162,40904,2,0,P|110:188|91:235,1,134.999992847443
179,276,41392,1,2,0:0:0:0:
179,329,41489,1,2,0:0:0:0:
233,329,41587,1,2,0:0:0:0:
233,275,41684,1,2,0:0:0:0:
341,275,41879,1,2,0:0:0:0:
417,198,42073,5,0,0:0:0:0:
417,89,42268,1,0,0:0:0:0:
308,89,42463,1,0,0:0:0:0:
146,89,42755,1,0,0:0:0:0:
146,250,43047,1,0,0:0:0:0:
119,297,43144,1,0,0:0:0:0:
173,297,43242,1,0,0:0:0:0:
280,297,43436,1,0,0:0:0:0:
388,296,43631,6,2,P|401:251|388:209,1,89.9999952316285
388,97,44021,1,0,0:0:0:0:
388,97,44118,1,0,0:0:0:0:
280,96,44313,2,0,P|233:84|190:96,1,89.9999952316285,2|2,0:0|0:0,0:0:0:0:
81,96,44702,1,0,0:0:0:0:
81,96,44800,1,0,0:0:0:0:
81,203,44994,1,0,0:0:0:0:
81,311,45189,5,0,0:0:0:0:
189,311,45384,1,0,0:0:0:0:
297,311,45579,2,0,P|296:242|249:199,1,134.999992847443
100,137,46163,1,0,0:0:0:0:
189,68,46358,1,0,0:0:0:0:
297,68,46553,1,0,0:0:0:0:
404,68,46747,5,0,0:0:0:0:
404,176,46942,1,0,0:0:0:0:
404,284,47137,1,0,0:0:0:0:
283,176,47429,1,0,0:0:0:0:
174,176,47623,2,0,L|126:176,1,44.9999976158143,2|2,0:0|0:0,0:0:0:0:
129,67,47916,1,2,0:0:0:0:
129,175,48111,1,2,0:0:0:0:
129,282,48305,5,0,0:0:0:0:
237,282,48500,1,0,0:0:0:0:
345,282,48695,1,0,0:0:0:0:
431,145,48987,2,0,P|444:102|432:58,1,89.9999952316285
374,101,49376,1,0,0:0:0:0:
374,101,49474,1,0,0:0:0:0:
255,88,49669,1,0,0:0:0:0:
133,77,49863,5,2,0:0:0:0:
133,185,50058,1,2,0:0:0:0:
241,185,50253,1,0,0:0:0:0:
241,185,50350,1,0,0:0:0:0:
349,185,50545,1,2,0:0:0:0:
241,185,50740,1,2,0:0:0:0:
241,293,50935,1,0,0:0:0:0:
241,293,51032,1,0,0:0:0:0:
241,185,51227,1,0,0:0:0:0:
164,108,51421,5,0,0:0:0:0:
111,117,51519,1,0,0:0:0:0:
90,73,51616,1,0,0:0:0:0:
128,35,51714,1,0,0:0:0:0:
173,55,51811,1,0,0:0:0:0:
280,56,52006,1,0,0:0:0:0:
280,56,52103,2,0,L|376:56,1,89.9999952316285
370,56,52493,1,0,0:0:0:0:
370,56,52590,2,0,L|370:145,1,89.9999952316285
292,220,52979,6,2,L|200:220,1,89.9999952316285
93,220,53369,1,0,0:0:0:0:
93,220,53466,1,0,0:0:0:0:
200,220,53661,2,0,L|296:220,1,89.9999952316285,2|2,0:0|0:0,0:0:0:0:
398,220,54051,1,0,0:0:0:0:
398,220,54148,1,0,0:0:0:0:
344,314,54343,1,0,0:0:0:0:
236,314,54537,5,0,0:0:0:0:
182,313,54634,1,0,0:0:0:0:
135,287,54731,1,0,0:0:0:0:
104,244,54829,1,0,0:0:0:0:
96,191,54926,1,0,0:0:0:0:
96,82,55122,1,0,0:0:0:0:
96,82,55219,1,0,0:0:0:0:
204,82,55414,1,0,0:0:0:0:
312,82,55609,1,0,0:0:0:0:
312,82,55706,1,0,0:0:0:0:
420,82,55901,1,0,0:0:0:0:
420,192,56096,6,2,P|377:179|335:191,1,89.9999952316285
238,231,56485,1,0,0:0:0:0:
238,231,56582,1,0,0:0:0:0:
137,269,56777,2,0,P|93:282|53:266,1,89.9999952316285,2|2,0:0|0:0,0:0:0:0:
98,211,57167,1,0,0:0:0:0:
98,211,57264,1,0,0:0:0:0:
98,345,57459,1,0,0:0:0:0:
204,324,57654,5,0,0:0:0:0:
254,300,57751,1,0,0:0:0:0:
307,315,57848,1,0,0:0:0:0:
359,334,57946,1,0,0:0:0:0:
412,316,58043,1,0,0:0:0:0:
380,230,58238,1,0,0:0:0:0:
442,198,58335,2,0,P|382:160|334:175,1,89.9999952316285
258,160,58724,1,0,0:0:0:0:
293,222,58822,2,0,P|219:220|196:191,1,89.9999952316285
128,76,59212,6,2,P|177:66|219:78,1,89.9999952316285
242,180,59601,1,0,0:0:0:0:
242,180,59698,1,0,0:0:0:0:
271,76,59893,2,0,P|314:64|356:79,1,89.9999952316285,2|2,0:0|0:0,0:0:0:0:
355,187,60283,1,0,0:0:0:0:
355,187,60380,1,0,0:0:0:0:
463,187,60575,1,0,0:0:0:0:
416,76,60770,5,0,0:0:0:0:
415,130,60867,1,0,0:0:0:0:
389,177,60964,1,0,0:0:0:0:
346,208,61062,1,0,0:0:0:0:
293,216,61159,1,0,0:0:0:0:
293,107,61354,1,0,0:0:0:0:
243,86,61451,1,0,0:0:0:0:
141,110,61646,1,0,0:0:0:0:
88,200,61840,1,0,0:0:0:0:
92,254,61938,1,0,0:0:0:0:
160,334,62133,1,0,0:0:0:0:
268,334,62328,5,2,0:0:0:0:
349,193,62522,1,2,0:0:0:0:
187,193,62717,1,8,0:0:0:0:
187,193,62815,1,8,0:0:0:0:
268,122,63009,1,2,0:0:0:0:
187,263,63203,1,2,0:0:0:0:
349,263,63398,1,8,0:0:0:0:
349,263,63496,1,8,0:0:0:0:
268,190,63691,1,8,0:0:0:0:
187,117,63886,6,2,P|103:140|72:221,1,179.999990463257,2|0,0:0|0:0,0:0:0:0:
72,221,64470,1,2,0:0:0:0:
72,221,64665,2,2,B|62:340|198:334|198:334|360:335,1,359.999980926514
448,278,65639,1,0,0:0:0:0:
472,175,65834,1,0,0:0:0:0:
416,86,66029,1,0,0:0:0:0:
317,43,66223,1,8,0:0:0:0:
202,157,66515,1,8,0:0:0:0:
316,271,66807,1,8,0:0:0:0:
256,192,67002,12,4,68560,0:0:0:0:
148,192,68949,6,2,P|137:137|146:86,1,107.999990982056,2|0,0:0|0:0,0:0:0:0:
289,84,69339,1,2,0:0:0:0:
289,294,69631,1,2,0:0:0:0:
79,294,69923,1,2,0:0:0:0:
79,153,70118,1,4,0:0:0:0:
356,192,70507,2,2,P|372:141|356:84,1,107.999990982056,2|0,0:0|0:0,0:0:0:0:
214,84,70897,1,2,0:0:0:0:
214,294,71189,1,2,0:0:0:0:
424,294,71481,1,2,0:0:0:0:
424,153,71676,1,4,0:0:0:0:
162,50,72065,5,0,0:0:0:0:
162,190,72260,1,0,0:0:0:0:
302,190,72455,1,2,0:0:0:0:
104,120,72747,1,2,0:0:0:0:
302,51,73039,1,2,0:0:0:0:
431,51,73234,2,0,P|382:79|356:126,1,107.999990982056
440,131,73623,2,0,P|420:178|376:212,1,107.999990982056
427,331,74013,1,0,0:0:0:0:
297,331,74208,5,8,0:0:0:0:
167,331,74402,2,8,P|94:286|95:249,1,107.999990982056
197,230,74792,1,2,0:0:0:0:
232,123,74987,1,2,0:0:0:0:
266,230,75181,1,2,0:0:0:0:
174,164,75376,1,2,0:0:0:0:
289,164,75571,1,2,0:0:0:0:
429,164,75766,5,8,0:0:0:0:
320,93,75960,2,8,P|279:58|214:52,1,107.999990982056
67,70,76350,2,0,P|54:124|67:182,1,107.999990982056,0|0,0:0|0:0,0:0:0:0:
97,315,76739,1,0,0:0:0:0:
127,177,76934,2,0,P|139:121|127:65,1,107.999990982056,0|0,0:0|0:0,0:0:0:0:
248,64,77324,2,0,L|356:64,1,107.999990982056,2|0,0:0|0:0,0:0:0:0:
456,164,77713,2,0,L|348:164,1,107.999990982056,2|0,0:0|0:0,0:0:0:0:
248,264,78103,2,0,L|356:264,1,107.999990982056,2|0,0:0|0:0,0:0:0:0:
256,164,78492,2,0,L|144:164,1,107.999990982056,2|0,0:0|0:0,0:0:0:0:
48,64,78882,2,0,L|156:64,1,107.999990982056,2|0,0:0|0:0,0:0:0:0:
296,64,79271,1,2,0:0:0:0:
296,64,79466,6,0,P|348:52|404:64,1,107.999990982056,0|0,0:0|0:0,0:0:0:0:
404,204,79855,1,0,0:0:0:0:
404,344,80050,2,0,P|349:355|292:344,1,107.999990982056,0|0,0:0|0:0,0:0:0:0:
203,251,80440,1,8,0:0:0:0:
332,251,80634,1,8,0:0:0:0:
267,138,80829,1,8,0:0:0:0:
137,138,81024,2,2,L|29:138,1,107.999990982056,2|0,0:0|0:0,0:0:0:0:
120,44,81413,6,2,L|232:44,1,107.999990982056,2|0,0:0|0:0,0:0:0:0:
320,136,81803,1,2,0:0:0:0:
320,330,82095,1,2,0:0:0:0:
110,330,82387,1,2,0:0:0:0:
215,236,82582,1,4,0:0:0:0:
435,60,82972,2,2,P|449:115|435:167,1,107.999990982056,2|0,0:0|0:0,0:0:0:0:
435,308,83361,1,2,0:0:0:0:
225,308,83653,1,2,0:0:0:0:
330,125,83945,1,2,0:0:0:0:
330,265,84140,1,4,0:0:0:0:
89,120,84530,5,0,0:0:0:0:
89,255,84724,1,0,0:0:0:0:
207,323,84919,1,2,0:0:0:0:
343,187,85211,1,2,0:0:0:0:
207,53,85503,1,2,0:0:0:0:
169,188,85698,1,0,0:0:0:0:
286,267,85893,1,0,0:0:0:0:
402,187,86088,1,0,0:0:0:0:
286,109,86282,1,0,0:0:0:0:
146,109,86477,1,0,0:0:0:0:
237,200,86672,5,8,0:0:0:0:
336,299,86867,1,0,0:0:0:0:
237,200,87061,1,8,0:0:0:0:
137,299,87256,1,0,0:0:0:0:
237,200,87451,1,8,0:0:0:0:
137,100,87646,1,0,0:0:0:0:
237,200,87840,1,8,0:0:0:0:
336,100,88035,1,0,0:0:0:0:
435,199,88230,1,2,0:0:0:0:
435,199,88425,2,2,L|321:199,1,107.999990982056
237,307,88814,6,0,P|173:302|149:268,1,107.999990982056
237,216,89204,1,2,0:0:0:0:
332,219,89398,2,0,P|327:155|293:131,1,107.999990982056
187,205,89788,2,0,P|151:209|117:266,1,107.999990982056,8|0,0:0|0:0,0:0:0:0:
257,266,90177,2,0,P|261:302|318:336,1,107.999990982056,8|0,0:0|0:0,0:0:0:0:
318,194,90567,2,0,P|354:190|388:133,1,107.999990982056,8|0,0:0|0:0,0:0:0:0:
247,132,90956,2,0,P|243:96|186:62,1,107.999990982056,8|0,0:0|0:0,0:0:0:0:
328,63,91346,2,0,P|384:51|432:64,1,107.999990982056,8|0,0:0|0:0,0:0:0:0:
436,200,91735,1,0,0:0:0:0:
256,192,91930,12,4,95047,0:0:0:0:
