osu file format v9

[General]
AudioFilename: oreimo.MP3
AudioLeadIn: 0
PreviewTime: 5870
Countdown: 0
SampleSet: Normal
StackLeniency: 0.7
Mode: 0
LetterboxInBreaks: 1

[Editor]
Bookmarks: 5878,11211,16544,21878,27044,27211,29211,31878,32544,37878,48544,53878
DistanceSpacing: 1
BeatDivisor: 4
GridSize: 8

[Metadata]
Title:Oreimo
Artist:TDN kosugi
Creator:Clickz
Version:Insane
Source:Nico Nico Douga
Tags:Satoru Kousaki AIC Aniplex Kochiya Sanae

[Difficulty]
HPDrainRate:8
CircleSize:4
OverallDifficulty:8
ApproachRate:8
SliderMultiplier:2
SliderTickRate:2

[Events]
//Background and Video events
0,0,"BG.jpg"
Video,0,"PV.flv"
//Break Periods
//Storyboard Layer 0 (Background)
//Storyboard Layer 1 (Fail)
//Storyboard Layer 2 (Pass)
//Storyboard Layer 3 (Foreground)
//Storyboard Sound Samples
//Background Colour Transformations
3,100,0,0,0

[TimingPoints]
-137,333.333333333333,4,1,1,63,1,0
5945,-100,4,1,1,0,0,0
6112,-100,4,1,1,59,0,0
8612,-100,4,1,1,0,0,0
8779,-100,4,1,1,59,0,0
9945,-100,4,1,1,0,0,0
10112,-100,4,1,1,61,0,0
10945,-100,4,1,1,0,0,0
11112,-100,4,1,1,61,0,0
12612,-100,4,1,1,0,0,0
12778,-100,4,1,1,59,0,0
13945,-100,4,1,1,0,0,0
14112,-100,4,1,1,60,0,0
15903,-100,4,1,1,54,0,0
16153,-100,4,1,1,61,0,0
16487,-100,4,1,1,36,0,1
16612,-100,4,1,1,0,0,0
16778,-100,4,1,1,59,0,0
19278,-100,4,1,1,0,0,0
19445,-100,4,1,1,62,0,0
21945,-100,4,1,1,0,0,0
22112,-100,4,1,1,61,0,0
23278,-100,4,1,1,0,0,0
23445,-100,4,1,1,61,0,0
24612,-100,4,1,1,0,0,0
24778,-100,4,1,1,50,0,0
24987,-100,4,1,1,76,0,0
25153,-100,4,1,1,0,0,0
25237,-100,4,1,1,54,0,0
35153,-100,4,1,1,53,0,0
35237,-100,4,1,1,53,0,0
35487,-100,4,1,1,31,0,0
35820,-100,4,1,1,48,0,0
35903,-100,4,1,1,56,0,0
36487,-100,4,1,1,60,0,0
36570,-100,4,1,1,24,0,0
36653,-100,4,1,1,65,0,0
36820,-100,4,1,1,78,0,0
36903,-100,4,1,1,78,0,0
37153,-100,4,1,1,78,0,0
37237,-100,4,1,1,78,0,0
37820,-100,4,1,1,78,0,1
37945,-100,4,1,1,0,0,1
38112,-100,4,1,1,60,0,1
39279,-100,4,1,1,0,0,1
39445,-100,4,1,1,61,0,1
40612,-100,4,1,1,0,0,1
40779,-100,4,1,1,61,0,1
41945,-100,4,1,2,0,0,1
42112,-100,4,1,1,60,0,1
42612,-100,4,1,2,29,0,1
42778,-100,4,1,1,60,0,1
45070,-100,4,1,1,12,0,1
45153,-100,4,1,1,67,0,1
46653,-100,4,1,1,32,0,1
47153,-100,4,1,1,61,0,1
47903,-100,4,1,1,26,0,1
47987,-100,4,1,1,63,0,1
48070,-100,4,1,1,25,0,1
48153,-100,4,1,1,62,0,1
48320,-100,4,1,1,32,0,1
48403,-100,4,1,1,59,0,0
48487,-100,4,1,1,59,0,1
48570,-100,4,1,1,59,0,0
49820,-100,4,1,1,59,0,1
49903,-100,4,1,1,59,0,0
51153,-100,4,1,1,59,0,1
51237,-100,4,1,1,59,0,0
53945,-100,4,1,1,0,0,0
54112,-100,4,1,1,59,0,0
56612,-100,4,1,1,0,0,0
56779,-100,4,1,1,59,0,0
57112,-100,4,1,1,0,0,0
57278,-100,4,1,1,58,0,0
58820,-100,4,2,0,79,0,1
59028,-100,4,2,0,79,0,0

[Colours]
Combo1 : 255,128,192
Combo2 : 255,128,0
Combo3 : 0,128,255

[HitObjects]
256,192,3195,8,0,5028
400,80,5195,5,0
376,120,5278,1,0
344,160,5362,1,0
312,200,5445,1,0
280,240,5528,2,0,B|232:296|232:296|176:296,1,100,8|0
204,195,5862,6,0,B|272:120|272:120|385:120,1,200,0|8
312,200,6362,1,0
296,296,6528,2,0,B|360:304|392:256,1,100
328,96,6862,2,0,B|264:88|232:128,1,100,8|0
176,200,7195,5,0
280,200,7362,1,0
328,200,7445,1,0
376,200,7528,2,0,B|443:124,1,100,8|0
384,40,7862,2,0,B|296:140,1,100,0|0
218,84,8195,2,0,B|288:8,1,100,8|0
217,84,8528,6,0,B|217:204|217:204|153:300,1,200,0|8
114,189,9028,1,0
112,88,9195,1,0
16,48,9362,1,0
16,96,9445,1,0
16,144,9528,1,8
16,248,9695,1,0
113,187,9862,6,0,B|113:307|113:307|193:371,1,200,0|8
200,264,10362,1,0
240,184,10528,1,0
280,264,10695,1,0
280,264,10862,2,0,B|352:344|352:344|464:344,1,200,8|0
395,256,11362,5,0
342,170,11529,2,0,B|398:170|422:122,1,100,8|0
335,70,11862,2,0,B|272:70|253:129,2,100,0|0|8
421,121,12362,1,0
403,219,12529,6,0,B|356:316|356:316|258:318,1,200,0|8
192,248,13029,1,0
288,224,13195,1,0
224,152,13362,1,0
184,120,13445,1,0
136,104,13529,2,0,B|72:96|24:136,1,100,8|0
120,192,13862,6,0,B|144:304|144:304|240:352,1,200,0|8
320,336,14362,1,0
416,328,14529,2,0,B|416:264|352:240,3,100,0|0|8|0
352,144,15195,6,0,B|288:128|272:216,1,100,8|0
384,344,15529,2,0,B|456:344|456:256,1,100,8|0
368,248,15862,1,8
336,208,15945,1,0
304,168,16029,1,8
272,128,16112,1,0
240,88,16195,2,0,B|184:48|128:104,1,100,8|0
72,160,16529,6,0,B|72:272|72:272|176:312,1,200,4|8
176,208,17029,1,0
256,280,17195,1,0
176,208,17362,1,0
168,256,17445,1,0
160,304,17529,1,8
256,280,17695,1,0
344,224,17862,6,0,B|320:104|320:104|240:40,1,200,0|8
256,152,18362,1,0
256,248,18529,1,0
256,152,18695,1,0
256,104,18779,1,0
256,56,18862,1,8
176,112,19029,1,0
96,176,19195,6,0,B|96:288|96:288|192:344,1,200,0|8
192,232,19695,1,0
296,224,19862,2,0,B|296:160|216:128,1,100
80,240,20195,2,0,B|96:304|152:320,1,100,8|0
240,312,20528,6,0,B|360:312|360:312|440:248,1,200,0|8
424,160,21028,2,0,B|344:88,1,100
256,48,21362,1,0
256,96,21445,1,0
256,144,21528,1,8
256,248,21695,1,0
336,304,21862,6,0,B|256:368|256:368|176:304,1,200,0|8
256,248,22362,1,0
208,160,22528,2,0,B|264:128|320:168,1,100
304,336,22862,2,0,B|248:368|192:328,1,100,8|0
256,248,23195,6,0,B|256:112|256:112|328:48,1,200,0|8
392,16,23695,1,0
392,120,23862,1,0
480,72,24028,1,0
480,120,24112,1,0
480,168,24195,1,8
480,264,24362,1,0
376,264,24528,6,0,B|264:264|264:264|168:200,1,200,8|0
192,136,25028,2,0,B|304:136|304:136|400:200,1,200,8|0
448,232,25528,1,0
448,312,25695,1,0
360,352,25862,5,8
256,352,26028,1,8
152,352,26195,1,8
200,264,26362,1,8
312,264,26528,1,8
480,352,26862,1,10
480,352,27028,5,0
456,304,27112,1,0
432,256,27195,2,0,B|392:152,1,100
320,224,27528,1,10
432,256,27695,1,0
320,224,27862,2,0,B|280:128,1,100
208,200,28195,1,10
112,168,28362,6,0,B|112:280|112:280|192:360,1,200,0|0
272,368,28862,2,0,B|336:376|360:312,1,100,10|0
264,280,29195,2,0,B|216:224|272:168,1,100,2|0
288,152,29445,1,0
320,112,29528,2,0,B|352:56|304:0,1,100,8|0
232,72,29862,6,0,B|128:72,1,100,2|0
184,160,30195,1,8
132,72,30362,1,0
184,160,30528,2,0,B|64:160,1,100,2|0
16,240,30862,1,8
96,304,31028,6,0,B|176:368|176:368|288:368,1,200,2|0
376,368,31528,2,0,B|440:352|448:288,1,100,10|0
488,216,31862,2,0,B|432:176|376:232,1,100,2|0
352,240,32112,1,0
312,264,32195,2,0,B|256:304|184:240,1,100,8|0
264,176,32528,6,0,B|232:112|272:64,1,100,2|2
352,128,32862,1,8
312,40,33028,1,0
360,32,33112,1,0
408,48,33195,2,0,B|464:64|456:128,1,100,2|2
352,128,33528,1,8
440,184,33695,6,0,B|384:288|384:288|288:288,1,200,2|0
208,288,34195,1,10
104,288,34362,1,0
208,288,34528,2,0,B|280:288|304:224,1,100,2|8
296,192,34778,1,0
296,144,34862,2,0,B|328:88|400:72,1,100,8|8
448,144,35195,6,0,B|448:256|448:256|344:304,1,200,6|0
272,336,35695,1,0
367,293,35862,1,14
272,336,36028,2,0,B|160:336|160:336|88:256,1,200
104,168,36528,5,10
168,96,36695,1,8
208,192,36862,1,10
120,120,37028,1,8
24,96,37195,2,0,B|32:24|128:24,2,100,10|0|8
40,192,37695,5,0
48,240,37778,1,0
56,288,37862,2,0,B|120:368|120:368|232:368,1,200,2|8
320,368,38362,2,0,B|384:368|416:304,1,100
320,272,38695,1,0
296,224,38778,1,0
272,176,38862,1,8
224,88,39028,1,0
224,88,39195,6,0,B|344:88|344:88|416:136,1,200,2|8
360,216,39695,1,0
408,304,39862,2,0,B|336:352|336:352|200:352,1,200,0|8
128,320,40362,1,0
88,288,40445,1,0
56,248,40529,6,8,B|56:121|56:121|112:73,1,200,2|8
136,168,41029,1,0
160,264,41195,2,8,B|216:216|216:216|216:72,1,200,0|8
120,80,41695,1,0
136,168,41862,6,0,B|240:168|240:168|336:240,1,200,2|10
264,312,42362,1,0
192,240,42529,2,0,B|192:120|192:120|256:48,1,200,6|8
312,136,43029,1,8
360,160,43112,1,0
400,184,43195,6,0,B|440:240|392:296,2,100,6|0|8
312,136,43695,1,0
224,96,43862,2,0,B|184:40|240:-24,2,100,0|0|8
208,192,44362,1,0
192,288,44529,6,0,B|192:352|120:376,2,100,2|0|8
112,232,45029,1,0
80,192,45112,1,0
72,144,45195,2,0,B|72:80|136:56,2,100,6|0|8
176,144,45695,1,0
232,224,45862,6,0,B|352:224,1,100,14|0
280,312,46195,2,0,B|408:312,1,100,0|0
456,240,46529,2,0,B|496:176|432:112,1,100,10|0
408,128,46779,1,0
360,104,46862,2,0,B|328:56|360:-8,1,100,0|0
448,40,47195,6,0,B|448:152|448:152|368:208,1,200,14|10
272,200,47695,1,0
168,192,47862,1,10
120,176,47945,1,0
80,144,48029,1,8
72,96,48112,1,0
88,48,48195,2,0,B|128:0|192:0,1,100,8|0
176,104,48529,5,4
336,296,49695,5,8
416,360,49862,1,4
336,88,51029,5,8
416,24,51195,1,4
176,296,52362,5,0
176,296,52445,1,8
176,296,52529,2,0,B|192:224|280:216,1,100,4|0
336,200,52862,2,0,B|400:184|400:104,1,100,8|0
288,112,53195,1,8
328,144,53279,1,0
368,176,53362,1,8
408,208,53445,1,0
448,248,53529,2,0,B|496:312|440:360,1,100,8|0
368,304,53862,6,0,B|248:304|248:304|184:224,1,200,4|8
144,152,54362,1,0
232,200,54529,2,0,B|208:256|128:256,1,100
56,104,54862,2,0,B|88:48|160:48,1,100,8|0
144,152,55195,6,0,B|232:208|232:208|352:208,1,200,0|8
392,128,55695,1,0
368,32,55862,1,0
320,48,55945,1,0
288,80,56029,1,0
264,120,56112,1,0
264,168,56195,2,0,B|264:232|320:272,1,100,8|0
368,184,56529,6,0,B|464:144|464:144|464:24,1,200,0|12
368,80,57029,2,0,B|256:80|256:80|176:144,1,200
88,152,57529,2,0,B|96:224|184:232,1,100,12|0
184,136,57862,5,8
272,72,58029,1,8
392,96,58195,1,8
464,208,58362,1,8
408,336,58529,1,8
408,336,58862,5,4
