osu file format v12

[General]
AudioFilename: 08.Akai Kage .mp3
AudioLeadIn: 2000
PreviewTime: 171525
Countdown: 0
SampleSet: Soft
StackLeniency: 0.7
Mode: 0
LetterboxInBreaks: 0

[Editor]
Bookmarks: 1609
DistanceSpacing: 0.9
BeatDivisor: 2
GridSize: 4

[Metadata]
Title:Akai Kage
TitleUnicode:紅い影
Artist:TAMUSIC
ArtistUnicode:TAMUSIC
Creator:eikkaleyd
Version:Normal
Source:Touhou
Tags:Ciel remilia flandre embodiment of scarlet devil koumakyou th06 tam Eastern Dream HEXAGRAM red shadow
BeatmapID:262882
BeatmapSetID:50920

[Difficulty]
HPDrainRate:4
CircleSize:4
OverallDifficulty:5
ApproachRate:5
SliderMultiplier:0.96
SliderTickRate:1

[Events]
//Background and Video events
0,0,"BG.jpg",0,0
//Break Periods
2,36854,43949
2,121809,128905
//Storyboard Layer 0 (Background)
//Storyboard Layer 1 (Fail)
//Storyboard Layer 2 (Pass)
//Storyboard Layer 3 (Foreground)
//Storyboard Sound Samples
//Background Colour Transformations
3,100,163,162,255

[TimingPoints]
548,530.973451327434,4,2,2,40,1,0
2671,-100,4,2,1,55,0,0
36654,-100,4,2,2,70,0,0
45149,-100,4,2,1,60,0,0
45282,-100,4,2,2,60,0,0
49397,-100,4,2,1,60,0,0
49530,-100,4,2,2,60,0,0
53645,-100,4,2,1,50,0,0
70636,-100,4,2,1,55,0,0
86565,-100,4,2,1,65,0,0
103822,-100,4,2,1,40,0,0
104618,-100,4,2,2,70,0,1
121609,-100,4,2,1,30,0,0
138067,-100,4,2,1,55,0,0
154530,-100,4,2,1,65,0,0
172052,-100,4,2,1,40,0,0
172583,-100,4,2,2,70,0,1
189574,-100,4,2,1,50,0,0
190636,-100,4,2,2,70,0,1
207627,-100,4,2,1,50,0,0

[Colours]
Combo1 : 170,0,170
Combo2 : 201,20,24
Combo3 : 254,177,227
Combo4 : 255,242,151
SliderBorder : 240,240,240

[HitObjects]
44,120,1609,1,0,0:0:0:0:
128,100,2140,1,0,0:0:0:0:
200,148,2671,2,0,B|236:188|252:228|252:228|304:232|360:204,1,192,4|2,0:0|0:0,0:0:0:0:
428,180,4264,1,0,0:0:0:0:
456,260,4795,2,0,B|372:324|268:328,1,192,8|2,0:0|0:0,0:0:0:0:
192,320,6388,5,0,0:0:0:0:
136,256,6919,2,0,B|116:208|134:154,2,96,4|0|2,0:0|0:0|0:0,0:0:0:0:
208,208,8512,1,0,0:0:0:0:
272,268,9043,2,0,B|384:268,1,96,8|0,0:0|0:0,0:0:0:0:
404,188,10105,6,0,B|304:188,2,96,2|0|4,0:0|0:0|0:0,0:0:0:0:
256,96,12229,2,0,B|356:96,2,96,2|0|8,0:0|0:0|0:0,0:0:0:0:
88,116,14353,5,2,0:0:0:0:
132,192,14884,1,0,0:0:0:0:
208,232,15415,1,4,0:0:0:0:
208,232,15680,2,0,B|199:285|247:321|308:293,1,144,0|2,0:0|0:0,0:0:0:0:
380,256,17008,1,0,0:0:0:0:
444,196,17539,2,0,B|484:96,2,96,8|0|2,0:0|0:0|0:0,0:0:0:0:
356,188,19132,5,8,0:0:0:0:
276,224,19663,2,0,B|208:140|92:132,1,192,4|2,0:0|0:0,0:0:0:0:
36,176,21255,1,0,0:0:0:0:
68,256,21786,2,0,B|136:340|252:348,1,192,8|2,0:0|0:0,0:0:0:0:
320,340,23379,5,0,0:0:0:0:
356,260,23910,2,0,B|408:244|436:192,1,96,4|0,0:0|0:0,0:0:0:0:
348,172,24972,2,0,B|380:132|376:60,2,96,2|0|8,0:0|0:0|0:0,0:0:0:0:
180,132,27096,1,2,0:0:0:0:
64,260,28158,6,0,B|92:308|136:336|200:336|252:292,1,192,4|2,0:0|0:0,0:0:0:0:
304,264,29751,1,0,0:0:0:0:
336,292,30017,1,0,0:0:0:0:
376,308,30282,2,0,B|424:280|452:236|452:172|408:120,1,192,8|2,0:0|0:0,0:0:0:0:
352,96,31875,1,0,0:0:0:0:
256,192,32406,12,4,36654,0:0:0:0:
108,60,45149,6,0,B|157:52|189:100,1,96,4|8,0:0|0:0,0:0:0:0:
276,100,46211,1,0,0:0:0:0:
304,68,46477,1,0,0:0:0:0:
348,60,46742,1,0,0:0:0:0:
352,144,47273,2,0,B|408:204|364:296|276:288,1,192,2|0,0:0|0:0,0:0:0:0:
212,280,48866,1,0,0:0:0:0:
140,232,49397,6,0,B|100:264|40:256,1,96,4|8,0:0|0:0,0:0:0:0:
76,172,50459,1,0,0:0:0:0:
60,132,50724,1,0,0:0:0:0:
76,92,50990,1,0,0:0:0:0:
152,132,51521,2,0,B|232:64|348:68,1,192,2|0,0:0|0:0,0:0:0:0:
368,84,52848,2,0,L|432:84,2,48
384,124,53645,6,0,B|392:200|328:252,1,144,8|0,0:0|0:0,0:0:0:0:
296,280,54707,1,8,0:0:0:0:
232,220,55238,1,0,0:0:0:0:
232,220,55503,2,0,B|176:172|92:180,1,144,8|0,0:0|0:0,0:0:0:0:
64,260,56831,5,0,0:0:0:0:
100,284,57096,2,0,L|100:336,2,48
144,284,57893,2,0,B|224:268|248:184,1,144,8|0,0:0|0:0,0:0:0:0:
284,172,58955,2,0,B|364:152|424:200,1,144,8|0,0:0|0:0,0:0:0:0:
460,216,60017,2,0,B|468:276|416:312,2,96,8|0|0,0:0|0:0|0:0,0:0:0:0:
436,132,61609,5,0,0:0:0:0:
352,160,62140,2,0,B|248:176|160:120,1,192,8|8,0:0|0:0,0:0:0:0:
96,76,63733,2,0,L|32:60,1,48,0|8,0:0|0:0,0:0:0:0:
40,152,64530,2,0,B|4:176|-8:216|4:252|40:272,1,144,8|0,0:0|0:0,0:0:0:0:
80,272,65592,2,0,L|80:328,2,48
116,248,66388,6,0,B|196:221|236:301,2,144,8|0|0,0:0|0:0|0:0,0:0:0:0:
128,164,68512,2,0,P|136:112|160:72,2,96,8|0|8,0:0|0:0|0:0,0:0:0:0:
204,204,70105,5,0,0:0:0:0:
228,168,70371,1,0,0:0:0:0:
264,144,70636,2,0,B|336:112|420:132,2,144,4|0|0,0:0|0:0|0:0,0:0:0:0:
328,204,72760,2,0,B|288:240|272:300,1,96,8|0,0:0|0:0,0:0:0:0:
232,356,73822,1,2,0:0:0:0:
160,304,74353,5,0,0:0:0:0:
136,268,74618,1,0,0:0:0:0:
152,228,74884,2,0,B|236:156|344:168,1,192,4|2,0:0|0:0,0:0:0:0:
396,112,76477,2,0,B|436:84|452:16,2,96,0|8|0,0:0|0:0|0:0,0:0:0:0:
456,172,78070,5,2,0:0:0:0:
392,228,78601,1,0,0:0:0:0:
308,248,79132,2,0,B|200:268|116:208,1,192,4|2,0:0|0:0,0:0:0:0:
196,104,80990,1,0,0:0:0:0:
232,80,81255,2,0,B|320:40|436:56,1,192,8|2,0:0|0:0,0:0:0:0:
400,140,82848,5,0,0:0:0:0:
380,224,83379,2,0,B|356:272|364:348,2,96,4|0|2,0:0|0:0|0:0,0:0:0:0:
312,168,84972,1,0,0:0:0:0:
276,192,85238,1,0,0:0:0:0:
236,208,85503,2,0,B|200:244|148:236,1,96,8|0,0:0|0:0,0:0:0:0:
80,184,86565,2,0,B|112:140|176:152,1,96,2|0,0:0|0:0,0:0:0:0:
236,100,87627,5,8,0:0:0:0:
316,68,88158,2,0,P|336:56|368:56,1,48
404,60,88689,1,2,0:0:0:0:
364,136,89220,1,0,0:0:0:0:
408,212,89751,2,0,B|424:268|372:328,2,96,8|0|2,0:0|0:0|0:0,0:0:0:0:
324,188,91344,5,0,0:0:0:0:
284,204,91609,1,0,0:0:0:0:
244,220,91875,2,0,B|156:272|60:220,1,192,4|2,0:0|0:0,0:0:0:0:
72,136,93468,2,0,L|124:132,1,48
164,128,93999,2,0,B|151:75|175:35,2,96,8|0|2,0:0|0:0|0:0,0:0:0:0:
240,88,95592,5,0,0:0:0:0:
324,68,96123,2,0,B|368:92|384:148|364:204|304:236,1,192,4|2,0:0|0:0,0:0:0:0:
244,272,97716,1,0,0:0:0:0:
160,292,98247,2,0,B|116:268|96:216|116:152|180:124,1,192,8|2,0:0|0:0,0:0:0:0:
228,192,99840,1,0,0:0:0:0:
288,256,100371,6,0,B|328:228|400:232,2,96,4|0|2,0:0|0:0|0:0,0:0:0:0:
208,284,101963,1,0,0:0:0:0:
132,244,102494,2,0,B|120:132|196:56,1,192,8|0,0:0|0:0,0:0:0:0:
248,128,104087,5,0,0:0:0:0:
292,132,104353,1,0,0:0:0:0:
332,148,104618,2,0,B|388:156|416:212,2,96,4|8|0,0:0|0:0|0:0,0:0:0:0:
324,236,106211,1,0,0:0:0:0:
324,236,106477,2,0,B|272:288|184:288,1,144,2|8,0:0|0:0,0:0:0:0:
108,284,107804,5,0,0:0:0:0:
92,244,108070,2,0,L|76:184,1,48
92,156,108601,1,0,0:0:0:0:
112,120,108866,2,0,B|92:72|116:20,1,96,2|8,0:0|0:0,0:0:0:0:
188,72,109928,2,0,B|244:72,2,48
188,116,110724,2,0,B|216:184|192:260,1,144,0|8,0:0|0:0,0:0:0:0:
236,332,112052,5,0,0:0:0:0:
280,332,112317,2,0,L|336:332,1,48
372,332,112848,1,0,0:0:0:0:
416,332,113114,2,0,B|416:220,1,96,4|8,0:0|0:0,0:0:0:0:
464,164,114176,2,0,L|528:164,2,48
424,148,114972,2,0,B|360:108|280:120,1,144,2|8,0:0|0:0,0:0:0:0:
204,96,116300,5,0,0:0:0:0:
160,96,116565,2,0,L|96:96,1,48
80,124,117096,2,0,B|60:172|84:228,1,96,2|8,0:0|0:0,0:0:0:0:
112,244,117893,1,8,0:0:0:0:
176,304,118424,2,0,P|204:296|228:280,1,48
256,260,118955,1,0,0:0:0:0:
256,216,119220,6,0,B|256:112,1,96,2|0,0:0|0:0,0:0:0:0:
216,104,120017,1,8,0:0:0:0:
180,80,120282,2,0,B|216:12|300:12|336:84,1,192
352,120,121609,1,0,0:0:0:0:
164,88,130105,6,0,B|112:128|112:224|164:264,1,192,2|2,0:0|0:0,0:0:0:0:
328,296,132229,2,0,B|380:256|380:160|328:120,1,192,2|2,0:0|0:0,0:0:0:0:
224,256,134353,6,0,B|174:235|154:187,1,96,2|0,0:0|0:0,0:0:0:0:
72,208,135415,2,0,B|60:148|116:112,1,96,2|0,0:0|0:0,0:0:0:0:
52,52,136477,2,0,B|104:24|160:48,2,96,2|0|2,0:0|0:0|0:0,0:0:0:0:
104,120,138070,5,0,0:0:0:0:
140,144,138335,1,0,0:0:0:0:
176,168,138601,2,0,B|228:204|284:208|284:208|308:168|376:160,1,192,4|2,0:0|0:0,0:0:0:0:
432,160,140194,1,0,0:0:0:0:
448,76,140724,2,0,B|400:40|340:60,2,96,8|0|2,0:0|0:0|0:0,0:0:0:0:
388,140,142317,5,0,0:0:0:0:
372,180,142583,1,0,0:0:0:0:
348,216,142848,2,0,B|256:216|256:216|232:164|172:144,1,192,4|2,0:0|0:0,0:0:0:0:
120,204,144441,1,0,0:0:0:0:
32,204,144972,2,0,B|32:304,2,96,8|0|2,0:0|0:0|0:0,0:0:0:0:
108,160,146565,1,0,0:0:0:0:
188,192,147096,5,4,0:0:0:0:
188,192,147362,2,0,B|168:240|188:300|244:320,1,144,0|2,0:0|0:0,0:0:0:0:
316,296,148689,1,0,0:0:0:0:
364,224,149220,5,8,0:0:0:0:
364,224,149486,2,0,B|384:176|364:116|308:96,1,144,0|2,0:0|0:0,0:0:0:0:
232,112,150813,1,0,0:0:0:0:
156,156,151344,6,0,B|112:124|120:60,2,96,4|0|2,0:0|0:0|0:0,0:0:0:0:
208,228,152937,1,0,0:0:0:0:
244,200,153202,1,0,0:0:0:0:
280,176,153468,2,0,B|324:208|316:272,2,96,8|0|2,0:0|0:0|0:0,0:0:0:0:
328,104,155061,5,0,0:0:0:0:
416,104,155592,2,0,B|468:148|468:232|416:280,1,192,4|2,0:0|0:0,0:0:0:0:
340,240,157185,1,0,0:0:0:0:
312,272,157450,1,0,0:0:0:0:
276,296,157716,2,0,B|236:328|184:320,2,96,8|0|2,0:0|0:0|0:0,0:0:0:0:
216,236,159309,6,0,L|164:236,1,48
124,236,159840,2,0,B|72:192|72:104|124:60,1,192,4|2,0:0|0:0,0:0:0:0:
200,100,161432,1,0,0:0:0:0:
268,152,161963,2,0,B|376:152,2,96,8|0|2,0:0|0:0|0:0,0:0:0:0:
268,240,163556,5,0,0:0:0:0:
188,276,164087,2,0,B|219:344|328:344|359:258,1,192,4|2,0:0|0:0,0:0:0:0:
348,196,165680,1,0,0:0:0:0:
428,160,166211,2,0,B|396:91|292:92|268:168,1,192,8|2,0:0|0:0,0:0:0:0:
188,156,167804,5,0,0:0:0:0:
116,204,168335,2,0,B|112:253|144:297,1,96,4|0,0:0|0:0,0:0:0:0:
208,240,169397,2,0,B|260:272|328:256,1,96
384,248,170459,1,0,0:0:0:0:
220,108,171786,6,0,L|196:56,2,48
196,144,172583,2,0,B|144:128|100:160,1,96,4|8,0:0|0:0,0:0:0:0:
160,220,173645,2,0,L|168:272,1,48
208,280,174176,1,0,0:0:0:0:
252,280,174441,2,0,B|328:296|392:240,1,144,2|8,0:0|0:0,0:0:0:0:
452,192,175769,5,0,0:0:0:0:
440,152,176034,2,0,L|428:92,1,48
388,92,176565,1,0,0:0:0:0:
348,104,176831,2,0,B|307:76|319:18,1,96,2|8,0:0|0:0,0:0:0:0:
240,48,177893,5,0,0:0:0:0:
200,64,178158,2,0,L|144:52,1,48
124,88,178689,2,0,B|100:132|120:200,1,96,2|0,0:0|0:0,0:0:0:0:
140,216,179486,1,8,0:0:0:0:
228,216,180017,6,0,L|288:216,2,48
228,260,180813,1,0,0:0:0:0:
228,304,181078,2,0,B|272:332|344:332,2,96,4|8|0,0:0|0:0|0:0,0:0:0:0:
160,252,182671,1,0,0:0:0:0:
160,208,182937,2,0,B|232:176|312:212,1,144,2|8,0:0|0:0,0:0:0:0:
368,260,184264,5,0,0:0:0:0:
404,236,184530,2,0,L|396:180,1,48
416,152,185061,2,0,B|376:116|316:132|300:188,1,144,2|8,0:0|0:0,0:0:0:0:
268,264,186388,1,0,0:0:0:0:
228,244,186654,1,0,0:0:0:0:
212,204,186919,2,0,P|172:228|120:232,1,96,0|2,0:0|0:0,0:0:0:0:
44,204,187981,1,8,0:0:0:0:
256,192,188247,12,0,189574,0:0:0:0:
144,144,190636,6,0,B|180:96|240:92,1,96,4|8,0:0|0:0,0:0:0:0:
308,72,191698,2,0,B|348:20,2,48
344,96,192494,2,0,B|400:140|404:228,1,144,2|8,0:0|0:0,0:0:0:0:
348,288,193822,5,0,0:0:0:0:
320,256,194087,2,0,L|296:204,2,48
280,276,194884,2,0,B|240:300|184:300,1,96,2|8,0:0|0:0,0:0:0:0:
104,292,195946,5,0,0:0:0:0:
108,248,196211,2,0,B|112:216|100:192,1,48
92,160,196742,2,0,P|132:120|172:108,1,96,2|0,0:0|0:0,0:0:0:0:
212,108,197539,1,8,0:0:0:0:
176,188,198070,6,0,B|220:212|276:200,1,96,0|0,0:0|0:0,0:0:0:0:
336,148,199132,2,0,B|369:180|354:237,1,96,4|8,0:0|0:0,0:0:0:0:
276,276,200194,2,0,L|288:328,2,48
240,252,200990,2,0,L|92:252,1,144,2|8,0:0|0:0,0:0:0:0:
64,172,202317,5,0,0:0:0:0:
108,172,202583,2,0,L|176:172,1,48
200,172,203114,2,0,B|240:140|232:64|176:48,1,144,2|8,0:0|0:0,0:0:0:0:
132,120,204441,5,0,0:0:0:0:
108,156,204707,2,0,L|120:212,1,48
152,232,205238,2,0,B|232:232|276:296,1,144,2|8,0:0|0:0,0:0:0:0:
304,328,206300,1,8,0:0:0:0:
368,272,206831,2,0,L|372:208,2,48
256,192,207627,12,0,209751,0:0:0:0:
