osu file format v12

[General]
AudioFilename: 08.Akai Kage .mp3
AudioLeadIn: 2000
PreviewTime: 171525
Countdown: 0
SampleSet: Soft
StackLeniency: 0.7
Mode: 0
LetterboxInBreaks: 0

[Editor]
DistanceSpacing: 0.9
BeatDivisor: 4
GridSize: 4

[Metadata]
Title:Akai Kage
TitleUnicode:紅い影
Artist:TAMUSIC
ArtistUnicode:TAMUSIC
Creator:eikkaleyd
Version:Hard
Source:Touhou
Tags:Ciel remilia flandre embodiment of scarlet devil koumakyou th06 tam Eastern Dream HEXAGRAM red shadow
BeatmapID:159552
BeatmapSetID:50920

[Difficulty]
HPDrainRate:6
CircleSize:4
OverallDifficulty:7
ApproachRate:8
SliderMultiplier:2
SliderTickRate:1

[Events]
//Background and Video events
0,0,"BG.jpg",0,0
//Break Periods
2,36854,44399
2,121809,129355
//Storyboard Layer 0 (Background)
//Storyboard Layer 1 (Fail)
//Storyboard Layer 2 (Pass)
//Storyboard Layer 3 (Foreground)
//Storyboard Sound Samples
//Background Colour Transformations
3,100,163,162,255

[TimingPoints]
548,530.973451327434,4,2,2,60,1,0
1609,-153.846153846154,4,2,2,40,0,0
2671,-100,4,2,1,55,0,0
18601,-153.846153846154,4,2,1,55,0,0
19132,-100,4,2,1,55,0,0
23910,-153.846153846154,4,2,1,55,0,0
24441,-100,4,2,1,55,0,0
34132,-100,4,2,1,5,0,0
34397,-100,4,2,1,55,0,0
36521,-100,4,2,2,70,0,0
45149,-100,4,2,1,60,0,0
45282,-100,4,2,2,60,0,0
49397,-100,4,2,1,60,0,0
49530,-100,4,2,2,60,0,0
53645,-133.333333333333,4,2,1,50,0,0
70636,-133.333333333333,4,2,1,55,0,0
86565,-153.846153846154,4,2,1,65,0,0
87096,-133.333333333333,4,2,1,65,0,0
102494,-100,4,2,1,40,0,0
104618,-100,4,2,2,70,0,1
121609,-100,4,2,1,30,0,0
138067,-133.333333333333,4,2,1,55,0,0
154530,-153.846153846154,4,2,1,65,0,0
155061,-133.333333333333,4,2,1,65,0,0
172052,-100,4,2,1,40,0,0
172583,-100,4,2,2,70,0,1
189574,-100,4,2,1,50,0,0
190636,-100,4,2,2,70,0,1
207627,-100,4,2,1,50,0,0

[Colours]
Combo1 : 170,0,170
Combo2 : 201,20,24
Combo3 : 254,177,227
Combo4 : 255,242,151
SliderBorder : 240,240,240

[HitObjects]
200,120,1609,22,0,B|123:139|102:214,1,129.999997675419
384,312,2671,6,0,B|452:256|428:168,1,150,4|0,0:0|0:0,0:0:0:0:
400,140,3202,1,0,0:0:0:0:
308,216,3468,1,0,0:0:0:0:
308,216,3733,2,0,B|224:208|172:288,1,150,2|0,0:0|0:0,0:0:0:0:
160,320,4264,2,0,B|128:260|56:256,1,100
132,144,4795,5,8,0:0:0:0:
208,108,5061,2,0,B|304:128,2,100
348,56,5857,2,0,B|388:84|400:140|364:192,1,150,2|0,0:0|0:0,0:0:0:0:
440,212,6388,2,0,B|424:268|368:268,1,100
248,256,6919,5,4,0:0:0:0:
248,256,7185,2,0,P|252:304|304:344,1,100
152,200,7716,1,0,0:0:0:0:
152,200,7981,2,0,B|160:312,1,100,2|0,0:0|0:0,0:0:0:0:
80,80,8512,2,0,B|48:176,1,100
40,208,8910,1,0,0:0:0:0:
64,236,9043,6,0,B|96:196|156:200,1,100,8|0,0:0|0:0,0:0:0:0:
416,176,9574,2,0,B|384:216|324:212,1,100
344,124,10105,1,2,0:0:0:0:
424,84,10371,1,0,0:0:0:0:
500,132,10636,1,0,0:0:0:0:
500,220,10901,1,0,0:0:0:0:
460,300,11167,6,0,B|372:352|260:344,1,200,4|0,0:0|0:0,0:0:0:0:
212,276,11963,1,0,0:0:0:0:
248,192,12229,2,0,B|337:143|449:155,1,200,2|0,0:0|0:0,0:0:0:0:
500,220,13025,1,0,0:0:0:0:
404,76,13291,6,0,B|376:28|316:24,2,100,8|0|0,0:0|0:0|0:0,0:0:0:0:
316,124,14087,1,0,0:0:0:0:
292,128,14220,1,0,0:0:0:0:
268,136,14353,2,0,B|224:164|168:160,1,100,2|0,0:0|0:0,0:0:0:0:
80,272,14884,2,0,B|120:244|176:250,1,100,0|0,0:0|0:0,0:0:0:0:
320,300,15415,5,4,0:0:0:0:
320,300,15680,2,0,B|282:329|226:329,2,100
268,240,16477,2,0,B|324:204|380:220|412:268|392:324,1,200,2|0,0:0|0:0,0:0:0:0:
476,246,17273,5,0,0:0:0:0:
476,246,17406,1,0,0:0:0:0:
477,247,17539,2,0,B|429:147,1,100
369,219,18070,2,0,B|325:128,1,100
261,182,18601,6,0,B|193:46,1,129.999997675419,2|0,0:0|0:0,0:0:0:0:
112,76,19397,1,0,0:0:0:0:
40,132,19663,2,0,B|32:216|92:268,1,150,4|0,0:0|0:0,0:0:0:0:
132,288,20194,1,0,0:0:0:0:
128,168,20459,1,0,0:0:0:0:
128,168,20724,2,0,B|168:208|216:216,1,100,2|0,0:0|0:0,0:0:0:0:
212,124,21255,2,0,B|264:140|320:120,1,100
300,32,21786,6,0,B|356:16|408:56|404:116,1,150,8|0,0:0|0:0,0:0:0:0:
380,148,22317,1,0,0:0:0:0:
452,204,22583,1,0,0:0:0:0:
416,288,22848,2,0,B|312:288,1,100,2|0,0:0|0:0,0:0:0:0:
264,204,23379,2,0,B|364:204,1,100
316,120,23910,6,0,B|164:120,1,129.999997675419,4|0,0:0|0:0,0:0:0:0:
96,120,24707,1,0,0:0:0:0:
72,208,24972,1,2,0:0:0:0:
148,256,25238,1,0,0:0:0:0:
216,200,25503,1,0,0:0:0:0:
188,116,25769,1,0,0:0:0:0:
200,104,25901,1,0,0:0:0:0:
224,100,26034,6,0,B|264:136|340:136,1,100,8|0,0:0|0:0,0:0:0:0:
404,132,26565,1,0,0:0:0:0:
332,296,27096,1,2,0:0:0:0:
380,220,27362,1,0,0:0:0:0:
404,132,27627,1,0,0:0:0:0:
392,44,27893,1,0,0:0:0:0:
316,92,28158,6,0,B|328:144|308:204|248:240|176:232,1,200,4|0,0:0|0:0,0:0:0:0:
164,312,28955,1,0,0:0:0:0:
164,312,29087,1,0,0:0:0:0:
164,312,29220,2,0,B|96:284|96:184|168:152,1,200,2|0,0:0|0:0,0:0:0:0:
174,63,30017,2,0,B|219:90|283:83,1,100,0|8,0:0|0:0,0:0:0:0:
448,160,30813,5,0,0:0:0:0:
420,256,31344,1,2,0:0:0:0:
320,268,31875,1,0,0:0:0:0:
256,192,32406,1,4,0:0:0:0:
256,192,32539,12,0,34264,0:0:0:0:
256,192,34530,12,4,36654,0:0:0:0:
352,100,45149,6,0,B|400:128|400:196,1,100,4|0,0:0|0:0,0:0:0:0:
372,268,45680,1,8,0:0:0:0:
296,320,45946,1,0,0:0:0:0:
264,316,46078,1,0,0:0:0:0:
232,304,46211,2,0,B|184:276|172:216,2,100,0|0|0,0:0|0:0|0:0,0:0:0:0:
252,204,47008,5,0,0:0:0:0:
252,204,47140,1,0,0:0:0:0:
252,204,47273,2,0,B|268:156|260:116|260:116|284:64|364:52,1,200,2|8,0:0|0:0,0:0:0:0:
376,140,48070,1,0,0:0:0:0:
204,276,48335,1,0,0:0:0:0:
132,196,48601,1,0,0:0:0:0:
132,196,48733,1,0,0:0:0:0:
132,196,48866,2,0,B|172:160|180:100,1,100
44,232,49397,6,0,B|68:284|140:296,1,100,4|8,0:0|0:0,0:0:0:0:
216,296,49928,1,8,0:0:0:0:
216,296,50061,1,0,0:0:0:0:
216,296,50194,1,0,0:0:0:0:
328,260,50459,2,0,B|316:204|328:160,1,100
408,104,50990,2,0,B|420:160|408:204,1,100
292,320,51521,5,2,0:0:0:0:
196,264,51786,1,0,0:0:0:0:
164,160,52052,1,8,0:0:0:0:
216,64,52317,1,0,0:0:0:0:
320,24,52583,1,0,0:0:0:0:
288,152,52848,2,0,B|276:208|288:252,2,100
372,204,53645,6,0,B|364:252|412:292,1,74.9999977648259,8|0,0:0|0:0,0:0:0:0:
460,320,54176,1,0,0:0:0:0:
300,288,54441,1,0,0:0:0:0:
280,288,54574,1,0,0:0:0:0:
264,280,54707,2,0,B|220:276|204:216,1,74.9999977648259,8|0,0:0|0:0,0:0:0:0:
284,196,55238,1,0,0:0:0:0:
176,48,55503,6,0,B|148:80|136:136,1,74.9999977648259,0|8,0:0|0:0,0:0:0:0:
224,176,56034,2,0,B|252:144|260:100,1,74.9999977648259
120,68,56565,2,0,B|101:106|104:163,1,74.9999977648259,0|8,0:0|0:0,0:0:0:0:
260,192,57096,6,0,B|278:153|275:96,1,74.9999977648259
216,264,57627,1,0,0:0:0:0:
136,288,57893,2,0,B|172:356|264:340,1,149.999995529652,8|0,0:0|0:0,0:0:0:0:
348,316,58689,5,0,0:0:0:0:
332,208,58955,2,0,B|376:216|400:260,2,74.9999977648259,8|0|0,0:0|0:0|0:0,0:0:0:0:
252,176,59751,2,0,B|268:144|300:120|348:120|384:144,1,149.999995529652,8|0,0:0|0:0,0:0:0:0:
460,168,60548,1,0,0:0:0:0:
488,92,60813,1,0,0:0:0:0:
124,172,61344,5,0,0:0:0:0:
112,184,61477,1,0,0:0:0:0:
116,200,61609,2,0,B|128:240|108:276,1,74.9999977648259,0|8,0:0|0:0,0:0:0:0:
124,356,62140,2,0,B|168:348|192:300,1,74.9999977648259,8|0,0:0|0:0,0:0:0:0:
216,240,62671,1,0,0:0:0:0:
292,48,62937,1,0,0:0:0:0:
264,128,63202,2,0,B|240:216|284:284,1,149.999995529652,8|0,0:0|0:0,0:0:0:0:
188,368,63999,2,0,B|212:280|168:212,1,149.999995529652,8|0,0:0|0:0,0:0:0:0:
144,140,64795,1,0,0:0:0:0:
300,288,65061,5,0,0:0:0:0:
308,272,65194,1,0,0:0:0:0:
316,256,65326,1,0,0:0:0:0:
344,180,65592,2,0,P|376:164|400:124,1,75.0000028610231
380,52,66123,1,0,0:0:0:0:
312,100,66388,2,0,P|264:120|236:176,1,112.500004291535,8|0,0:0|0:0,0:0:0:0:
240,204,66919,5,0,0:0:0:0:
204,284,67185,2,0,B|174:312|128:306,1,74.9999977648259,0|8,0:0|0:0,0:0:0:0:
44,300,67716,1,0,0:0:0:0:
96,224,67981,1,0,0:0:0:0:
88,136,68247,1,0,0:0:0:0:
32,64,68512,5,8,0:0:0:0:
104,116,68778,1,0,0:0:0:0:
192,132,69043,1,0,0:0:0:0:
284,128,69309,1,0,0:0:0:0:
372,104,69574,2,0,B|340:184,1,74.9999977648259,8|0,0:0|0:0,0:0:0:0:
368,304,70105,6,0,B|400:224,1,74.9999977648259,0|0,0:0|0:0,0:0:0:0:
284,328,70636,1,4,0:0:0:0:
208,344,70901,1,0,0:0:0:0:
148,292,71167,1,0,0:0:0:0:
184,216,71432,2,0,B|196:260|232:276,2,74.9999977648259,0|2|0,0:0|0:0|0:0,0:0:0:0:
276,136,72229,2,0,B|284:180|248:212,1,74.9999977648259
260,60,72760,6,0,B|304:52|336:88,1,74.9999977648259,8|0,0:0|0:0,0:0:0:0:
328,192,73291,1,0,0:0:0:0:
276,136,73556,1,0,0:0:0:0:
228,276,73822,1,2,0:0:0:0:
256,208,74087,1,0,0:0:0:0:
104,240,74353,5,0,0:0:0:0:
176,224,74618,1,0,0:0:0:0:
104,164,74884,2,0,B|64:160|32:192|24:232,1,112.500004291535,4|0,0:0|0:0,0:0:0:0:
32,264,75415,1,0,0:0:0:0:
140,312,75680,2,0,B|228:296,1,74.9999977648259,0|2,0:0|0:0,0:0:0:0:
244,193,76211,2,0,B|176:224,1,74.9999977648259
192,136,76742,1,0,0:0:0:0:
192,136,76875,1,0,0:0:0:0:
192,136,77008,2,0,B|254:74,2,74.9999977648259,8|0|0,0:0|0:0|0:0,0:0:0:0:
328,312,77804,5,0,0:0:0:0:
272,256,78070,2,0,B|256:220|272:180,1,74.9999977648259,2|0,0:0|0:0,0:0:0:0:
373,146,78601,2,0,B|388:184|372:220,1,74.9999977648259
320,88,79132,1,4,0:0:0:0:
320,88,79397,2,0,B|272:56|236:104|236:104|100:136|188:80|196:168,1,224.999993294478,0|2,0:0|0:0,0:0:0:0:
244,216,80459,1,0,0:0:0:0:
288,284,80724,1,0,0:0:0:0:
224,336,80990,5,0,0:0:0:0:
176,264,81255,1,8,0:0:0:0:
176,264,81521,2,0,B|152:208|188:160|188:160|112:180|80:120,1,224.999993294478,0|2,0:0|0:0,0:0:0:0:
152,84,82583,1,0,0:0:0:0:
232,96,82848,1,0,0:0:0:0:
300,52,83114,1,0,0:0:0:0:
340,128,83379,6,0,B|320:168|340:220,1,74.9999977648259,4|0,0:0|0:0,0:0:0:0:
248,288,83910,2,0,B|268:248|252:212,1,74.9999977648259,0|0,0:0|0:0,0:0:0:0:
168,340,84441,1,2,0:0:0:0:
104,288,84707,2,0,B|72:212,2,74.9999977648259
188,212,85503,6,0,B|168:180|188:140,1,74.9999977648259,8|0,0:0|0:0,0:0:0:0:
324,140,86034,2,0,B|344:180|312:236,1,74.9999977648259,0|0,0:0|0:0,0:0:0:0:
256,308,86565,2,0,B|256:172,1,129.999997675419,2|0,0:0|0:0,0:0:0:0:
112,72,87627,6,0,B|80:112|80:184,1,112.499996647239,4|0,0:0|0:0,0:0:0:0:
64,220,88158,2,0,B|104:204|144:208,1,74.9999977648259
220,216,88689,1,2,0:0:0:0:
348,312,88955,5,0,0:0:0:0:
348,312,89087,1,0,0:0:0:0:
348,312,89220,2,0,B|320:268|324:224,1,74.9999977648259
356,88,89751,2,0,B|384:132|380:176,1,74.9999977648259,8|0,0:0|0:0,0:0:0:0:
412,288,90282,2,0,B|365:263|347:223,1,74.9999977648259
288,104,90813,2,0,B|334:128|352:168,1,74.9999977648259,2|0,0:0|0:0,0:0:0:0:
300,276,91344,5,0,0:0:0:0:
368,228,91609,1,0,0:0:0:0:
392,148,91875,2,0,B|420:176|460:180,1,74.9999977648259,4|0,0:0|0:0,0:0:0:0:
380,72,92406,5,0,0:0:0:0:
324,136,92671,1,0,0:0:0:0:
424,64,92937,1,2,0:0:0:0:
280,128,93202,1,0,0:0:0:0:
464,92,93468,1,0,0:0:0:0:
252,88,93733,1,0,0:0:0:0:
252,88,93866,1,0,0:0:0:0:
252,88,93999,2,0,B|160:96|152:184,2,149.999995529652,8|0|2,0:0|0:0|0:0,0:0:0:0:
340,96,95326,1,0,0:0:0:0:
248,328,95592,6,0,B|280:300|288:248,1,74.9999977648259
368,276,96123,2,0,B|380:220|328:168|268:184,1,149.999995529652,4|0,0:0|0:0,0:0:0:0:
200,208,96919,1,0,0:0:0:0:
136,264,97185,5,2,0:0:0:0:
72,208,97450,2,0,P|12:160|4:88,1,150.000005722046,0|0,0:0|0:0,0:0:0:0:
108,112,98247,2,0,B|136:12,1,75.0000028610231,8|0,0:0|0:0,0:0:0:0:
220,92,98778,2,0,B|192:192,1,75.0000028610231
273,262,99309,6,0,P|272:204|304:164,1,112.500004291535,2|0,0:0|0:0,0:0:0:0:
376,144,99840,2,0,B|383:183|359:215,1,75.0000028610231
152,304,100371,2,0,B|140:260|160:231,1,74.9999977648259,4|0,0:0|0:0,0:0:0:0:
212,168,100901,1,0,0:0:0:0:
288,136,101167,1,0,0:0:0:0:
364,100,101432,2,0,B|376:144|355:172,1,74.9999977648259,2|0,0:0|0:0,0:0:0:0:
304,236,101963,1,0,0:0:0:0:
228,268,102229,1,0,0:0:0:0:
144,340,102494,6,0,B|108:296|124:240,1,100,8|0,0:0|0:0,0:0:0:0:
100,140,103025,2,0,L|8:192,2,100
256,192,103822,1,0,0:0:0:0:
256,192,103955,1,0,0:0:0:0:
256,192,104087,2,0,B|240:136|172:120,1,100,0|0,0:0|0:0,0:0:0:0:
152,264,104618,6,0,B|168:320|236:336,1,100,4|0,0:0|0:0,0:0:0:0:
308,340,105149,1,8,0:0:0:0:
348,128,105415,1,0,0:0:0:0:
344,144,105548,1,0,0:0:0:0:
328,152,105680,2,0,B|292:188|228:184,1,100,0|0,0:0|0:0,0:0:0:0:
256,96,106211,1,0,0:0:0:0:
328,44,106477,6,0,B|383:40|419:76,1,100,0|2,0:0|0:0,0:0:0:0:
460,156,107008,1,0,0:0:0:0:
420,236,107273,2,0,B|384:272|328:268,1,100,8|0,0:0|0:0,0:0:0:0:
244,236,107804,1,0,0:0:0:0:
184,168,108070,1,0,0:0:0:0:
152,200,108202,1,0,0:0:0:0:
164,244,108335,1,0,0:0:0:0:
220,308,108601,1,0,0:0:0:0:
248,124,108866,5,2,0:0:0:0:
252,216,109132,2,0,L|304:236,2,50,8|0|0,0:0|0:0|0:0,0:0:0:0:
364,320,109663,1,0,0:0:0:0:
440,184,109928,1,0,0:0:0:0:
448,272,110194,2,0,B|396:268|352:216,1,100
412,360,110724,2,0,B|312:320|272:224,1,200
244,136,111521,5,8,0:0:0:0:
230,143,111654,1,0,0:0:0:0:
217,150,111786,1,0,0:0:0:0:
202,153,111919,1,0,0:0:0:0:
187,153,112052,1,0,0:0:0:0:
188,60,112317,1,0,0:0:0:0:
112,108,112583,2,0,B|75:65|15:81,1,100
48,208,113114,6,0,B|72:256|128:272|180:240,1,150,4|0,0:0|0:0,0:0:0:0:
216,220,113645,1,8,0:0:0:0:
212,324,113910,1,0,0:0:0:0:
228,320,114043,1,0,0:0:0:0:
244,316,114176,2,0,B|304:304|332:248,2,100
312,180,114972,2,0,B|368:176|408:212|424:264|384:320,1,200,2|0,0:0|0:0,0:0:0:0:
360,108,115769,5,8,0:0:0:0:
432,140,116034,1,0,0:0:0:0:
476,208,116300,1,0,0:0:0:0:
248,204,116565,1,0,0:0:0:0:
248,204,116698,1,0,0:0:0:0:
248,204,116831,1,0,0:0:0:0:
155,158,117096,2,0,B|129:206|164:268,1,100,2|0,0:0|0:0,0:0:0:0:
343,255,117627,2,0,B|368:204|340:144,1,100,8|8,0:0|0:0,0:0:0:0:
248,204,118158,5,0,0:0:0:0:
248,204,118291,1,0,0:0:0:0:
248,204,118424,2,0,B|248:92,2,100
176,288,119220,2,0,B|221:317|273:317|321:289,1,150,0|2,0:0|0:0,0:0:0:0:
352,260,119751,1,0,0:0:0:0:
332,172,120017,1,8,0:0:0:0:
256,192,120282,12,0,121609,0:0:0:0:
136,96,130105,5,4,0:0:0:0:
88,172,130371,1,0,0:0:0:0:
212,160,130636,1,0,0:0:0:0:
196,268,130901,1,0,0:0:0:0:
304,152,131167,1,0,0:0:0:0:
348,276,131432,1,0,0:0:0:0:
368,76,131698,1,0,0:0:0:0:
492,188,131963,1,0,0:0:0:0:
288,32,132229,5,4,0:0:0:0:
368,76,132494,1,0,0:0:0:0:
324,156,132760,1,0,0:0:0:0:
244,112,133025,1,0,0:0:0:0:
288,32,133291,1,0,0:0:0:0:
324,156,133556,1,0,0:0:0:0:
196,180,133822,1,0,0:0:0:0:
160,56,134087,1,0,0:0:0:0:
288,32,134353,5,4,0:0:0:0:
364,80,134618,1,0,0:0:0:0:
372,168,134884,1,0,0:0:0:0:
308,228,135149,1,0,0:0:0:0:
220,216,135415,1,0,0:0:0:0:
164,148,135680,1,0,0:0:0:0:
220,76,135946,1,0,0:0:0:0:
280,144,136211,1,0,0:0:0:0:
248,228,136477,5,4,0:0:0:0:
172,280,136742,1,0,0:0:0:0:
80,280,137008,1,0,0:0:0:0:
28,208,137273,1,0,0:0:0:0:
56,124,137539,1,0,0:0:0:0:
304,328,138070,6,0,B|348:312|360:244,1,74.9999977648259
440,232,138601,2,0,P|392:200|376:136,1,112.500004291535,4|0,0:0|0:0,0:0:0:0:
380,116,139132,1,0,0:0:0:0:
300,156,139397,2,0,B|272:188|228:192,1,74.9999977648259,0|2,0:0|0:0,0:0:0:0:
184,264,139928,2,0,B|172:220|128:196,1,74.9999977648259
20,152,140459,5,0,0:0:0:0:
20,152,140592,1,0,0:0:0:0:
20,152,140724,2,0,B|64:144|88:112,1,74.9999977648259,8|0,0:0|0:0,0:0:0:0:
140,48,141255,1,0,0:0:0:0:
228,68,141521,1,0,0:0:0:0:
236,156,141786,1,2,0:0:0:0:
152,192,142052,1,0,0:0:0:0:
236,332,142317,6,0,B|208:296|236:236,1,74.9999977648259
304,32,142848,2,0,B|336:88|304:140,1,112.500004291535,4|0,0:0|0:0,0:0:0:0:
288,168,143379,1,0,0:0:0:0:
220,228,143645,2,0,B|248:253|296:256,1,74.9999977648259,0|2,0:0|0:0,0:0:0:0:
376,240,144176,1,0,0:0:0:0:
236,68,144441,5,0,0:0:0:0:
236,68,144574,1,0,0:0:0:0:
236,68,144707,2,0,B|212:108|212:164,1,74.9999977648259,0|8,0:0|0:0,0:0:0:0:
100,200,145238,2,0,B|124:160|124:104,1,74.9999977648259
52,272,145769,1,0,0:0:0:0:
108,344,146034,1,2,0:0:0:0:
192,312,146300,1,0,0:0:0:0:
188,224,146565,1,0,0:0:0:0:
252,164,146831,5,0,0:0:0:0:
292,84,147096,1,4,0:0:0:0:
276,172,147362,2,0,B|296:212|348:224,1,75.0000028610231
428,228,147893,1,0,0:0:0:0:
328,364,148158,2,0,B|372:340|384:276,1,74.9999977648259,2|0,0:0|0:0,0:0:0:0:
296,272,148689,1,0,0:0:0:0:
220,208,148955,5,0,0:0:0:0:
132,216,149220,1,8,0:0:0:0:
216,188,149486,2,0,B|232:144|216:104,1,75.0000028610231
300,72,150017,2,0,B|287:101|303:145,1,75.0000028610231,0|2,0:0|0:0,0:0:0:0:
368,252,150548,2,0,B|384:208|368:172,2,75.0000028610231
460,280,151344,5,4,0:0:0:0:
380,340,151609,1,0,0:0:0:0:
284,308,151875,1,0,0:0:0:0:
264,212,152140,1,0,0:0:0:0:
348,156,152406,1,2,0:0:0:0:
320,60,152671,1,0,0:0:0:0:
228,24,152937,1,0,0:0:0:0:
144,76,153202,5,0,0:0:0:0:
144,76,153335,1,0,0:0:0:0:
144,76,153468,2,0,B|156:136|196:168,1,74.9999977648259,8|0,0:0|0:0,0:0:0:0:
120,204,153999,2,0,B|155:246|214:247,1,74.9999977648259
152,324,154530,2,0,B|220:348|284:308,1,129.999997675419,2|0,0:0|0:0,0:0:0:0:
356,280,155326,1,0,0:0:0:0:
408,216,155592,6,0,B|348:204|320:124,1,112.499996647239,4|0,0:0|0:0,0:0:0:0:
312,72,156123,2,0,B|308:116|272:144,1,74.9999977648259
200,156,156654,1,2,0:0:0:0:
120,140,156919,1,0,0:0:0:0:
68,76,157185,5,0,0:0:0:0:
76,180,157450,1,0,0:0:0:0:
144,260,157716,1,8,0:0:0:0:
244,288,157981,1,0,0:0:0:0:
260,296,158114,1,0,0:0:0:0:
280,296,158247,2,0,B|320:272|368:284,1,74.9999977648259
264,168,158778,2,0,B|224:180|191:152,1,74.9999977648259,2|0,0:0|0:0,0:0:0:0:
348,164,159309,5,0,0:0:0:0:
444,272,159574,1,0,0:0:0:0:
392,76,159840,2,0,B|432:96|452:152,1,74.9999977648259,4|0,0:0|0:0,0:0:0:0:
304,252,160371,2,0,B|264:232|244:176,1,74.9999977648259
240,104,160901,1,2,0:0:0:0:
136,272,161167,1,0,0:0:0:0:
224,212,161432,1,0,0:0:0:0:
240,104,161698,5,0,0:0:0:0:
240,104,161831,1,0,0:0:0:0:
240,104,161963,2,0,B|304:64|400:80,2,149.999995529652,8|0|2,0:0|0:0|0:0,0:0:0:0:
156,144,163291,1,0,0:0:0:0:
240,316,163556,6,0,B|252:276|232:232,1,74.9999977648259
292,56,164087,2,0,B|272:112|292:176,1,112.500004291535,4|0,0:0|0:0,0:0:0:0:
300,200,164618,1,0,0:0:0:0:
352,260,164884,1,0,0:0:0:0:
276,228,165149,2,0,B|244:204|192:208,1,74.9999977648259,2|0,0:0|0:0,0:0:0:0:
120,212,165680,1,0,0:0:0:0:
24,196,165946,1,0,0:0:0:0:
24,196,166078,1,0,0:0:0:0:
24,196,166211,2,0,B|24:143|76:100|135:109,1,149.999995529652,8|0,0:0|0:0,0:0:0:0:
256,192,167008,5,0,0:0:0:0:
351,172,167273,2,0,B|348:132|312:112,1,74.9999977648259,2|0,0:0|0:0,0:0:0:0:
164,213,167804,2,0,B|164:252|200:276,1,74.9999977648259
256,192,168335,5,4,0:0:0:0:
296,120,168601,1,0,0:0:0:0:
364,76,168866,2,0,B|404:52|448:60,1,74.9999977648259
180,224,169397,5,2,0:0:0:0:
256,192,169663,1,0,0:0:0:0:
336,180,169928,2,0,B|376:160|432:180,1,74.9999977648259
100,196,170459,5,8,0:0:0:0:
180,224,170724,1,0,0:0:0:0:
248,272,170990,2,0,B|292:274|331:320,2,74.9999977648259
424,184,171786,5,0,0:0:0:0:
428,204,171919,1,0,0:0:0:0:
420,224,172052,2,0,B|368:216|320:244,1,100
252,316,172583,2,0,B|212:244|256:172,1,150,4|0,0:0|0:0,0:0:0:0:
276,140,173114,1,8,0:0:0:0:
96,216,173379,5,0,0:0:0:0:
96,216,173512,1,0,0:0:0:0:
96,216,173645,2,0,B|152:220|200:192,2,100,0|0|0,0:0|0:0|0:0,0:0:0:0:
140,84,174441,1,0,0:0:0:0:
140,84,174707,2,0,B|172:128|248:132,1,100,2|0,0:0|0:0,0:0:0:0:
284,16,175238,2,0,B|268:68|308:136,1,100,8|0,0:0|0:0,0:0:0:0:
336,192,175769,1,0,0:0:0:0:
148,124,176034,5,0,0:0:0:0:
248,140,176300,1,0,0:0:0:0:
336,192,176565,1,0,0:0:0:0:
344,212,176698,1,0,0:0:0:0:
340,232,176831,2,0,B|380:192|444:208,1,100,2|8,0:0|0:0,0:0:0:0:
408,296,177362,1,8,0:0:0:0:
228,200,177627,1,0,0:0:0:0:
256,128,177893,6,0,B|276:76|336:44,2,100
140,184,178689,2,0,B|124:260|196:320|276:272,1,200,2|0,0:0|0:0,0:0:0:0:
332,148,179486,1,8,0:0:0:0:
316,132,179618,1,0,0:0:0:0:
296,124,179751,1,0,0:0:0:0:
276,124,179884,1,0,0:0:0:0:
256,128,180017,1,0,0:0:0:0:
264,280,180282,5,0,0:0:0:0:
348,240,180548,1,0,0:0:0:0:
332,148,180813,1,0,0:0:0:0:
264,64,181078,2,0,B|220:124|244:208,1,150,4|0,0:0|0:0,0:0:0:0:
264,244,181609,2,0,B|220:208|160:220,1,100,8|0,0:0|0:0,0:0:0:0:
80,236,182140,1,0,0:0:0:0:
48,148,182406,2,0,B|28:88,2,50
216,308,182937,5,0,0:0:0:0:
184,220,183202,2,0,B|148:120,1,100,2|0,0:0|0:0,0:0:0:0:
236,48,183733,2,0,B|269:142,1,100,8|0,0:0|0:0,0:0:0:0:
304,228,184264,1,0,0:0:0:0:
420,112,184530,5,0,0:0:0:0:
344,56,184795,1,0,0:0:0:0:
256,88,185061,2,0,B|288:156|372:172|424:108,1,200,2|8,0:0|0:0,0:0:0:0:
356,232,185857,2,0,B|417:238|452:192,1,100,8|0,0:0|0:0,0:0:0:0:
272,252,186388,5,0,0:0:0:0:
184,232,186654,2,0,B|122:238|87:192,1,100
240,76,187185,2,0,B|212:148|260:224,1,150,0|0,0:0|0:0,0:0:0:0:
272,252,187716,1,0,0:0:0:0:
256,332,187981,1,8,0:0:0:0:
256,192,188247,12,0,189574,0:0:0:0:
340,144,189840,5,0,0:0:0:0:
256,88,190105,1,0,0:0:0:0:
172,144,190371,1,0,0:0:0:0:
60,196,190636,6,0,B|112:256|192:256,1,150,4|0,0:0|0:0,0:0:0:0:
224,328,191167,2,0,B|272:292|264:236,1,100,8|0,0:0|0:0,0:0:0:0:
344,192,191698,2,0,B|304:156|252:152,1,100
264,244,192229,1,0,0:0:0:0:
420,140,192494,2,0,B|336:68|228:68,1,200,2|0,0:0|0:0,0:0:0:0:
152,84,193291,1,8,0:0:0:0:
88,144,193556,1,0,0:0:0:0:
100,156,193689,1,0,0:0:0:0:
112,164,193822,2,0,B|96:220|136:264,1,100
320,308,194353,5,0,0:0:0:0:
236,244,194618,1,0,0:0:0:0:
192,148,194884,2,0,B|244:164|292:148,1,100,2|8,0:0|0:0,0:0:0:0:
340,56,195415,2,0,B|288:40|240:56,1,100,8|0,0:0|0:0,0:0:0:0:
289,149,195946,5,0,0:0:0:0:
464,185,196211,2,0,B|440:88,1,100
384,168,196742,2,0,B|388:252|388:252|368:304|304:328,1,200,2|0,0:0|0:0,0:0:0:0:
200,204,197539,1,8,0:0:0:0:
224,200,197671,1,0,0:0:0:0:
248,200,197804,1,0,0:0:0:0:
272,208,197937,1,0,0:0:0:0:
292,220,198070,1,0,0:0:0:0:
108,240,198335,5,0,0:0:0:0:
32,191,198601,2,0,B|28:139|72:104,1,100
128,192,199132,6,0,B|116:272|192:324,1,150,4|0,0:0|0:0,0:0:0:0:
264,328,199663,2,0,B|256:272|212:248,1,100,8|0,0:0|0:0,0:0:0:0:
344,120,200194,1,0,0:0:0:0:
432,160,200459,2,0,B|404:208|340:216,1,100
200,64,200990,2,0,B|272:112|276:248,1,200,2|0,0:0|0:0,0:0:0:0:
96,312,201786,5,8,0:0:0:0:
176,252,202052,1,0,0:0:0:0:
180,152,202317,1,0,0:0:0:0:
272,180,202583,2,0,B|320:200|380:184,1,100
240,100,203114,2,0,B|168:128|172:236|248:256,1,200,2|8,0:0|0:0,0:0:0:0:
320,292,203910,1,8,0:0:0:0:
104,136,204176,5,0,0:0:0:0:
96,152,204309,1,0,0:0:0:0:
92,168,204441,2,0,B|72:212|80:268,1,100
196,104,204972,1,0,0:0:0:0:
196,104,205238,2,0,B|176:152|196:216,1,100,0|0,0:0|0:0,0:0:0:0:
220,288,205769,1,0,0:0:0:0:
292,64,206034,6,0,B|280:116|312:164,1,100,8|0,0:0|0:0,0:0:0:0:
352,236,206565,1,0,0:0:0:0:
440,244,206831,2,0,B|436:296|380:320,2,100
256,192,207627,12,0,209751,0:0:0:0:
