osu file format v5

[General]
AudioFilename: ParGinDori.mp3
AudioLeadIn: 0
PreviewTime: -1
Countdown: 0
SampleSet: Normal
EditorBookmarks: 2574,15680,33434,53395,69024,84587,97877,102374,119325,137767,153331,157844,177854,182318,199402,217189,234675,252412,270432,280128

[Metadata]
Title:Partenon-Ginza Dori
Artist:TAMA
Creator:Kyakirun
Version:Insane

[Difficulty]
HPDrainRate:7
CircleSize:6
OverallDifficulty:5
SliderMultiplier:1.4
SliderTickRate:1

[Events]
//Background and Video events
//Break Periods
2,84724,96677
2,158044,176594
//Storyboard Layer 0 (Background)
//Storyboard Layer 1 (Failing)
//Storyboard Layer 2 (Passing)
//Storyboard Layer 3 (Foreground)
//Storyboard Sound Samples
//Background Colour Transformations
3,100,163,162,255

[TimingPoints]
1,557.231707913654,4,1,0,100
2502,557.231707913652,4,1,0,100
2574,543.66148,4,1,0,100
15680,554.960457309177,4,1,0,100
33434,555.997157847688,4,1,0,100
53395,556.36139394125,4,1,0,100
69024,551.213734979657,4,1,0,100
84587,550.262323988561,4,1,0,100
97877,550.290026195357,4,1,0,100
102374,552.857479525337,4,1,0,100
119325,561.712797580667,4,1,0,100
137767,558.357255061845,4,1,0,100
153395,367.2644235875,3,1,0,100
157844,553.709640992131,4,1,0,100
177854,541.254364464296,4,1,0,100
182318,550.54773257542,4,1,0,100
199402,555.376932706766,4,1,0,100
217189,549.038711926192,4,1,0,100
234675,546.216859702837,4,1,0,100
252412,544.804154255773,4,1,0,100
270432,561.738366570708,4,1,0,100
280128,548.919874751173,4,1,0,100

[Colours]
Combo1 : 255,208,232
Combo2 : 255,0,128
Combo3 : 249,156,17
Combo4 : 128,255,0
Combo5 : 166,5,235

[HitObjects]
112,112,16234,1,0
144,112,16419,1,0
176,112,16604,1,0
224,144,16789,5,0
256,128,16928,1,0
288,112,17067,1,0
320,96,17206,1,0
352,80,17344,1,0
400,64,17622,5,0
400,96,17761,1,0
400,128,17899,1,0
400,176,18177,1,0
368,304,20397,5,0
336,304,20535,1,0
304,304,20674,1,0
288,272,20813,5,0
304,256,20952,1,0
320,240,21090,1,0
304,208,21229,5,0
272,192,21368,1,0
256,176,21507,1,0
224,160,21645,1,0
192,144,21784,1,0
208,128,21923,5,0
224,112,22062,1,0
240,96,22200,1,0
256,80,22339,1,0
112,192,25114,6,0,B|160:208,1,35
176,208,25391,1,0
208,192,25530,2,0,B|196:146,1,35
160,144,25808,1,0
176,128,25946,1,0
192,112,26085,1,0
208,96,26224,1,0
256,192,26779,5,0
272,208,26917,1,0
288,224,27056,1,0
256,112,28860,5,0
288,128,28999,1,0
320,144,29137,1,0
336,160,29276,1,0
352,176,29415,1,0
352,208,29554,5,0
320,224,29692,1,0
288,240,29831,1,0
256,256,29970,1,0
224,272,30108,1,0
192,288,30247,1,0
144,256,30525,5,0
144,224,30663,1,0
144,192,30802,1,0
144,160,30941,1,0
144,128,31080,1,0
144,96,31218,1,0
256,176,34128,5,0
224,128,34267,1,0
192,96,34406,1,0
160,64,34545,1,0
144,112,34684,1,0
128,192,34823,5,0
176,208,34962,1,0
208,224,35101,1,0
256,240,35240,1,0
288,256,35379,1,0
320,192,35657,5,0
320,192,35796,1,0
320,192,35935,1,0
320,192,36074,1,0
320,192,36213,1,0
240,304,38159,5,0
272,304,38298,1,0
304,304,38437,1,0
336,304,38576,1,0
368,304,38715,1,0
400,304,38854,1,0
400,240,39132,5,0
384,224,39271,1,0
400,208,39410,1,0
384,192,39549,1,0
400,176,39688,1,0
384,160,39827,1,0
384,144,42885,5,0
368,128,43024,1,0
352,112,43163,1,0
304,80,43441,1,0
272,80,43580,5,0
256,96,43719,1,0
240,112,43858,1,0
208,112,43997,1,0
176,112,44136,1,0
144,112,44275,1,0
112,112,44414,1,0
112,144,44553,5,0
128,160,44692,1,0
144,176,44831,1,0
192,272,46499,5,0
224,256,46638,1,0
256,240,46777,1,0
288,224,46916,1,0
304,192,47055,5,0
288,160,47194,1,0
272,144,47333,1,0
256,128,47472,1,0
240,112,47611,5,0
208,96,47750,1,0
176,80,47889,1,0
144,112,48028,1,0
144,144,48167,1,0
144,176,48306,1,0
160,208,48445,5,0
176,240,48584,1,0
192,272,48723,1,0
208,304,48862,1,0
240,304,49001,1,0
272,304,49140,1,0
144,224,51781,5,0
240,160,52337,1,0
304,112,52893,1,0
384,112,53395,6,0,B|384:208,1,93.3333333333333
352,208,53951,2,0,B|352:112,1,93.3333333333333
320,112,54507,2,0,B|320:208,1,93.3333333333333
288,208,55064,2,0,B|288:112,1,93.3333333333333
304,144,55620,2,0,B|16:112,1,280
160,96,57289,5,0
192,112,57474,1,0
224,128,57660,1,0
256,144,57845,1,0
384,112,58124,6,0,B|384:208,1,93.3333333333333
352,208,58680,2,0,B|352:112,1,93.3333333333333
384,112,59236,1,0
384,112,59422,2,0,B|384:208,1,93.3333333333333
352,208,60071,1,0
320,208,60627,5,0
288,208,60813,1,0
304,144,61091,1,0
160,176,61740,5,0
192,176,61925,1,0
224,176,62111,1,0
256,176,62296,2,0,B|352:176,1,93.3333333333333
384,176,62853,1,0
384,208,63224,1,0
352,224,63409,6,0,B|256:224,1,93.3333333333333
224,208,63965,1,0
160,240,64336,1,0
144,208,64522,2,0,B|320:32,1,233.333333333333
448,64,66191,5,0
416,64,66376,1,0
384,64,66562,1,0
352,64,66747,2,0,B|256:64,1,93.3333333333333
224,64,67304,2,0,B|128:64,1,93.3333333333333
128,96,67860,2,0,B|128:192,1,93.3333333333333
160,208,68416,2,0,B|256:208,1,93.3333333333333
160,64,69575,5,0
192,64,69713,1,0
224,64,69850,1,0
256,64,69988,1,0
304,64,70264,1,0
336,64,70402,1,0
368,64,70539,1,0
400,64,70677,5,0
432,64,70815,1,0
432,96,70953,1,0
432,128,71091,1,0
432,160,71228,1,0
384,192,71504,5,0
352,192,71642,1,0
320,192,71780,1,0
256,192,73709,6,0,B|304:192,8,35
224,192,74949,6,0,B|176:192,6,35
304,176,78394,6,0,B|240:176,1,35
240,176,78670,1,0
208,176,78808,1,0
208,208,78945,5,0
240,208,79083,1,0
272,208,79221,1,0
304,208,79359,1,0
336,208,79497,5,0
336,176,79634,1,0
336,144,79772,1,0
336,112,79910,1,0
272,96,80186,5,0
240,96,80323,1,0
208,96,80461,1,0
176,96,80599,1,0
144,96,80737,1,0
112,96,80875,1,0
176,256,82115,5,0
208,256,82253,2,0,B|256:256,1,35
272,256,82528,1,0
304,256,82666,1,0
336,256,82804,1,0
336,224,82942,1,0
336,192,83079,5,0
336,160,83217,1,0
336,128,83355,1,0
336,96,83493,1,0
336,64,83631,1,0
272,64,83906,5,0
240,80,84044,1,0
208,96,84182,1,0
240,112,84320,1,0
272,128,84457,1,0
272,112,98427,6,0,B|368:64|416:192|256:288,1,280
240,112,100628,2,0,B|144:64|96:192|256:288,1,280
80,144,102926,5,0
96,176,103111,2,0,B|176:240,1,93.3333333333333
192,256,103664,2,0,B|240:224,1,46.6666666666667
208,192,104032,1,0
240,176,104216,1,0
272,160,104401,1,0
240,128,104585,1,0
96,208,105414,5,0
144,208,105599,2,0,B|224:208,1,70
256,208,106244,1,0
288,208,106428,1,0
320,208,106612,1,0
352,208,106796,1,0
192,160,107626,5,0
112,160,107902,1,0
144,192,108086,1,0
176,224,108271,1,0
208,256,108455,1,0
240,256,108639,5,0
240,256,108824,1,0
240,256,109008,2,0,B|336:256,1,93.3333333333333
352,224,109561,1,0
336,192,109745,1,0
320,160,110021,1,0
176,160,110666,5,0
176,160,110851,1,0
176,160,111035,1,0
176,160,111311,1,0
336,160,112049,5,0
304,160,112233,2,0,B|208:160,1,93.3333333333333
160,160,112878,1,0
160,160,113062,1,0
160,160,113246,1,0
160,160,113431,1,0
80,64,114444,5,0
112,64,114629,2,0,B|224:64,1,93.3333333333333
240,64,115181,1,0
240,64,115366,1,0
240,64,115550,2,0,B|336:64,1,93.3333333333333
336,64,116379,1,0
384,96,116748,6,0,B|304:96,1,70
320,96,117301,1,0
192,112,117669,5,0
208,144,117854,1,0
224,176,118038,1,0
240,208,118222,2,0,B|304:288,1,93.3333333333333
288,112,119325,6,0,B|240:112,2,46.6666666666667
192,112,120167,1,0
80,240,121010,5,0
80,240,121197,2,0,B|192:240,1,93.3333333333333
208,240,121759,1,0
208,240,122039,1,0
208,240,122320,1,0
400,240,123256,5,0
400,240,123444,2,0,B|400:144,1,93.3333333333333
368,128,124005,1,0
336,112,124286,1,0
336,112,124567,1,0
144,112,125503,5,0
144,144,125691,2,0,B|240:208,1,93.3333333333333
240,160,126252,2,0,B|147:93,1,93.3333333333333
192,80,126814,1,0
240,128,127282,5,0
240,128,127563,1,0
240,128,127844,1,0
128,112,128406,5,0
128,112,128593,1,0
128,112,128780,1,0
128,112,128967,1,0
128,112,129810,1,0
128,112,130091,1,0
208,112,130465,5,0
208,112,130652,2,0,B|304:112,1,93.3333333333333
336,112,131214,1,0
336,272,132057,5,0
304,272,132244,2,0,B|224:272|256:240,1,70
320,208,132899,1,0
240,208,133274,1,0
240,208,133461,1,0
176,48,134304,5,0
208,48,134491,1,0
240,48,134678,1,0
272,48,134865,2,0,B|416:48,1,140
304,128,135708,1,0
288,160,135895,1,0
272,192,136082,1,0
432,48,137767,6,0,B|377:155|272:96,1,186.666666666667
256,112,138697,2,0,B|224:128|176:112,1,70
352,176,139721,6,0,B|240:224|48:224,1,303.333333333333
80,256,141117,2,0,B|144:320|208:336,1,140
256,320,141954,6,0,B|336:320|384:256|384:160|368:96|272:80|176:64|96:96,1,490
48,80,144188,6,0,B|112:96,1,35
96,112,144467,2,0,B|96:176|144:192|112:224|160:256,2,140
160,160,145956,6,0,B|240:160,1,70
384,144,146421,2,0,B|32:32,1,350
64,96,148096,6,0,B|144:160,2,70
160,96,148934,2,0,B|240:80|272:176|384:160,1,210
320,208,150050,2,0,B|240:224|160:192|96:224,1,210
144,160,151167,6,0,B|144:240,1,70
176,208,151725,6,0,B|224:240,2,46.6666666666667
192,176,152284,6,0,B|240:160,2,46.6666666666667
176,144,152842,6,0,B|240:128,2,46.6666666666667
224,192,153395,5,0
256,224,153762,5,0
288,256,154129,5,0
272,160,154496,5,0
304,192,154864,5,0
336,224,155231,5,0
320,128,155598,5,0
352,160,155965,5,0
384,192,156333,5,0
352,96,156700,5,0
384,128,157067,5,0
416,160,157434,5,0
272,112,178395,6,0,B|368:64|416:192|256:288,1,280
240,112,180560,2,0,B|144:64|96:192|256:288,1,280
80,144,182868,5,0
96,176,183052,2,0,B|176:240,1,93.3333333333333
192,256,183606,2,0,B|240:224,1,46.6666666666667
208,192,183969,1,0
240,176,184158,1,0
272,160,184343,1,0
240,128,184527,1,0
320,224,185356,5,0
272,224,185541,2,0,B|192:224,1,70
160,224,186171,1,0
128,224,186355,1,0
96,224,186538,1,0
64,224,186722,1,0
192,224,187568,5,0
112,224,187823,1,0
144,192,188006,1,0
176,160,188190,1,0
208,128,188374,1,0
240,256,188557,5,0
240,256,188741,1,0
240,256,188924,2,0,B|336:256,1,93.3333333333333
352,224,189475,1,0
336,192,189658,1,0
320,160,189933,1,0
192,112,190576,5,0
176,160,190759,1,0
160,192,190943,1,0
144,240,191218,1,0
256,240,191952,5,0
288,240,192136,2,0,B|384:240,1,93.3333333333333
432,240,192778,1,0
416,208,192961,1,0
400,176,193145,1,0
368,128,193420,1,0
208,160,194338,5,0
176,160,194521,2,0,B|64:160,1,93.3333333333333
240,64,195072,1,0
240,64,195255,1,0
240,64,195439,2,0,B|336:64,1,93.3333333333333
336,64,196265,1,0
384,96,196632,6,0,B|304:96,1,70
320,96,197182,1,0
320,128,197641,5,0
288,144,197825,1,0
256,160,198008,1,0
224,176,198192,2,0,B|144:240,1,93.3333333333333
256,112,199293,5,0
256,112,199494,1,0
256,112,199679,1,0
192,112,200142,1,0
80,240,200975,5,0
128,240,201160,1,0
128,240,201530,1,0
208,240,201716,1,0
256,240,201993,1,0
208,240,202271,1,0
384,304,203198,5,0
400,240,203386,2,0,B|400:144,1,93.3333333333333
368,128,203937,2,0,B|288:128,1,70
256,128,204492,1,0
144,112,205511,5,0
144,144,205696,2,0,B|224:192,1,70
240,160,206159,2,0,B|147:93,1,93.3333333333333
192,80,206714,1,0
288,112,207177,6,0,B|368:112,2,70
128,112,208380,5,0
128,112,208565,1,0
128,112,208750,1,0
160,128,208935,2,0,B|192:224|272:256|352:240,1,233.333333333333
336,208,210046,1,0
208,112,210416,5,0
256,112,210602,1,0
336,112,210972,1,0
336,112,211157,1,0
336,272,211999,5,0
304,256,212186,2,0,B|224:256|256:288,1,70
192,240,212823,1,0
240,192,213193,1,0
272,176,213378,1,0
400,272,214212,5,0
400,240,214397,1,0
400,208,214582,1,0
400,176,214767,2,0,B|400:32,1,140
352,64,215600,1,0
336,96,215785,1,0
320,128,215970,1,0
96,96,217189,5,0
144,96,217372,2,0,B|176:144|96:176,1,93.3333333333333
80,128,217921,1,0
80,240,218744,5,0
80,240,219019,2,0,B|192:240,1,93.3333333333333
208,240,219568,1,0
208,240,219751,1,0
208,240,219934,1,0
192,208,220117,1,0
400,240,221032,5,0
400,240,221215,2,0,B|400:144,1,93.3333333333333
368,128,221764,1,0
336,112,221947,1,0
336,112,222130,1,0
288,96,222313,1,0
144,112,223228,5,0
176,112,223411,1,0
208,128,223594,1,0
208,128,223777,1,0
208,160,223960,1,0
176,208,224234,1,0
208,208,224418,1,0
208,208,224601,1,0
240,128,225150,5,0
240,128,225333,1,0
240,128,225607,1,0
128,64,226248,5,0
128,96,226431,1,0
96,96,226614,1,0
96,128,226797,1,0
96,208,227620,5,0
144,208,227803,1,0
192,208,228078,1,0
208,112,228352,5,0
208,112,228535,2,0,B|304:112,1,93.3333333333333
336,112,229084,1,0
176,272,229921,5,0
176,240,230108,2,0,B|176:160|208:192,1,70
240,256,230640,1,0
240,176,231006,1,0
240,176,231189,1,0
176,48,232196,5,0
208,48,232379,1,0
240,48,232562,1,0
272,48,232745,2,0,B|416:48,1,140
304,128,233477,1,0
288,160,233660,1,0
272,192,233843,1,0
288,112,234948,6,0,B|240:112,2,46.6666666666667
192,112,235676,1,0
48,224,236586,5,0
176,272,236768,2,0,B|64:272,1,93.3333333333333
80,192,237315,2,0,B|192:192,1,93.3333333333333
48,240,237861,1,0
208,112,238879,5,0
288,224,239067,2,0,B|288:128,1,93.3333333333333
256,144,239590,1,0
224,192,239864,1,0
192,240,240137,1,0
128,80,240956,5,0
176,112,241147,2,0,B|256:160,1,70
176,192,241611,2,0,B|83:125,1,93.3333333333333
112,192,242230,1,0
192,288,242868,5,0
224,272,243050,1,0
272,240,243323,1,0
144,192,243960,5,0
176,160,244142,1,0
208,144,244324,1,0
240,160,244506,1,0
128,112,245417,1,0
128,112,245690,1,0
208,112,246054,5,0
208,112,246236,1,0
336,112,246600,1,0
336,112,246782,1,0
336,272,247693,5,0
304,272,247875,2,0,B|243:307|256:240,1,70
320,208,248421,1,0
256,160,248785,1,0
240,192,248967,1,0
176,48,249878,5,0
208,48,250060,1,0
240,48,250242,1,0
272,48,250424,2,0,B|416:48,1,140
384,96,251243,2,0,B|336:144,1,46.6666666666667
320,160,251607,1,0
288,112,252684,6,0,B|240:112,2,46.6666666666667
192,112,253410,1,0
80,240,254318,5,0
80,240,254500,2,0,B|192:240,1,93.3333333333333
208,240,255045,1,0
208,240,255317,1,0
208,240,255679,1,0
400,240,256588,5,0
400,240,256770,2,0,B|400:144,1,93.3333333333333
368,128,257315,1,0
336,112,257587,1,0
336,112,257860,1,0
144,112,258768,5,0
144,144,258949,2,0,B|240:208,1,93.3333333333333
240,160,259494,2,0,B|147:93,1,93.3333333333333
192,80,260039,1,0
240,128,260584,5,0
240,128,260856,1,0
240,128,261128,1,0
128,112,261764,5,0
128,112,261952,1,0
128,112,262139,1,0
128,112,262309,1,0
128,112,263126,1,0
128,112,263398,1,0
208,112,263762,5,0
208,112,263943,2,0,B|304:112,1,93.3333333333333
336,112,264488,1,0
336,272,265396,5,0
304,272,265578,2,0,B|318:228|256:240,1,70
320,208,266213,1,0
240,208,266576,1,0
240,208,266758,1,0
176,48,267663,5,0
208,48,267850,1,0
240,48,268037,1,0
272,48,268224,2,0,B|272:192,1,140
240,192,268937,1,0
208,192,269119,1,0
176,192,269300,1,0
304,112,270432,6,0,B|240:112,1,46.6666666666667
192,112,270806,2,0,B|112:112,1,70
80,240,272117,5,0
80,240,272304,2,0,B|192:240,1,93.3333333333333
176,240,272866,1,0
176,240,273053,1,0
256,192,273240,12,0,280075
