osu file format v9

[General]
AudioFilename: 13.mp3
AudioLeadIn: 1500
PreviewTime: 24103
Countdown: 0
SampleSet: Normal
StackLeniency: 0.4
Mode: 0
LetterboxInBreaks: 0

[Editor]
Bookmarks: 12936,24099,35262,46425,47820,61774,64564,74332,82704,88285,93867,96657,99448,105029,115494,117587
DistanceSpacing: 1
BeatDivisor: 4
GridSize: 8

[Metadata]
Title:No.13
Artist:TAKA respect for J.S.B.
Creator:AngelHoney
Version:Hyper
Source:beatmania IIDX
Tags:O2jam lepidopodus

[Difficulty]
HPDrainRate:6
CircleSize:4
OverallDifficulty:5
ApproachRate:8
SliderMultiplier:1.7
SliderTickRate:1

[Events]
//Background and Video events
0,0,"15278610.jpg"
//Break Periods
//Storyboard Layer 0 (Background)
//Storyboard Layer 1 (Fail)
//Storyboard Layer 2 (Pass)
//Storyboard Layer 3 (Foreground)
//Storyboard Sound Samples
//Background Colour Transformations
3,100,0,0,0

[TimingPoints]
365,348.837209302326,4,2,0,5,1,0
1411,-100,4,2,0,50,0,0
1585,-100,4,1,1,50,0,0
7254,-100,4,1,1,50,0,0
36208,-100,4,1,2,50,0,0
36382,-100,4,1,1,50,0,0
38998,-100,4,1,2,50,0,0
39173,-100,4,1,1,50,0,0
58446,-100,4,1,2,50,0,0
58795,-100,4,1,1,50,0,0
63330,-100,4,1,1,40,0,0
64158,-100,4,1,2,40,0,0
64289,-100,4,1,1,40,0,0
64463,-100,4,1,1,50,0,0
72399,-100,4,1,2,50,0,0
72748,-100,4,1,1,50,0,0
93766,-100,4,2,0,70,0,0
96469,-100,4,1,1,50,0,0
99609,-100,4,1,0,10,0,0
101527,-100,4,1,0,20,0,0
102225,-100,4,1,0,30,0,0
102923,-100,4,1,0,40,0,0
103620,-100,4,1,0,50,0,0
104144,-100,4,1,0,60,0,0
104492,-100,4,1,0,70,0,0
105190,-100,4,1,1,50,0,0
117225,-100,4,1,1,5,0,0

[Colours]
Combo1 : 255,255,128
Combo2 : 255,125,125
Combo3 : 128,255,128
Combo4 : 255,128,64

[HitObjects]
256,192,365,12,4,1411
71,316,1760,5,0
108,296,1847,1,0
148,288,1934,1,0
192,288,2021,1,0
232,296,2109,1,0
312,328,2283,1,0
360,256,2458,1,0
442,279,2632,2,0,B|450:327,2,42.5
424,196,2981,1,0
356,144,3155,1,0
376,60,3330,5,0
280,200,3678,1,0
160,80,4027,1,0
160,80,4202,1,0
76,96,4376,1,0
68,136,4463,1,0
60,176,4551,2,0,B|64:264,1,85
72,344,4899,1,0
152,312,5074,1,0
232,344,5248,6,0,B|272:336,1,42.5
336,272,5510,1,0
424,280,5684,1,0
472,208,5859,2,0,B|480:168,1,42.5
456,88,6120,1,0
376,64,6295,1,0
288,72,6469,1,0
216,120,6644,1,0
136,144,6818,1,0
48,144,6992,1,0
48,144,7167,1,0
32,312,7341,5,4
104,264,7516,2,0,B|80:224,2,42.5,2|0|0
184,296,7865,1,2
264,328,8039,2,0,B|304:312|352:320,1,85,0|2
432,328,8388,1,0
464,248,8562,1,2
392,200,8737,2,0,B|352:184|296:200,1,85,0|2
272,120,9085,1,0
272,120,9173,1,0
192,144,9347,1,0
192,144,9434,1,0
112,112,9609,6,0,B|96:64,2,42.5,2|0|0
80,144,9870,2,0,B|64:96,2,42.5,0|2|0
72,184,10132,2,0,B|56:224|64:280,1,85,0|2
152,320,10481,2,0,B|168:272|160:224,1,85,0|2
240,200,10830,1,0
304,256,11004,1,2
344,248,11091,1,0
384,240,11178,1,0
416,160,11353,1,2
416,160,11527,1,0
256,192,11615,12,4,12748
384,80,13097,5,0
416,160,13271,1,0
424,200,13359,1,0
424,244,13446,1,0
416,284,13533,1,0
400,324,13620,1,0
320,296,13795,2,0,B|280:320|232:312,1,85
152,304,14144,1,0
152,304,14231,1,0
64,208,14492,6,0,B|56:256,2,42.5
120,144,14841,1,0
120,144,14928,1,0
96,64,15103,1,0
96,64,15190,1,0
176,80,15365,2,0,B|224:88|264:72,1,85
336,112,15713,5,0
376,104,15801,1,0
417,104,15888,1,0
472,168,16062,1,0
440,248,16237,1,0
360,232,16411,1,0
304,296,16585,1,0
264,304,16673,1,0
184,280,16847,1,0
144,288,16934,1,0
64,320,17109,5,0
56,288,17196,1,0
56,256,17283,1,0
64,224,17370,1,0
76,192,17458,1,0
80,160,17545,1,0
76,128,17632,1,0
64,96,17719,1,0
44,68,17806,1,0
144,88,17981,5,0
244,104,18155,1,0
344,120,18330,1,4
448,256,18678,5,0
384,312,18853,1,0
304,280,19027,2,0,B|296:320,2,42.5
216,288,19376,5,0
96,328,19551,1,0
32,216,19725,1,4
144,88,20074,5,0
216,128,20248,1,0
272,64,20423,1,0
272,64,20510,1,0
272,64,20597,1,0
344,104,20771,1,0
424,80,20946,2,0,B|472:80,2,42.5,0|0|4
448,256,21469,5,0
320,328,21644,1,0
272,192,21818,1,0
272,192,22167,5,0
104,232,22341,1,0
64,64,22516,1,4
64,64,22865,6,0,B|16:64,2,42.5
52,148,23213,1,0
84,228,23388,1,0
72,312,23562,1,0
72,312,23649,1,0
72,312,23737,2,0,B|104:344|104:344|144:336,1,85
256,192,24085,12,4,25481
160,312,25830,5,0
148,228,26004,1,0
72,184,26178,1,0
80,144,26266,1,0
88,104,26353,1,0
168,72,26527,1,0
248,96,26702,1,0
328,64,26876,2,0,B|368:48|424:56,1,85
464,144,27225,5,0
432,148,27312,1,0
400,152,27399,1,0
368,156,27487,1,0
336,160,27574,1,0
312,240,27748,1,0
232,272,27923,2,0,B|216:208,2,42.5
168,328,28271,5,0
88,296,28446,1,0
56,216,28620,2,0,B|64:168,1,42.5
144,144,28882,2,0,B|136:96,1,42.5
224,88,29144,2,0,B|240:40,2,42.5
272,160,29492,2,0,B|320:168|360:144,1,85,0|4
440,136,29841,5,2
416,216,30016,1,0
416,216,30103,1,0
440,296,30277,1,0
440,296,30365,2,0,B|352:312,1,85,0|2
272,336,30713,2,0,B|168:328,1,85,0|2
104,352,31062,5,0
104,352,31149,1,0
104,352,31237,2,0,B|96:304|112:256,1,85,2|0
120,224,31498,2,0,B|136:176|120:128,1,85
112,96,31760,2,0,B|72:80|16:72,2,85,0|2|0
192,72,32283,1,2
256,128,32458,1,0
336,104,32632,1,2
272,48,32806,5,0
272,48,32894,1,0
256,128,33068,1,0
256,128,33155,1,0
240,208,33330,1,2
328,176,33504,5,0
328,176,33591,1,0
380,100,33766,1,0
380,100,33853,1,0
472,88,34027,1,2
456,176,34202,5,0
424,256,34376,1,2
368,320,34551,1,0
272,336,34725,1,2
184,336,34899,1,0
96,312,35074,1,2
40,240,35248,1,4
72,72,35597,5,8
224,152,35946,1,0
384,88,36295,1,4
464,240,36644,5,4
368,320,36905,1,0
368,320,36992,1,8
248,272,37254,1,0
248,272,37341,1,0
120,296,37603,1,0
120,296,37690,1,8
56,240,37865,1,0
48,200,37952,1,0
40,160,38039,1,4
168,48,38388,5,8
296,160,38737,1,0
448,88,39085,1,4
464,256,39434,5,0
352,320,39696,1,0
352,320,39783,1,8
224,296,40045,1,0
224,296,40132,1,0
152,248,40306,1,0
72,272,40481,1,8
24,200,40655,1,0
76,132,40830,1,4
156,162,41004,5,2
328,176,41353,1,2
456,64,41702,1,2
464,232,42051,1,2
412,164,42225,5,0
384,240,42399,1,2
392,280,42487,1,0
400,320,42574,1,8
320,352,42748,1,2
240,320,42923,2,0,B|176:296|112:312,1,127.5
80,288,43271,1,8
88,200,43446,1,2
56,120,43620,6,0,B|48:64,2,42.5,0|0|2
144,136,43969,1,8
224,96,44144,1,2
304,128,44318,1,0
336,136,44405,1,0
368,136,44492,1,2
400,132,44580,1,0
432,120,44667,1,8
480,192,44841,2,0,B|472:248,1,42.5,2|0
472,280,45016,6,0,B|424:280|384:320,1,85,0|2
40,104,45365,2,0,B|88:104|128:64,1,85,8|2
360,48,45713,2,0,B|368:88|352:144,1,85,0|2
152,336,46062,2,0,B|144:296|160:240,1,85,8|2
256,192,46411,12,4,47632
440,192,48155,5,0
416,272,48330,2,0,B|424:320,2,42.5
336,248,48678,1,0
272,312,48853,2,0,B|176:304,1,85
104,320,49202,1,0
92,284,49289,1,0
88,244,49376,1,0
92,204,49463,1,0
104,168,49551,1,0
96,80,49725,1,0
176,112,49899,5,0
248,64,50074,1,0
328,96,50248,1,0
368,112,50335,1,0
456,120,50510,1,0
472,160,50597,2,0,B|464:256,1,85
320,328,51120,5,0
320,328,51295,1,0
236,340,51469,1,0
152,328,51644,1,0
80,284,51818,1,0
52,204,51992,5,4
64,160,52080,1,0
192,136,52341,1,8
180,92,52428,1,0
304,64,52690,1,0
388,84,52865,1,0
452,140,53039,1,8
476,220,53213,1,0
468,304,53388,1,0
344,328,53649,5,0
344,328,53737,2,0,B|288:352|216:328,1,127.5,8|0
176,320,54085,2,0,B|80:328,1,85
48,232,54434,1,8
84,236,54521,1,0
124,232,54609,1,0
160,220,54696,1,0
192,204,54783,5,0
228,196,54870,1,0
268,200,54958,1,0
360,216,55132,2,0,B|424:208,1,42.5,8|0
440,72,55481,1,0
356,56,55655,1,0
272,56,55830,1,8
188,68,56004,1,0
108,96,56178,5,0
80,224,56440,1,0
80,224,56527,1,8
160,328,56789,1,0
160,328,56876,1,0
164,244,57051,1,0
240,208,57225,2,0,B|256:152,2,42.5,8|0|0
256,192,57661,12,4,58620
76,112,58969,5,0
64,144,59056,1,0
60,176,59144,1,0
60,208,59231,1,0
68,240,59318,1,8
96,320,59492,2,0,B|136:312,1,42.5
184,320,59667,2,0,B|248:336|320:312,1,127.5
309,315,60016,1,8
392,288,60190,1,0
480,288,60365,5,0
440,208,60539,1,0
464,128,60713,1,8
408,64,60888,1,0
328,96,61062,1,0
328,96,61149,1,0
328,96,61237,2,0,B|288:112|232:104,1,85,0|8
168,144,61585,2,0,B|160:200,2,42.5
256,192,61847,12,4,63155
144,88,63417,5,8
144,88,63504,1,0
96,208,63766,1,0
96,208,63853,1,0
144,328,64115,1,8
144,328,64202,1,4
224,304,64376,1,0
304,328,64551,5,4
448,240,64899,1,8
408,72,65248,1,0
240,56,65597,1,8
176,216,65946,1,0
304,328,66295,5,8
336,248,66469,1,0
420,232,66644,1,0
456,72,66992,1,8
384,112,67167,1,0
304,96,67341,1,0
136,64,67690,1,8
64,216,68039,1,0
184,336,68388,2,0,B|232:336|264:312,1,85,8|0
336,264,68737,5,2
384,272,68824,1,2
432,280,68911,1,0
64,72,69783,1,0
96,240,70132,5,2
180,228,70306,1,2
264,232,70481,1,0
348,252,70655,1,2
424,356,70830,5,2
388,280,71004,1,2
388,196,71178,1,0
412,112,71353,1,2
456,40,71527,1,6
256,192,71615,12,4,72574
416,160,72923,5,2
332,172,73097,1,2
248,168,73272,1,0
164,148,73446,1,2
88,44,73621,5,2
124,120,73795,1,2
124,204,73969,1,0
100,288,74144,1,2
56,360,74318,1,0
56,360,74492,5,2
40,192,74841,1,2
184,288,75190,1,2
168,120,75539,1,2
256,112,75713,5,0
344,104,75888,1,2
432,96,76062,1,0
432,96,76411,1,0
440,188,76585,1,2
352,200,76760,1,0
264,208,76934,1,2
176,216,77109,5,0
176,216,77458,1,0
176,216,77806,1,0
184,304,77981,1,2
272,296,78155,1,0
360,288,78330,1,2
448,280,78504,1,0
448,280,78853,1,0
448,280,79202,5,0
368,312,79376,1,2
280,320,79551,1,0
192,312,79725,1,2
112,272,79899,1,0
64,200,80074,5,2
128,144,80248,1,0
104,64,80423,1,2
184,80,80597,1,0
184,80,80684,1,0
208,160,80859,1,0
208,160,80946,2,0,B|256:160|296:168,2,85,0|2|0
256,192,81382,12,4,82690
128,40,84783,5,0
88,116,84958,1,0
76,200,85132,1,0
84,284,85306,1,0
108,364,85481,1,4
384,40,87574,5,0
424,116,87749,1,0
436,200,87923,1,0
428,284,88097,1,0
404,364,88272,1,4
288,320,88533,5,0
288,320,88620,1,8
120,344,88969,1,0
104,216,89231,1,0
104,216,89318,1,8
272,192,89667,1,0
256,64,89928,1,0
256,64,90016,1,8
88,80,90365,5,0
48,156,90539,1,0
52,240,90713,1,8
100,308,90888,1,0
180,332,91062,1,0
264,328,91237,5,2
304,320,91324,1,0
344,312,91411,1,8
424,280,91585,1,2
440,192,91760,1,0
368,144,91934,1,2
328,152,92021,1,0
288,160,92109,1,8
240,88,92283,1,2
160,104,92458,1,0
80,80,92632,1,2
72,120,92719,1,0
64,160,92806,1,8
48,240,92981,1,2
64,320,93155,5,0
148,296,93330,1,2
232,288,93504,1,8
316,292,93678,1,2
400,312,93853,5,0
440,144,94202,1,0
384,152,94376,1,0
328,152,94551,1,0
272,144,94725,1,0
216,128,94899,1,0
168,96,95074,1,0
56,160,95248,5,0
112,176,95423,1,0
160,208,95597,1,0
192,256,95771,1,0
304,320,95946,5,0
360,304,96120,1,0
416,288,96295,1,4
448,120,96644,5,0
368,144,96818,1,0
320,72,96992,1,0
240,104,97167,1,0
160,72,97341,1,0
128,152,97516,1,0
40,144,97690,1,0
48,232,97865,1,0
56,320,98039,6,0,B|144:328,1,85
168,248,98388,2,0,B|264:256,1,85
280,176,98737,5,0
304,178,98824,1,0
328,180,98911,1,0
352,182,98998,1,0
376,185,99085,1,0
401,187,99173,1,0
425,189,99260,1,0
449,192,99347,1,0
473,194,99434,1,0
256,192,100830,12,4,105016
384,80,105365,5,0
384,80,105539,1,2
344,152,105713,1,0
344,152,105888,1,2
304,224,106062,1,0
304,224,106237,1,2
264,296,106411,1,0
424,328,106760,5,0
344,312,106934,1,2
264,296,107109,1,0
184,280,107283,1,2
104,264,107458,2,0,B|72:176,1,85,0|2
104,104,107806,5,0
144,96,107894,1,0
184,96,107981,1,0
224,104,108068,1,0
264,120,108155,1,0
336,72,108330,1,2
416,104,108504,5,0
424,144,108591,1,0
432,184,108678,1,0
440,224,108766,1,0
448,264,108853,1,0
400,336,109027,1,2
320,304,109202,5,0
280,312,109289,1,0
240,312,109376,1,0
200,304,109463,1,0
160,288,109551,1,0
80,320,109725,1,2
64,236,109899,5,0
80,152,110074,1,2
132,84,110248,1,0
212,60,110423,1,2
160,200,110597,6,0,B|296:192,1,127.5,4|0
287,192,110946,1,8
352,136,111120,1,2
432,160,111295,6,0,B|424:256,1,85,0|2
80,224,111644,2,0,B|88:128,1,85,8|2
384,72,111992,6,0,B|392:168,1,85,0|2
128,312,112341,2,0,B|120:216,1,85,8|2
344,56,112690,5,0
336,96,112777,1,0
328,136,112865,1,2
320,176,112952,1,0
312,216,113039,1,8
328,304,113213,1,2
408,256,113388,6,0,B|456:272,2,42.5,0|0|2
236,268,113737,2,0,B|184:248,2,42.5,8|0|2
64,280,114085,1,0
80,176,114260,5,2
80,176,114347,1,0
80,176,114434,1,8
168,120,114609,1,2
256,72,114783,1,4
432,208,115132,5,0
344,264,115307,1,0
256,312,115481,1,4
256,192,115568,12,0,117225
