osu file format v7

[General]
AudioFilename: Ubertreffen.mp3
AudioLeadIn: 1985
PreviewTime: 28225
Countdown: 0
SampleSet: Soft
StackLeniency: 0.5
Mode: 0
LetterboxInBreaks: 1

[Editor]
DistanceSpacing: 0.400000005960464
BeatDivisor: 4
GridSize: 8

[Metadata]
Title:Ubertreffen
Artist:TAKA respect for J.S.B
Creator:kiddly
Version:Beginner
Source:Beatmania IIDX 15
Tags:tsukamaete

[Difficulty]
HPDrainRate:2
CircleSize:3
OverallDifficulty:3
SliderMultiplier:0.8
SliderTickRate:2

[Events]
//Background and Video events
0,0,"BG.jpg"
//Break Periods
2,22914,24033
2,25673,32309
//Storyboard Layer 0 (Background)
//Storyboard Layer 1 (Fail)
//Storyboard Layer 2 (Pass)
//Storyboard Layer 3 (Foreground)
//Storyboard Sound Samples
//Background Colour Transformations
3,100,163,162,255

[TimingPoints]
646,344.827586206897,4,2,1,68,1,0
11594,-100,4,1,1,61,0,0
19611,-100,4,2,0,91,0,0
22542,-100,4,1,1,49,0,0
39525,-100,4,1,2,72,0,0
39697,-100,4,1,1,49,0,0
40904,-100,4,1,2,70,0,0
41077,-100,4,1,1,49,0,0
42283,-100,4,1,2,71,0,0
42456,-100,4,1,1,49,0,0
43663,-100,4,1,2,71,0,0
43835,-100,4,1,1,49,0,0
54697,-100,4,1,2,69,0,0
54870,-100,4,1,1,49,0,0
55301,-100,4,2,0,49,0,0
70818,-100,4,1,1,51,0,0
71249,-100,4,1,2,72,0,0
71421,-100,4,1,1,51,0,0
72628,-100,4,1,2,70,0,0
72801,-100,4,1,1,51,0,0
74008,-100,4,1,2,70,0,0
74180,-100,4,1,1,51,0,0
75387,-100,4,1,2,71,0,0
75559,-100,4,1,1,51,0,0
76766,-100,4,2,0,59,0,0
76939,-100,4,1,1,59,0,0
77456,-100,4,2,0,59,0,0
77628,-100,4,1,1,59,0,0
78146,-100,4,2,0,59,0,0
78318,-100,4,1,1,59,0,0
78835,-100,4,2,0,59,0,0
79008,-100,4,1,1,59,0,0
79525,-100,4,2,0,59,0,0
79697,-100,4,1,1,59,0,0
80214,-100,4,2,0,59,0,0
80387,-100,4,1,1,59,0,0
80904,-100,4,2,0,59,0,0
81077,-100,4,1,1,59,0,0
81594,-100,4,2,0,59,0,0
81766,-100,4,1,1,59,0,0
82283,-100,4,1,2,71,0,0
82456,-100,4,1,1,59,0,0
83663,-100,4,1,2,71,0,0
83835,-100,4,1,1,60,0,0
89439,-100,4,2,0,60,0,0
90990,-50,4,2,1,68,0,0
92283,-100,4,1,0,60,0,0
92541,-100,4,1,0,52,0,0
92886,-100,4,1,0,42,0,0
93231,-100,4,1,0,31,0,0
93576,-100,4,1,0,21,0,0
93921,-100,4,1,0,12,0,0
94265,-100,4,1,0,0,0,0

[Colours]
Combo1 : 255,255,128
Combo2 : 255,136,255
Combo3 : 141,248,221

[HitObjects]
136,80,646,1,4
376,80,2025,1,4
376,320,3404,1,4
136,320,4783,1,4
136,80,6163,6,0,L|384:80,1,240,4|0
376,80,7542,2,0,L|376:320,1,240,4|0
376,320,8921,2,0,L|136:320,1,240,4|0
136,320,10301,2,0,L|136:72,1,240,4|0
192,80,11680,5,0
248,80,12025,2,0,L|312:80|344:112|400:112,1,160,8|8
368,152,13059,5,0
312,152,13404,2,0,L|248:152|216:184|160:184,1,160,8|8
200,224,14439,5,0
256,224,14784,2,0,L|320:224|352:256|408:256,1,160,8|8
368,296,15818,5,0
312,296,16163,2,0,L|248:296|216:328|160:328,1,160,8|8
200,256,17197,5,0
200,136,17887,1,0
320,136,18577,1,0
320,256,19267,1,0
200,256,19956,5,0
152,136,20646,1,2
256,64,21336,1,0
360,136,22026,1,2
320,256,22714,1,4
256,192,25473,5,4
136,80,33749,6,0,L|384:80,1,240,4|0
376,80,35128,2,0,L|376:320,1,240,4|0
376,320,36507,2,0,L|136:320,1,240,4|0
136,320,37887,2,0,L|136:72,1,240,4|0
264,80,39266,6,0,L|416:80|416:184,1,240,0|8
360,168,40646,2,0,L|280:168|280:232|184:232,1,240,0|8
184,176,42025,2,0,L|56:176|56:304,1,240,0|8
112,288,43404,2,0,L|368:288,1,240,0|8
408,288,44783,5,0
408,224,45473,1,0
408,160,46163,1,0
408,96,46852,1,0
360,56,47542,1,0
312,96,48232,5,0
312,160,48921,1,0
312,224,49611,1,0
312,288,50301,1,0
264,328,50990,1,0
216,288,51680,5,0
216,224,52370,1,0
216,160,53059,1,0
248,104,53749,1,0
304,120,54439,6,0,L|352:192|296:264,1,160
264,192,55473,5,4
208,192,55818,2,0,B|160:192,1,40
112,192,56335,1,2
256,144,57197,6,0,B|256:96,1,40
256,48,57714,1,2
304,192,58577,6,0,B|352:192,1,40
400,192,59094,1,2
256,240,59956,6,0,B|256:288,1,40
256,336,60473,1,2
330,185,61335,6,0,L|294:114|215:125,1,160,0|2
214,124,62714,6,0,L|170:191|219:254,1,160,0|2
219,252,64094,6,0,L|300:257|330:183,1,160,0|2
256,192,65473,5,2
256,192,66852,1,2
256,192,68232,1,2
256,192,68921,1,2
256,192,69611,2,2,L|256:96,3,80
312,112,70990,6,0,L|256:40|200:112|200:176,1,240,0|8
200,257,72370,2,0,L|256:329|312:257|312:200,1,240,0|8
312,112,73749,2,0,L|256:40|200:112|200:169,1,240,0|8
199,256,75129,2,0,L|256:329|312:257|312:200,1,240,0|8
272,160,76508,6,0,L|192:160,1,80,0|4
232,120,77197,2,0,L|312:120,1,80,0|4
344,160,77887,2,0,L|424:160,1,80,0|4
464,120,78576,2,0,L|384:120,1,80,0|4
400,64,79266,6,0,L|320:64,1,80,0|4
336,120,79955,2,0,L|256:120,1,80,0|4
272,64,80645,2,0,L|192:64,1,80,0|4
216,16,81334,2,0,L|136:16,1,80,0|4
160,80,82025,6,0,B|104:136|104:232,1,160,0|0
160,224,83059,1,8
216,224,83404,6,0,B|215:303|283:371,1,160
336,360,84438,1,8
336,304,84783,6,0,B|360:256|328:216,1,80,0|8
296,192,85473,2,0,B|256:168|208:200,1,80,0|8
176,224,86163,2,0,B|152:264|184:312,1,80,0|8
216,336,86852,2,0,B|264:368|304:328,1,80,0|8
336,304,87542,6,0,B|360:256|328:216,1,80,0|8
296,192,88232,2,0,B|256:168|208:200,1,80,0|8
256,264,88921,1,0
256,264,89266,1,8
208,232,89611,6,2,B|192:280|194:303|224:328|256:336|304:328|320:288|312:256|296:224,1,240
256,200,90990,6,0,L|256:184|256:192|248:184|256:184|248:176|256:176|248:168|256:168|248:160|256:160|248:152|256:152|248:144|256:144|248:136|256:136|248:128|256:128|248:120|256:120|248:112|256:112|248:104|256:104|248:96|256:96|248:88|256:88|248:80|256:80|248:72|256:72|248:56,1,320,0|4
256,200,92369,1,4
256,192,92412,12,0,96162
