osu file format v9

[General]
AudioFilename: Ubertreffen.mp3
AudioLeadIn: 1500
PreviewTime: 28232
Countdown: 0
SampleSet: Normal
StackLeniency: 0.7
Mode: 0
LetterboxInBreaks: 1

[Editor]
Bookmarks: 10301,24439,28232,39266,55990,77542
DistanceSpacing: 0.8
BeatDivisor: 4
GridSize: 4

[Metadata]
Title:Ubertreffen
Artist:TAKA respect for J.S.B
Creator:Philippines
Version:Rust
Source:pop'n music 14 FEVER!
Tags:Johann Sebastian Bach Beatmania IIDX wmfchris Emdyion dj troopers

[Difficulty]
HPDrainRate:2
CircleSize:3
OverallDifficulty:2
ApproachRate:3
SliderMultiplier:1.1
SliderTickRate:2

[Events]
//Background and Video events
0,0,"BG.jpg"
//Break Periods
2,56017,59895
//Storyboard Layer 0 (Background)
//Storyboard Layer 1 (Fail)
//Storyboard Layer 2 (Pass)
//Storyboard Layer 3 (Foreground)
//Storyboard Sound Samples
//Background Colour Transformations
3,100,163,162,255

[TimingPoints]
646,344.827586206897,4,1,1,60,1,0
22714,-100,4,1,1,60,0,1
23749,-100,4,1,1,60,0,0
25473,-100,4,1,1,60,0,1
26508,-100,4,1,1,60,0,0
39266,-100,4,1,1,60,0,0
65473,-100,4,1,1,60,0,1
70990,-100,4,1,1,60,0,0
92542,-100,4,2,0,10,0,0

[Colours]
Combo1 : 128,255,128
Combo2 : 128,255,255

[HitObjects]
320,96,646,6,0,B|318:42|370:-12|456:-21|537:44|546:147|487:206|416:226|372:194,1,440,6|6
136,288,3059,1,2
128,200,3404,6,0,B|96:226|25:206|-34:147|-25:44|56:-21|142:-12|194:42|192:96,1,440,6|6
176,264,5473,2,0,B|240:264|256:328|256:328|268:264|332:264,1,220,6|6
512,72,7197,5,0
428,52,7542,1,6
164,36,8577,5,0
80,68,8921,1,6
256,192,10301,12,4,11680
424,296,12714,5,8
336,296,13059,2,0,B|296:240|232:224,1,110,2|8
148,84,14094,1,8
72,40,14439,2,0,B|44:112|96:152,1,110,2|8
100,316,15473,1,8
80,232,15818,6,0,B|132:216|188:256|188:320|188:320|240:360,1,220,2|0
416,336,17197,2,0,B|456:280|464:232,2,110,2|8|0
320,184,18577,2,0,B|272:232|208:232,2,110,2|8|0
456,72,19956,6,0,B|400:96|336:64,1,110,2|10
264,48,20646,2,0,B|256:112|192:120,1,110,0|10
112,88,21335,2,0,B|40:128|32:192,1,110,2|10
88,240,22025,2,0,B|32:272,2,55,0|2|10
128,320,22714,5,6
296,256,23404,2,0,B|328:312|384:320,1,110,4|12
472,328,24094,2,0,B|504:256|504:256|424:232|392:176|400:104|448:48,1,330,2|8
360,32,25473,6,0,B|304:56|248:40,1,110,6|10
232,128,26163,2,0,B|176:88|96:120,1,110,6|12
56,56,26852,2,0,B|16:104|16:104|72:160|88:232|64:320|32:352,1,330,0|8
120,376,28232,5,6
296,360,28921,1,0
224,304,29266,1,8
208,216,29611,5,2
384,248,30301,1,0
456,192,30646,1,8
472,104,30991,5,2
312,176,31680,2,0,B|288:120|288:64,1,110,0|10
208,40,32370,2,0,B|176:88|176:88|88:84|16:184|64:288,1,330,2|8
120,352,33749,6,0,B|176:320|184:256,1,110,6|10
264,240,34439,1,0
440,216,35128,2,0,B|384:184|376:120,1,110,2|10
296,104,35818,1,0
120,136,36508,6,0,B|64:112|56:48,2,110,2|10|0
256,192,37887,12,4,39266
228,268,39956,6,0,B|164:268|136:220,1,110,0|10
48,200,40646,2,0,B|56:152|88:124|144:108|196:136|212:176,1,220,2|0
296,204,41680,1,10
256,284,42025,6,0,B|332:312|416:296|472:236,1,220,2|0
368,96,43404,2,0,B|292:68|208:84|152:144,1,220,2|0
8,220,44783,6,0,B|40:312|148:360|264:368|330:341|396:292,1,440,2|6
500,160,46852,2,0,B|444:192|384:152,1,110,0|10
384,72,47542,6,0,B|320:48|320:48|280:104|224:144|112:144|56:112|8:56|16:8,1,440,2|2
16,200,49611,2,0,B|64:248|40:336,1,110,0|10
136,316,50301,6,0,B|200:372|296:388|408:372|464:316|496:220|488:196,1,440,6|2
472,32,52370,2,0,B|456:92|384:88,1,110,0|10
328,24,53059,6,0,B|272:64|176:80|88:48|88:48|24:120|32:200|72:264,1,440,2|2
224,176,55128,2,0,B|280:216|272:280,2,110,0|10|6
104,84,61335,6,0,B|328:64,1,220,2|2
476,152,62714,2,0,B|252:172,1,220,2|2
88,224,64094,2,0,B|120:296|192:320|248:312|288:296,1,220,2|2
448,336,65473,6,0,B|472:272|448:216,1,110,6|8
400,56,66508,1,10
312,40,66852,2,0,B|264:72|264:136,1,110,6|8
288,312,67887,1,10
208,352,68232,6,0,B|160:312|160:256,1,110,6|10
72,264,68921,2,0,B|64:200|96:160,1,110,6|10
256,192,69611,12,4,70990
168,128,71680,5,0
344,128,72370,1,0
256,280,73059,2,0,B|256:168,1,110,0|8
176,208,73749,6,0,B|124:272|152:384|256:380,1,220
320,228,75128,1,0
200,100,75818,2,0,B|136:92|88:132,1,110,2|8
12,152,76508,5,2
48,232,76852,2,0,B|112:240|160:200,1,110,12|2
168,296,77541,2,0,B|232:272|248:208,1,110,12|2
312,280,78231,6,0,B|344:224|328:160,1,110,12|2
416,192,78921,2,0,B|416:112|368:72,1,110,12|2
300,60,79611,5,14
128,96,80301,1,14
132,272,80990,5,14
304,304,81680,1,14
360,136,82370,6,0,B|416:168|472:160,1,110,10|2
456,248,83059,1,8
368,240,83404,2,0,B|264:184|152:232,1,220,0|2
16,344,84783,6,0,B|56:296|32:240,1,110,6|10
120,232,85473,2,0,B|112:168|40:120,1,110,0|10
136,80,86163,2,0,B|88:32|32:24,2,110,2|8|0
216,112,87197,1,10
288,56,87542,6,0,B|296:144|368:192|464:192,1,220,2|2
344,344,88921,2,0,B|320:256|216:208|128:232,1,220,2|0
108,280,89956,1,10
52,212,90301,6,0,B|16:164|28:80,1,110,0|8
112,112,90990,2,0,B|120:56|184:16,1,110,2|10
264,32,91680,5,0
432,88,92370,5,4
256,192,92628,12,0,96163
