osu file format v9

[General]
AudioFilename: Ubertreffen.mp3
AudioLeadIn: 1500
PreviewTime: 28232
Countdown: 0
SampleSet: Normal
StackLeniency: 0.7
Mode: 0
LetterboxInBreaks: 1

[Editor]
Bookmarks: 10301,24439,28232,39266
DistanceSpacing: 0.6
BeatDivisor: 4
GridSize: 4

[Metadata]
Title:Ubertreffen
Artist:TAKA respect for J.S.B
Creator:Philippines
Version:Gold
Source:pop'n music 14 FEVER!
Tags:Johann Sebastian Bach Beatmania IIDX wmfchris Emdyion dj troopers

[Difficulty]
HPDrainRate:6
CircleSize:4
OverallDifficulty:7
ApproachRate:9
SliderMultiplier:1.7
SliderTickRate:2

[Events]
//Background and Video events
0,0,"BG.jpg"
//Break Periods
2,56018,60218
//Storyboard Layer 0 (Background)
//Storyboard Layer 1 (Fail)
//Storyboard Layer 2 (Pass)
//Storyboard Layer 3 (Foreground)
//Storyboard Sound Samples
//Background Colour Transformations
3,100,163,162,255

[TimingPoints]
646,344.827586206897,4,1,1,60,1,0
22714,-100,4,1,1,60,0,1
23749,-100,4,1,1,60,0,0
25473,-100,4,1,1,60,0,1
26508,-100,4,1,1,60,0,0
38921,-133.333333333333,4,1,1,60,0,0
39180,-133.333333333333,4,1,1,10,0,0
39266,-100,4,1,1,60,0,0
60818,-100,4,1,1,30,0,0
61163,-100,4,1,1,60,0,0
65473,-100,4,1,1,60,0,1
70990,-100,4,1,1,60,0,0
90990,-100,4,1,1,30,0,0
91680,-100,4,1,1,60,0,0
92542,-100,4,2,0,10,0,0

[Colours]
Combo1 : 128,255,128
Combo2 : 128,255,255

[HitObjects]
248,56,473,1,0
184,112,646,6,0,B|96:112,1,85,4|0
96,32,990,1,0
32,72,1163,1,0
32,152,1335,1,0
96,192,1508,1,0
176,192,1680,1,2
216,192,1766,1,0
256,192,1852,1,0
328,272,2025,6,0,B|416:272,1,85,6|0
416,352,2369,1,0
480,312,2542,1,0
480,232,2714,1,0
416,192,2887,1,0
336,192,3059,1,2
296,192,3146,1,0
256,192,3231,1,0
184,272,3404,6,0,B|96:272,1,85,4|0
96,352,3748,1,0
32,312,3921,1,0
32,232,4093,1,0
96,192,4266,1,0
176,192,4438,1,0
256,192,4610,1,0
256,272,4783,6,0,B|256:320,2,42.5,6|0|0
336,192,5128,2,0,B|336:240,2,42.5,2|0|0
416,112,5473,2,0,B|416:160,2,42.5,6|2|2
496,32,5818,2,0,B|496:80,2,42.5,2|0|2
416,32,6163,6,0,B|328:32,1,85,6|0
136,56,6508,2,0,B|224:56,1,85,0|0
416,112,6852,2,0,B|328:112,1,85,0|0
136,136,7197,1,2
176,136,7283,1,0
221,136,7370,1,0
280,200,7542,6,0,B|368:200,1,85,6|0
504,256,7887,2,0,B|416:256,1,85,0|0
256,280,8232,2,0,B|344:280,1,85,0|0
480,336,8577,1,2
436,336,8663,1,0
395,336,8749,1,0
344,384,8921,6,0,B|256:384,1,85,6|0
64,360,9266,2,0,B|152:360,1,85,0|0
256,280,9611,2,0,B|168:280,1,85,0|0
16,256,9956,2,0,B|104:256,1,85,0|0
96,168,10301,5,6
96,80,10473,1,2
152,16,10646,2,0,B|240:16,1,85,2|2
296,80,10990,1,6
296,128,11077,1,2
296,168,11163,1,2
240,232,11335,2,0,B|152:232,1,85,2|2
120,312,11680,6,0,B|196:364|280:312,1,170,6|8
368,312,12197,1,0
456,312,12370,2,0,B|456:224,1,85,0|2
504,152,12714,1,10
416,152,12887,1,0
416,64,13059,6,0,B|360:56|296:128|344:200,1,170,2|8
256,256,13577,1,0
178,179,13749,2,0,B|216:128|152:48|88:64,1,170,0|10
104,152,14266,1,0
16,168,14439,6,0,B|24:208|56:240|112:240|112:240|160:264,1,170,2|10
104,152,14956,1,0
192,80,15128,1,0
256,176,15301,1,2
320,80,15473,1,10
408,152,15645,1,0
364,257,15818,6,0,B|400:240|400:240|456:240|488:208|496:168,1,170,2|10
408,152,16335,1,0
336,104,16508,2,0,B|288:104|288:104|256:88,1,85,0|2
128,128,16852,2,0,B|176:128|176:128|208:144,1,85,10|0
56,128,17197,6,0,B|56:192|112:208|160:200|160:200|196:216,1,170,2|10
144,296,17714,1,0
212,376,17887,2,0,B|300:376,1,85,0|2
368,296,18232,1,10
256,244,18404,1,0
330,209,18577,6,0,B|352:200|352:200|400:208|456:192|456:128,1,170,2|8
384,128,19094,2,0,B|336:128|336:128|304:144,1,85,0|0
256,32,19439,1,2
209,144,19611,2,0,B|176:128|176:128|128:128,1,85,10|0
40,136,19956,6,0,B|64:184,1,42.5,2|0
96,192,20128,2,0,B|120:240,1,42.5,2|0
152,240,20301,2,0,B|176:280,1,42.5,10|0
208,296,20473,2,0,B|240:344,1,42.5,0|0
264,344,20646,2,0,B|288:384,4,42.5,0|0|2|0|10
336,304,21163,1,0
416,280,21335,6,0,B|384:240|384:240|344:224,1,85,2|2
400,160,21680,2,0,B|344:152|344:152|296:168,1,85,10|0
312,72,22025,2,0,B|264:88|264:88|216:128|224:184|248:208,1,170,0|10
317,160,22542,1,0
238,194,22714,5,6
136,148,22887,1,2
56,228,23059,1,14
112,324,23232,1,6
224,308,23404,1,6
240,316,23749,1,10
256,324,24094,6,0,B|352:308,1,85,2|0
480,264,24439,2,0,B|384:248,1,85,10|0
248,212,24783,2,0,B|344:196,1,85,2|0
480,160,25128,2,0,B|384:144,1,85,10|0
262,107,25473,5,6
160,60,25646,1,2
80,136,25818,1,14
136,232,25991,1,6
248,212,26163,2,0,B|296:220|296:220|344:252,2,85,6|2|10
272,292,26680,2,0,B|296:316|336:324|376:300,1,85,0|2
432,296,27025,5,0
480,224,27197,2,0,B|512:136,1,85,10|0
400,192,27542,2,0,B|416:96,1,85,0|2
312,176,27887,2,0,B|312:88,1,85,10|0
224,184,28232,6,0,B|216:136|216:136|192:96|136:96,1,127.5,6|0
124,100,28577,1,10
152,256,28749,2,0,B|144:168,1,85,0|0
240,352,29094,1,2
237,309,29180,1,0
234,266,29266,1,10
440,296,29439,1,0
368,256,29611,6,0,B|360:312|360:312|376:360|424:368,1,127.5,2|0
428,372,29956,1,10
449,211,30128,2,0,B|440:295,1,85,0|0
392,104,30473,1,2
385,145,30559,1,0
378,187,30646,1,10
152,96,30818,1,0
96,32,30990,6,0,B|48:72|64:144|104:160,1,127.5,2|0
104,160,31335,1,10
236,103,31508,2,0,B|152:96,1,85,0|0
259,183,31852,1,2
216,180,31939,1,0
173,176,32025,1,10
56,232,32197,1,0
32,360,32370,6,0,B|72:328,1,42.5,2|0
136,320,32542,2,0,B|176:288,1,42.5,2|0
240,280,32714,2,0,B|280:248,3,42.5,10|0|0|2
248,184,33059,6,0,B|288:152,1,42.5,0|0
352,144,33231,2,0,B|392:112,1,42.5,2|0
456,104,33403,2,0,B|496:72,4,42.5,10|0|0|0|2
440,248,33921,5,0
420,288,34008,1,0
400,324,34094,1,10
320,356,34266,2,0,B|308:324|308:324|340:264,1,85,0|0
364,68,34611,2,0,B|376:100|376:100|344:160,1,85,2|10
332,280,34956,1,0
352,144,35128,5,2
312,152,35214,1,0
268,148,35301,1,0
228,132,35387,1,0
200,100,35473,1,10
124,64,35646,2,0,B|52:128,1,85,0|0
56,228,35990,1,2
88,200,36077,1,0
120,176,36163,1,10
200,100,36335,1,0
159,239,36508,5,2
200,232,36594,1,0
244,236,36681,1,0
284,252,36767,1,0
312,284,36853,1,10
388,320,37026,2,0,B|460:256,1,85,0|0
456,156,37370,1,2
424,184,37457,1,0
392,208,37543,1,10
312,284,37715,1,0
208,356,37887,6,0,B|224:304,1,42.5,0|0
244,236,38059,2,0,B|260:184,1,42.5,0|0
284,116,38232,2,0,B|300:64,4,42.5,8|0|0|0|0
188,64,38749,1,2
80,48,38921,6,0,B|88:100|48:140,1,95.624997150153,10|0
40,160,39266,1,6
40,184,39352,1,0
48,208,39439,1,2
56,232,39525,1,0
72,248,39611,1,10
64,352,39783,5,0
88,336,39870,1,0
112,328,39956,1,0
136,328,40042,1,0
160,336,40128,1,2
232,184,40301,2,0,B|224:272,1,85,10|0
320,320,40646,5,2
344,328,40732,1,0
368,328,40818,1,2
392,320,40904,1,0
416,304,40990,1,10
504,216,41163,5,0
480,216,41249,1,0
456,208,41335,1,0
432,192,41421,1,0
416,168,41508,1,2
336,48,41680,2,0,B|328:136,1,85,10|0
216,48,42025,5,2
200,64,42111,1,0
176,80,42197,1,2
152,88,42283,1,0
128,88,42370,1,10
0,104,42542,5,0
16,120,42628,1,0
32,144,42714,1,0
40,168,42801,1,0
40,192,42887,1,2
80,336,43059,2,0,B|112:256,1,85,10|0
208,176,43404,5,2
216,200,43490,1,0
232,216,43577,1,2
256,232,43663,1,0
280,240,43749,1,10
288,352,43921,5,0
312,336,44008,1,0
336,328,44094,1,0
360,328,44180,1,0
384,336,44266,1,2
488,168,44439,2,0,B|408:224,1,85,10|0
360,104,44783,5,2
272,56,44956,1,0
168,48,45128,2,0,B|72:72,1,85,10|0
4,128,45473,1,0
92,176,45646,1,2
196,184,45818,2,0,B|292:160,1,85,10|0
152,280,46163,5,6
240,328,46336,1,0
344,336,46508,2,0,B|440:312,1,85,10|0
508,256,46853,1,0
420,208,47026,1,2
316,200,47198,2,0,B|220:224,1,85,10|0
72,96,47542,5,2
96,104,47628,1,0
120,104,47714,1,0
144,96,47801,1,0
168,80,47887,1,10
336,48,48059,5,0
320,64,48146,1,0
312,88,48232,1,0
312,112,48318,1,0
320,136,48404,1,2
464,184,48577,5,10
448,200,48663,1,0
432,216,48749,1,0
384,328,48921,5,2
368,312,49008,1,0
344,304,49094,1,0
320,304,49180,1,0
296,312,49266,1,10
96,344,49439,5,0
120,328,49525,1,0
136,312,49611,1,0
148,288,49697,1,0
156,264,49783,1,2
32,160,49956,5,10
56,152,50042,1,0
80,144,50128,1,0
176,48,50301,5,6
192,64,50387,1,0
216,72,50473,1,0
240,72,50559,1,0
264,64,50646,1,10
392,48,50818,5,0
416,64,50904,1,0
432,88,50990,1,0
432,112,51077,1,0
424,136,51163,1,2
296,168,51335,5,10
312,184,51421,1,0
328,200,51508,1,0
448,320,51680,5,2
424,304,51766,1,0
400,296,51852,1,0
376,296,51939,1,0
352,304,52025,1,10
160,352,52197,5,0
184,344,52283,1,2
208,328,52370,1,0
224,304,52456,1,0
232,280,52542,1,2
72,272,52714,5,10
48,256,52801,1,0
24,240,52887,1,0
48,128,53059,5,2
72,120,53146,1,0
88,104,53232,1,0
96,80,53318,1,0
96,56,53404,1,10
176,176,53577,5,0
192,152,53663,1,0
216,136,53749,1,2
240,128,53835,1,0
264,128,53921,1,0
416,32,54094,5,10
400,56,54180,1,0
384,80,54266,1,0
488,176,54439,5,2
464,184,54525,1,0
448,200,54611,1,0
440,224,54697,1,0
440,248,54783,1,10
320,256,54956,5,0
312,280,55042,1,0
296,296,55128,1,0
272,304,55214,1,0
248,304,55301,1,2
136,336,55473,5,10
128,312,55559,1,0
120,288,55646,1,0
112,264,55732,1,0
104,240,55818,1,6
392,328,60818,6,0,B|416:336,4,21.25,0|0|0|0|0
296,336,61163,1,2
200,320,61335,5,2
176,336,61421,1,0
152,344,61508,1,0
128,344,61594,1,0
104,344,61680,2,0,B|80:336|64:328,3,42.5,10|0|0|0
48,312,62025,5,0
32,288,62111,1,0
24,264,62197,1,0
24,240,62283,1,0
32,216,62370,2,0,B|40:192|64:176,3,42.5,10|0|0|0
72,168,62714,5,2
96,160,62801,1,0
120,160,62887,1,0
144,168,62973,1,0
168,184,63059,2,0,B|184:200|216:208,3,42.5,10|0|0|0
232,208,63404,5,2
256,208,63490,1,0
280,204,63577,1,0
304,192,63663,1,0
320,172,63749,2,0,B|336:156|336:132,3,42.5,10|0|0|0
336,108,64094,5,2
332,84,64180,1,0
316,64,64266,1,0
296,48,64352,1,0
272,36,64439,2,0,B|248:28|216:36,3,42.5,10|0|0|0
204,40,64783,5,2
180,52,64870,1,0
164,72,64956,1,0
156,96,65042,1,0
152,120,65128,2,0,B|152:144|168:168,3,42.5,10|0|0|0
176,184,65473,5,6
196,200,65559,1,0
220,208,65646,1,0
440,192,65818,1,10
208,352,65990,5,0
224,336,66077,1,0
248,320,66163,1,0
272,312,66249,1,0
296,312,66335,1,2
440,192,66508,1,10
144,32,66680,5,2
160,56,66766,1,0
184,72,66852,1,6
208,80,66939,1,0
232,84,67025,1,0
440,192,67197,1,10
128,248,67370,5,0
152,240,67456,1,0
176,224,67542,1,0
192,208,67628,1,0
208,184,67714,1,2
440,192,67887,1,10
440,352,68059,1,2
424,328,68146,1,2
408,304,68232,6,0,B|384:264,1,42.5,6|0
304,296,68404,2,0,B|280:256,1,42.5,0|0
200,288,68577,2,0,B|176:248,1,42.5,8|0
96,280,68749,2,0,B|72:240,1,42.5,2|0
104,80,68921,6,0,B|128:120,1,42.5,6|0
208,88,69093,2,0,B|232:128,1,42.5,0|0
312,96,69266,2,0,B|336:136,1,42.5,8|0
416,104,69438,2,0,B|440:144,1,42.5,2|0
464,232,69611,5,6
384,216,69783,1,2
296,208,69956,1,10
216,192,70128,1,2
128,184,70301,1,2
48,168,70473,1,2
128,184,70646,6,0,B|108:232,2,42.5
48,168,70990,5,6
56,144,71077,1,0
64,120,71163,1,0
64,96,71249,1,0
56,72,71335,1,8
176,48,71508,5,0
192,72,71594,1,0
208,88,71680,1,0
228,104,71766,1,0
252,112,71852,1,2
276,116,71939,1,0
300,116,72025,1,10
440,88,72197,1,0
432,112,72283,1,0
424,136,72370,6,0,B|408:192,2,42.5,2|0|2
344,240,72714,2,0,B|328:296,2,42.5,10|0|0
240,192,73059,2,0,B|224:248,2,42.5,0|0|2
160,296,73403,2,0,B|144:352,2,42.5,10|0|0
48,248,73749,5,2
64,232,73835,1,0
80,208,73921,1,0
88,184,74008,1,0
88,160,74094,1,10
136,48,74266,5,0
160,56,74352,1,0
184,64,74439,1,0
208,64,74525,1,0
232,64,74611,1,2
256,56,74697,1,0
280,48,74783,1,10
432,120,74956,2,0,B|384:136,1,42.5,0|0
368,144,75128,5,2
344,152,75214,1,0
320,160,75301,1,0
344,264,75473,1,10
320,272,75559,1,0
296,280,75646,1,0
192,120,75818,1,0
168,128,75904,1,0
144,136,75991,1,2
168,240,76163,1,10
144,248,76249,1,0
120,256,76336,1,0
212,344,76508,5,2
188,336,76594,1,0
164,328,76680,1,2
48,192,76852,1,12
316,72,77025,5,0
308,96,77111,1,0
292,112,77197,1,0
268,128,77283,1,0
244,132,77370,1,2
48,192,77542,1,14
364,296,77714,5,0
348,280,77801,1,0
324,264,77887,1,2
300,256,77973,1,0
276,248,78059,1,2
48,192,78232,1,14
284,24,78404,5,0
260,24,78490,1,0
236,32,78577,1,2
212,40,78663,1,0
188,56,78749,1,2
48,192,78921,1,14
324,360,79094,5,0
300,368,79180,1,0
276,368,79267,1,2
252,360,79353,1,0
236,344,79439,1,2
48,192,79611,1,14
336,152,79783,5,0
312,136,79870,1,2
288,128,79956,1,0
264,128,80042,1,0
240,136,80128,1,2
48,192,80301,1,14
368,248,80473,5,0
348,264,80559,1,0
324,272,80645,1,2
300,272,80731,1,0
276,264,80817,1,0
48,192,80990,1,12
300,368,81163,5,0
276,376,81249,1,0
252,376,81335,1,0
228,368,81421,1,0
212,352,81508,1,2
48,192,81680,1,14
124,152,81852,1,0
168,80,82025,6,0,B|216:112|224:168|184:216,1,127.5,6|0
152,240,82370,2,0,B|200:224|244:260,1,85,10|2
296,144,82714,5,2
312,168,82801,1,0
328,184,82887,1,2
352,200,82973,1,0
376,208,83059,1,10
464,272,83232,1,0
360,336,83404,5,2
344,312,83490,1,0
320,296,83577,1,2
296,288,83663,1,0
272,288,83749,1,10
160,336,83921,1,0
48,288,84094,5,2
56,264,84180,1,0
64,240,84266,1,2
176,224,84439,1,10
184,200,84525,1,0
192,176,84611,1,0
56,128,84783,5,6
80,128,84870,1,0
104,120,84956,1,2
128,112,85042,1,0
152,96,85128,2,0,B|168:80|184:64,3,42.5,10|0|2|0
200,48,85473,5,2
224,32,85559,1,0
248,24,85646,1,2
272,24,85732,1,0
296,32,85818,2,0,B|320:40|336:64,3,42.5,10|0|0|0
336,80,86163,5,2
344,104,86249,1,0
360,128,86335,1,2
376,144,86421,1,0
392,160,86508,2,0,B|416:184|440:192,3,42.5,10|0|0|0
448,200,86852,5,0
464,216,86939,1,0
480,240,87025,1,2
488,264,87111,1,0
488,288,87197,2,0,B|488:312|472:336,3,42.5,10|0|0|0
464,352,87542,5,2
440,368,87628,1,0
416,376,87714,1,2
392,376,87801,1,0
368,368,87887,2,0,B|344:360|328:344,3,42.5,10|0|0|0
312,336,88232,5,0
288,320,88318,1,0
264,312,88404,1,2
240,312,88490,1,0
216,320,88577,2,0,B|192:328|176:344,3,42.5,10|0|0|0
160,352,88921,5,2
136,368,89008,1,0
112,376,89094,1,0
88,376,89180,1,0
64,376,89266,2,0,B|40:368|24:352,3,42.5,10|0|0|0
8,336,89611,5,0
0,312,89697,1,0
0,288,89783,1,2
0,264,89870,1,0
8,240,89956,2,0,B|16:216|40:200,3,42.5,10|0|0|0
56,192,90301,5,2
80,184,90387,1,0
104,184,90473,1,2
128,192,90559,1,0
152,200,90646,2,0,B|176:216|200:224,3,42.5
216,232,90990,6,0,B|240:240,14,21.25
256,248,91680,5,0
280,256,92370,1,4
256,192,92542,12,0,96163
