osu file format v5

[General]
AudioFilename: (TAITO)JETGO!BG1.mp3
AudioLeadIn: 0
PreviewTime: -1
Countdown: 1
SampleSet: Soft
EditorBookmarks: 67045,70380

[Metadata]
Title:Snow Melt Into Water (JET de GO!)
Artist:TAITO
Creator:diela
Version:Easy

[Difficulty]
HPDrainRate:3
CircleSize:4
OverallDifficulty:3
SliderMultiplier:1.4
SliderTickRate:2

[Events]
//Background and Video events
0,0,"JETGO.PNG"
//Break Periods
//Storyboard Layer 0 (Background)
//Storyboard Layer 1 (Failing)
//Storyboard Layer 2 (Passing)
//Storyboard Layer 3 (Foreground)
//Storyboard Sound Samples
//Background Colour Transformations
3,100,163,162,255

[TimingPoints]
51,555.96738324685,3,2,0,100

[Colours]
Combo1 : 240,5,5
Combo2 : 255,255,255
Combo3 : 60,60,60

[HitObjects]
96,80,1718,2,0,B|200:80|289:180|272:352,1,350
160,336,3386,2,0,B|264:336|353:236|336:64,1,350
232,80,5054,2,0,B|336:80|425:180|408:352,1,350
312,336,6722,2,0,B|208:336|119:236|136:64,1,350
248,80,8390,2,0,B|352:80|441:180|424:352,1,350
312,336,10058,2,0,B|416:336|505:236|488:64,1,350
392,80,11726,2,0,B|288:80|199:180|216:352,1,350
344,320,13394,5,0
344,256,13672,1,0
320,200,13950,2,2,B|283:130|200:112,1,140
336,120,15062,5,0
328,184,15340,1,0
296,248,15618,2,2,B|272:286|200:272,3,70
120,304,16730,5,0
80,248,17008,1,0
112,184,17286,2,2,B|142:107|248:120,1,140
336,120,18397,5,0
328,184,18675,1,0
304,248,18953,2,2,B|286:292|232:312,3,70
336,248,20065,5,0
328,184,20343,1,0
296,120,20621,2,2,B|266:43|160:56,1,140
72,56,21733,5,0
80,120,22011,1,0
112,184,22289,2,2,B|142:261|248:248,1,140
296,256,23123,1,4
416,256,23401,5,0
408,192,23679,1,0
376,128,23957,2,2,B|346:51|240:64,1,140
264,168,25069,5,0
256,232,25347,1,0
232,288,25625,2,2,B|153:311|72:256,1,140
40,248,26459,1,4
40,336,26737,6,2,B|294:437|480:382|545:48|296:0,1,770
264,0,30073,2,2,B|-16:1|24:280,1,420
24,320,32019,2,2,B|217:373|216:192,1,280
160,224,33409,2,2,B|92:49|202:-10|393:-3|501:78|478:269|430:370|329:380|179:371|116:322|96:232,1,910
48,256,37300,2,2,B|28:107|87:22|196:6|294:36|387:111|394:280|208:328,1,700
208,264,40636,6,0,B|67:294|-68:137|12:-31|195:-64|341:-8|395:130|224:264,1,770
232,296,43972,2,0,B|327:308|412:201|336:104,1,280
280,136,45362,2,2,B|268:41|375:-44|472:32,1,280
472,80,46752,2,0,B|510:362|321:380|121:377|-5:316|24:32,1,840
128,56,50644,1,2
184,120,51199,1,4
264,80,51755,1,2
320,144,52311,1,2
416,144,52867,1,4
488,184,53423,6,0,B|492:369|264:381|5:378|8:19|480:40,1,910
464,104,57315,2,0,B|326:92|211:135|164:198|232:256,1,350
280,208,58983,2,0,B|326:303|259:337|177:344|123:296|96:216|119:129|167:39|472:40,1,700
464,120,62041,1,2
464,200,62597,1,2
464,280,63153,2,2,B|232:280,1,210
168,280,64543,1,2
168,216,65099,1,2
264,216,65655,1,2
352,216,66211,1,2
440,216,66767,1,2
448,208,67045,6,0,B|453:104|386:62|312:48,3,210
280,48,69824,1,0
216,48,70102,1,0
152,48,70380,1,0
152,112,70658,2,2,B|83:105|37:130|24:184,3,140
112,168,72604,1,0
176,152,72882,1,0
208,96,73160,1,0
272,88,73438,2,2,B|400:86|446:237|352:304,1,280
312,288,74828,1,2
248,296,75106,2,2,B|120:298|74:147|168:80,1,280
208,80,76496,1,2
272,88,76774,2,2,B|400:86|446:237|352:304,1,280
312,288,78164,1,2
248,296,78442,2,2,B|120:298|74:147|168:80,1,280
200,72,79832,1,2
256,64,80110,1,4
256,192,80388,12,0,83168
248,256,83724,6,2,B|246:147|299:72|401:57|488:56,1,350
480,120,85391,1,0
480,184,85669,2,2,B|315:224|216:88,1,280
184,144,87059,2,2,B|240:232|304:264|368:280,2,210
248,120,89005,2,2,B|191:20|117:41|128:168,1,210
128,144,90117,2,2,B|64:144|32:232|40:320|136:376|208:368|264:354|304:304,1,420
248,272,92063,2,0,B|358:207|336:358|446:320|456:192,1,280
456,200,93453,5,0
456,200,93731,2,2,B|443:81|395:63|320:48,1,210
264,48,94843,2,0,B|176:48,2,70
256,112,95677,2,0,B|259:182|256:245|144:264,1,210
96,224,96789,6,2,B|96:152,2,70
96,288,97623,2,0,B|154:290|184:256,1,70
208,232,98179,1,2
240,184,98457,2,0,B|256:112|234:60|178:35|107:47|40:192,1,350
96,208,100125,2,2,B|151:97|229:68|312:96|376:151|409:206|432:251|394:340|312:360,1,560
192,360,102904,1,2
64,360,103460,2,2,B|64:208,5,140
184,216,106796,1,6
48,136,107352,6,2,B|171:134|160:280,1,210
160,336,108464,2,2,B|264:336|353:236|336:64,1,350
232,80,110132,2,2,B|336:80|425:180|408:352,1,350
312,336,111800,2,2,B|208:336|119:236|136:64,1,350
248,80,113468,2,2,B|352:80|441:180|424:352,1,350
312,336,115136,2,2,B|416:336|505:236|488:64,1,350
392,80,116804,2,2,B|288:80|199:180|216:352,1,350
312,336,118472,2,2,B|208:336|119:236|136:64,1,350
216,80,120139,5,0
280,88,120417,1,0
344,96,120695,2,0,B|422:103|472:168,1,140
464,256,121807,5,2
400,256,122085,1,2
336,256,122363,2,2,B|280:248|280:184,3,70
272,152,123475,5,0
208,160,123753,1,0
144,168,124031,2,0,B|66:175|16:240,1,140
24,328,125143,5,2
88,328,125421,1,2
152,328,125699,2,2,B|208:320|208:256,3,70
256,192,126811,12,0,130155
