osu file format v12

[General]
AudioFilename: TAG underground - POSSESSION.mp3
AudioLeadIn: 2000
PreviewTime: 30240
Countdown: 0
SampleSet: Normal
StackLeniency: 0.7
Mode: 1
LetterboxInBreaks: 0
WidescreenStoryboard: 1

[Editor]
DistanceSpacing: 0.1
BeatDivisor: 1
GridSize: 32

[Metadata]
Title:POSSESSION
TitleUnicode:POSSESSION
Artist:TAG underground
ArtistUnicode:TAG underground
Creator:Kokatsu
Version:Muzukashii
Source:Dance Dance Revolution X2
Tags:DDR
BeatmapID:329668
BeatmapSetID:128856

[Difficulty]
HPDrainRate:5
CircleSize:4
OverallDifficulty:5
ApproachRate:5
SliderMultiplier:1.4
SliderTickRate:1

[Events]
//Background and Video events
0,0,"possessionbg.jpg",0,0
//Break Periods
//Storyboard Layer 0 (Background)
//Storyboard Layer 1 (Fail)
//Storyboard Layer 2 (Pass)
//Storyboard Layer 3 (Foreground)
//Storyboard Sound Samples
//Background Colour Transformations
3,100,163,162,255

[TimingPoints]
241,324.324324324324,4,1,0,80,1,0
31376,-100,4,1,0,90,0,1
41754,-100,4,1,0,90,0,0
52132,-100,4,1,0,80,0,0
62511,-100,4,1,0,90,0,1
83268,-100,4,1,0,90,0,0
93646,-100,4,1,0,90,0,1
104024,-100,4,1,0,90,0,0

[HitObjects]
256,192,241,1,4,0:0:0:0:
256,192,565,1,8,0:0:0:0:
256,192,889,1,0,0:0:0:0:
256,192,1213,1,8,0:0:0:0:
256,192,1538,1,0,0:0:0:0:
256,192,2186,1,0,0:0:0:0:
256,192,2349,1,0,0:0:0:0:
256,192,2511,1,8,0:0:0:0:
256,192,2835,1,0,0:0:0:0:
256,192,3159,1,8,0:0:0:0:
256,192,3484,1,0,0:0:0:0:
256,192,3808,1,8,0:0:0:0:
256,192,4132,1,0,0:0:0:0:
256,192,4781,1,0,0:0:0:0:
256,192,5105,1,8,0:0:0:0:
256,192,5268,1,8,0:0:0:0:
256,192,5430,1,0,0:0:0:0:
256,192,5754,1,8,0:0:0:0:
256,192,6078,1,0,0:0:0:0:
256,192,6403,1,8,0:0:0:0:
256,192,6727,1,0,0:0:0:0:
256,192,7376,1,0,0:0:0:0:
256,192,7538,1,0,0:0:0:0:
256,192,7700,1,8,0:0:0:0:
256,192,8024,1,0,0:0:0:0:
256,192,8349,1,8,0:0:0:0:
256,192,8673,1,0,0:0:0:0:
256,192,8997,1,8,0:0:0:0:
256,192,9322,1,0,0:0:0:0:
256,192,9970,1,0,0:0:0:0:
256,192,10295,1,8,0:0:0:0:
256,192,10457,1,8,0:0:0:0:
256,192,10619,1,4,0:0:0:0:
256,192,10943,1,8,0:0:0:0:
256,192,11268,1,0,0:0:0:0:
256,192,11592,1,8,0:0:0:0:
256,192,11916,1,0,0:0:0:0:
256,192,12565,1,0,0:0:0:0:
256,192,12727,1,0,0:0:0:0:
256,192,12889,1,8,0:0:0:0:
256,192,13213,1,0,0:0:0:0:
256,192,13538,1,8,0:0:0:0:
256,192,13863,1,0,0:0:0:0:
256,192,14187,1,8,0:0:0:0:
256,192,14511,1,0,0:0:0:0:
256,192,15159,1,0,0:0:0:0:
256,192,15484,1,8,0:0:0:0:
256,192,15647,1,8,0:0:0:0:
256,192,15809,1,0,0:0:0:0:
256,192,16132,1,8,0:0:0:0:
256,192,16457,1,0,0:0:0:0:
256,192,16781,1,8,0:0:0:0:
256,192,17105,1,0,0:0:0:0:
256,192,17592,1,0,0:0:0:0:
256,192,17916,1,8,0:0:0:0:
256,192,18240,1,0,0:0:0:0:
256,192,18727,1,8,0:0:0:0:
256,192,19213,1,0,0:0:0:0:
256,192,19700,1,8,0:0:0:0:
256,192,20186,1,0,0:0:0:0:
256,192,20511,1,0,0:0:0:0:
256,192,20997,12,0,23268,0:0:0:0:
256,192,23430,5,4,0:0:0:0:
256,192,23592,1,4,0:0:0:0:
256,192,24078,1,4,0:0:0:0:
256,192,25538,1,4,0:0:0:0:
256,192,25862,1,4,0:0:0:0:
256,192,26186,1,4,0:0:0:0:
256,192,26673,1,4,0:0:0:0:
256,192,28619,1,4,0:0:0:0:
256,192,28781,1,4,0:0:0:0:
256,192,29268,1,4,0:0:0:0:
256,192,29754,1,4,0:0:0:0:
256,192,30240,1,4,0:0:0:0:
256,192,30727,1,4,0:0:0:0:
256,192,31051,1,4,0:0:0:0:
256,192,31376,1,4,0:0:0:0:
256,192,31538,1,0,0:0:0:0:
256,192,31700,1,8,0:0:0:0:
256,192,32024,1,0,0:0:0:0:
256,192,32186,1,8,0:0:0:0:
256,192,32511,1,8,0:0:0:0:
256,192,32835,1,8,0:0:0:0:
256,192,32997,1,0,0:0:0:0:
256,192,33322,1,0,0:0:0:0:
256,192,33646,1,0,0:0:0:0:
256,192,33970,1,0,0:0:0:0:
256,192,34132,1,0,0:0:0:0:
256,192,34295,1,8,0:0:0:0:
256,192,34619,1,0,0:0:0:0:
256,192,34781,1,8,0:0:0:0:
256,192,35105,1,8,0:0:0:0:
256,192,35430,1,8,0:0:0:0:
256,192,35592,1,0,0:0:0:0:
256,192,35916,1,0,0:0:0:0:
256,192,36240,1,8,0:0:0:0:
256,192,36565,1,0,0:0:0:0:
256,192,36727,1,0,0:0:0:0:
256,192,36889,1,8,0:0:0:0:
256,192,37213,1,0,0:0:0:0:
256,192,37375,1,8,0:0:0:0:
256,192,37700,1,8,0:0:0:0:
256,192,38024,1,8,0:0:0:0:
256,192,38186,1,0,0:0:0:0:
256,192,38511,1,0,0:0:0:0:
256,192,38835,1,0,0:0:0:0:
256,192,39159,1,0,0:0:0:0:
256,192,39321,1,0,0:0:0:0:
256,192,39484,1,8,0:0:0:0:
256,192,39808,1,0,0:0:0:0:
256,192,39970,1,8,0:0:0:0:
256,192,40294,1,8,0:0:0:0:
256,192,40619,1,8,0:0:0:0:
256,192,40781,1,0,0:0:0:0:
256,192,40943,1,0,0:0:0:0:
256,192,41024,1,0,0:0:0:0:
256,192,41105,1,0,0:0:0:0:
256,192,41430,1,0,0:0:0:0:
256,192,41754,1,4,0:0:0:0:
256,192,42186,1,8,0:0:0:0:
256,192,42619,1,8,0:0:0:0:
256,192,43051,1,0,0:0:0:0:
256,192,43700,1,0,0:0:0:0:
256,192,44349,1,0,0:0:0:0:
256,192,44781,1,8,0:0:0:0:
256,192,45213,1,8,0:0:0:0:
256,192,45646,1,0,0:0:0:0:
256,192,46295,1,8,0:0:0:0:
256,192,46943,1,0,0:0:0:0:
256,192,47376,1,8,0:0:0:0:
256,192,47808,1,8,0:0:0:0:
256,192,48240,1,0,0:0:0:0:
256,192,48889,1,0,0:0:0:0:
256,192,49538,1,0,0:0:0:0:
256,192,49971,1,8,0:0:0:0:
256,192,50403,1,8,0:0:0:0:
256,192,50835,1,0,0:0:0:0:
256,192,51268,1,8,0:0:0:0:
256,192,51484,1,0,0:0:0:0:
256,192,51808,1,0,0:0:0:0:
256,192,52132,1,4,0:0:0:0:
256,192,52457,1,8,0:0:0:0:
256,192,53105,1,8,0:0:0:0:
256,192,53754,1,8,0:0:0:0:
256,192,54402,1,8,0:0:0:0:
256,192,54727,1,0,0:0:0:0:
256,192,55051,1,8,0:0:0:0:
256,192,55700,1,8,0:0:0:0:
256,192,56349,1,8,0:0:0:0:
256,192,56673,1,0,0:0:0:0:
256,192,56997,1,8,0:0:0:0:
256,192,57322,1,0,0:0:0:0:
256,192,57970,1,0,0:0:0:0:
256,192,58295,1,8,0:0:0:0:
256,192,58943,1,8,0:0:0:0:
256,192,59268,1,0,0:0:0:0:
256,192,59430,1,0,0:0:0:0:
256,192,59592,1,8,0:0:0:0:
256,192,59916,2,0,L|416:192,1,140
256,192,60565,2,0,L|416:192,1,140
256,192,61213,1,4,0:0:0:0:
256,192,61862,1,12,0:0:0:0:
256,192,62511,1,4,0:0:0:0:
256,192,62673,1,0,0:0:0:0:
256,192,62835,1,8,0:0:0:0:
256,192,63159,1,0,0:0:0:0:
256,192,63321,1,8,0:0:0:0:
256,192,63646,1,8,0:0:0:0:
256,192,63970,1,8,0:0:0:0:
256,192,64132,1,0,0:0:0:0:
256,192,64457,1,0,0:0:0:0:
256,192,64781,1,0,0:0:0:0:
256,192,65105,1,0,0:0:0:0:
256,192,65267,1,0,0:0:0:0:
256,192,65430,1,8,0:0:0:0:
256,192,65754,1,0,0:0:0:0:
256,192,65916,1,8,0:0:0:0:
256,192,66240,1,8,0:0:0:0:
256,192,66565,1,8,0:0:0:0:
256,192,66727,1,0,0:0:0:0:
256,192,67051,1,0,0:0:0:0:
256,192,67375,1,8,0:0:0:0:
256,192,67700,1,0,0:0:0:0:
256,192,67862,1,0,0:0:0:0:
256,192,68024,1,8,0:0:0:0:
256,192,68348,1,0,0:0:0:0:
256,192,68510,1,8,0:0:0:0:
256,192,68835,1,8,0:0:0:0:
256,192,69159,1,8,0:0:0:0:
256,192,69321,1,0,0:0:0:0:
256,192,69646,1,0,0:0:0:0:
256,192,69970,1,0,0:0:0:0:
256,192,70294,1,0,0:0:0:0:
256,192,70456,1,0,0:0:0:0:
256,192,70619,1,8,0:0:0:0:
256,192,70943,1,0,0:0:0:0:
256,192,71105,1,8,0:0:0:0:
256,192,71429,1,8,0:0:0:0:
256,192,71754,1,8,0:0:0:0:
256,192,71916,1,0,0:0:0:0:
256,192,72078,1,0,0:0:0:0:
256,192,72159,1,0,0:0:0:0:
256,192,72240,1,0,0:0:0:0:
256,192,72565,1,8,0:0:0:0:
256,192,72889,1,8,0:0:0:0:
256,192,73051,1,0,0:0:0:0:
256,192,73213,1,0,0:0:0:0:
256,192,73538,1,8,0:0:0:0:
256,192,73700,1,0,0:0:0:0:
256,192,74024,1,0,0:0:0:0:
256,192,74349,1,8,0:0:0:0:
256,192,74511,1,0,0:0:0:0:
256,192,74835,1,0,0:0:0:0:
256,192,75159,1,0,0:0:0:0:
256,192,75484,1,8,0:0:0:0:
256,192,75646,1,0,0:0:0:0:
256,192,75808,1,0,0:0:0:0:
256,192,76133,1,8,0:0:0:0:
256,192,76295,1,0,0:0:0:0:
256,192,76619,1,0,0:0:0:0:
256,192,76944,1,8,0:0:0:0:
256,192,77106,1,0,0:0:0:0:
256,192,77430,1,0,0:0:0:0:
256,192,77754,1,8,0:0:0:0:
256,192,78079,1,8,0:0:0:0:
256,192,78240,1,0,0:0:0:0:
256,192,78402,1,0,0:0:0:0:
256,192,78727,1,8,0:0:0:0:
256,192,78889,1,0,0:0:0:0:
256,192,79213,1,0,0:0:0:0:
256,192,79538,1,8,0:0:0:0:
256,192,79700,1,0,0:0:0:0:
256,192,80024,1,0,0:0:0:0:
256,192,80348,1,0,0:0:0:0:
256,192,80673,1,8,0:0:0:0:
256,192,80835,1,0,0:0:0:0:
256,192,80997,1,0,0:0:0:0:
256,192,81322,1,8,0:0:0:0:
256,192,81484,1,0,0:0:0:0:
256,192,81808,1,0,0:0:0:0:
256,192,82133,1,8,0:0:0:0:
256,192,82295,1,0,0:0:0:0:
256,192,82457,1,0,0:0:0:0:
256,192,82538,1,0,0:0:0:0:
256,192,82619,1,0,0:0:0:0:
256,192,82943,1,0,0:0:0:0:
256,192,83268,1,4,0:0:0:0:
256,192,83700,1,8,0:0:0:0:
256,192,84133,1,8,0:0:0:0:
256,192,84565,1,0,0:0:0:0:
256,192,85213,1,0,0:0:0:0:
256,192,85863,1,0,0:0:0:0:
256,192,86295,1,8,0:0:0:0:
256,192,86727,1,8,0:0:0:0:
256,192,87160,1,0,0:0:0:0:
256,192,87808,1,8,0:0:0:0:
256,192,88457,1,0,0:0:0:0:
256,192,88890,1,8,0:0:0:0:
256,192,89322,1,8,0:0:0:0:
256,192,89754,1,0,0:0:0:0:
256,192,90403,1,0,0:0:0:0:
256,192,91052,1,0,0:0:0:0:
256,192,91485,1,8,0:0:0:0:
256,192,91917,1,8,0:0:0:0:
256,192,92349,1,0,0:0:0:0:
256,192,92781,1,0,0:0:0:0:
256,192,93213,1,8,0:0:0:0:
256,192,93646,1,4,0:0:0:0:
256,192,93862,1,0,0:0:0:0:
256,192,94078,1,8,0:0:0:0:
256,192,94511,1,0,0:0:0:0:
256,192,94943,1,0,0:0:0:0:
256,192,95592,1,0,0:0:0:0:
256,192,96240,1,0,0:0:0:0:
256,192,96457,1,0,0:0:0:0:
256,192,96673,1,8,0:0:0:0:
256,192,97105,1,0,0:0:0:0:
256,192,97538,1,0,0:0:0:0:
256,192,98186,1,8,0:0:0:0:
256,192,98835,1,0,0:0:0:0:
256,192,99051,1,0,0:0:0:0:
256,192,99268,1,8,0:0:0:0:
256,192,99700,1,0,0:0:0:0:
256,192,100132,1,0,0:0:0:0:
256,192,100781,1,0,0:0:0:0:
256,192,101430,1,0,0:0:0:0:
256,192,101646,1,0,0:0:0:0:
256,192,101862,1,8,0:0:0:0:
256,192,102295,1,0,0:0:0:0:
256,192,102727,1,0,0:0:0:0:
256,192,103159,1,0,0:0:0:0:
256,192,103376,1,0,0:0:0:0:
256,192,103700,1,0,0:0:0:0:
256,192,104024,1,4,0:0:0:0:
