osu file format v12

[General]
AudioFilename: TAG underground - POSSESSION.mp3
AudioLeadIn: 2000
PreviewTime: 30240
Countdown: 0
SampleSet: Normal
StackLeniency: 0.7
Mode: 1
LetterboxInBreaks: 0
WidescreenStoryboard: 1

[Editor]
DistanceSpacing: 0.1
BeatDivisor: 4
GridSize: 32

[Metadata]
Title:POSSESSION
TitleUnicode:POSSESSION
Artist:TAG underground
ArtistUnicode:TAG underground
Creator:Kokatsu
Version:Inner Muzukashii
Source:Dance Dance Revolution X2
Tags:DDR
BeatmapID:326023
BeatmapSetID:128856

[Difficulty]
HPDrainRate:6
CircleSize:4
OverallDifficulty:5
ApproachRate:5
SliderMultiplier:1.4
SliderTickRate:1

[Events]
//Background and Video events
0,0,"possessionbg.jpg",0,0
//Break Periods
//Storyboard Layer 0 (Background)
//Storyboard Layer 1 (Fail)
//Storyboard Layer 2 (Pass)
//Storyboard Layer 3 (Foreground)
//Storyboard Sound Samples
//Background Colour Transformations
3,100,163,162,255

[TimingPoints]
241,324.324324324324,4,1,0,80,1,0
31376,-100,4,1,0,90,0,1
41754,-100,4,1,0,90,0,0
52132,-100,4,1,0,80,0,0
62511,-100,4,1,0,90,0,1
83268,-100,4,1,0,90,0,0
93646,-100,4,1,0,90,0,1
104024,-100,4,1,0,90,0,0

[HitObjects]
256,192,241,1,4,0:0:0:0:
256,192,565,1,8,0:0:0:0:
256,192,889,1,0,0:0:0:0:
256,192,1051,1,8,0:0:0:0:
256,192,1376,1,0,0:0:0:0:
256,192,1538,1,8,0:0:0:0:
256,192,1862,1,0,0:0:0:0:
256,192,2024,1,8,0:0:0:0:
256,192,2349,1,8,0:0:0:0:
256,192,2673,1,0,0:0:0:0:
256,192,3159,1,8,0:0:0:0:
256,192,3484,1,0,0:0:0:0:
256,192,3646,1,8,0:0:0:0:
256,192,3970,1,0,0:0:0:0:
256,192,4132,1,8,0:0:0:0:
256,192,4457,1,0,0:0:0:0:
256,192,4619,1,8,0:0:0:0:
256,192,4943,1,8,0:0:0:0:
256,192,5105,1,0,0:0:0:0:
256,192,5268,1,8,0:0:0:0:
256,192,5430,1,0,0:0:0:0:
256,192,5754,1,8,0:0:0:0:
256,192,6078,1,0,0:0:0:0:
256,192,6240,1,8,0:0:0:0:
256,192,6565,1,0,0:0:0:0:
256,192,6727,1,8,0:0:0:0:
256,192,7051,1,0,0:0:0:0:
256,192,7213,1,8,0:0:0:0:
256,192,7538,1,8,0:0:0:0:
256,192,7862,1,0,0:0:0:0:
256,192,8349,1,8,0:0:0:0:
256,192,8673,1,0,0:0:0:0:
256,192,8835,1,8,0:0:0:0:
256,192,9159,1,0,0:0:0:0:
256,192,9322,1,8,0:0:0:0:
256,192,9646,1,0,0:0:0:0:
256,192,9808,1,8,0:0:0:0:
256,192,10132,1,8,0:0:0:0:
256,192,10295,1,0,0:0:0:0:
256,192,10457,1,8,0:0:0:0:
256,192,10619,1,4,0:0:0:0:
256,192,10943,1,8,0:0:0:0:
256,192,11267,1,0,0:0:0:0:
256,192,11429,1,8,0:0:0:0:
256,192,11754,1,0,0:0:0:0:
256,192,11916,1,8,0:0:0:0:
256,192,12240,1,0,0:0:0:0:
256,192,12402,1,8,0:0:0:0:
256,192,12727,1,8,0:0:0:0:
256,192,13051,1,0,0:0:0:0:
256,192,13537,1,8,0:0:0:0:
256,192,13862,1,0,0:0:0:0:
256,192,14024,1,8,0:0:0:0:
256,192,14348,1,0,0:0:0:0:
256,192,14510,1,8,0:0:0:0:
256,192,14835,1,0,0:0:0:0:
256,192,14997,1,8,0:0:0:0:
256,192,15321,1,8,0:0:0:0:
256,192,15483,1,0,0:0:0:0:
256,192,15646,1,8,0:0:0:0:
256,192,15808,1,0,0:0:0:0:
256,192,16132,1,8,0:0:0:0:
256,192,16456,1,0,0:0:0:0:
256,192,16618,1,8,0:0:0:0:
256,192,16943,1,0,0:0:0:0:
256,192,17105,1,8,0:0:0:0:
256,192,17429,1,0,0:0:0:0:
256,192,17591,1,8,0:0:0:0:
256,192,17916,1,8,0:0:0:0:
256,192,18240,1,0,0:0:0:0:
256,192,18727,1,8,0:0:0:0:
256,192,19051,1,0,0:0:0:0:
256,192,19213,1,8,0:0:0:0:
256,192,19700,1,8,0:0:0:0:
256,192,20186,1,8,0:0:0:0:
256,192,20511,1,0,0:0:0:0:
256,192,20997,12,0,23268,0:0:0:0:
256,192,23430,5,4,0:0:0:0:
256,192,23592,1,4,0:0:0:0:
256,192,24078,1,4,0:0:0:0:
256,192,25538,1,4,0:0:0:0:
256,192,25862,1,4,0:0:0:0:
256,192,26186,1,4,0:0:0:0:
256,192,26673,1,4,0:0:0:0:
256,192,28619,1,4,0:0:0:0:
256,192,28781,1,4,0:0:0:0:
256,192,29268,1,4,0:0:0:0:
256,192,29754,1,4,0:0:0:0:
256,192,30240,1,4,0:0:0:0:
256,192,30727,1,4,0:0:0:0:
256,192,31051,1,4,0:0:0:0:
256,192,31376,1,4,0:0:0:0:
256,192,31538,1,0,0:0:0:0:
256,192,31700,1,8,0:0:0:0:
256,192,32024,1,0,0:0:0:0:
256,192,32105,1,0,0:0:0:0:
256,192,32186,1,0,0:0:0:0:
256,192,32349,1,8,0:0:0:0:
256,192,32511,1,0,0:0:0:0:
256,192,32835,1,0,0:0:0:0:
256,192,32997,1,8,0:0:0:0:
256,192,33322,1,8,0:0:0:0:
256,192,33403,1,8,0:0:0:0:
256,192,33484,1,8,0:0:0:0:
256,192,33646,1,0,0:0:0:0:
256,192,33808,1,8,0:0:0:0:
256,192,33970,1,0,0:0:0:0:
256,192,34132,1,0,0:0:0:0:
256,192,34295,1,8,0:0:0:0:
256,192,34619,1,0,0:0:0:0:
256,192,34781,1,0,0:0:0:0:
256,192,34943,1,8,0:0:0:0:
256,192,35105,1,0,0:0:0:0:
256,192,35430,1,0,0:0:0:0:
256,192,35592,1,8,0:0:0:0:
256,192,35916,1,0,0:0:0:0:
256,192,35997,1,0,0:0:0:0:
256,192,36078,1,0,0:0:0:0:
256,192,36240,1,8,0:0:0:0:
256,192,36403,1,8,0:0:0:0:
256,192,36565,1,0,0:0:0:0:
256,192,36727,1,0,0:0:0:0:
256,192,36889,1,8,0:0:0:0:
256,192,37213,1,0,0:0:0:0:
256,192,37294,1,0,0:0:0:0:
256,192,37375,1,0,0:0:0:0:
256,192,37538,1,8,0:0:0:0:
256,192,37700,1,0,0:0:0:0:
256,192,38024,1,0,0:0:0:0:
256,192,38186,1,8,0:0:0:0:
256,192,38511,1,8,0:0:0:0:
256,192,38592,1,8,0:0:0:0:
256,192,38673,1,8,0:0:0:0:
256,192,38835,1,0,0:0:0:0:
256,192,38997,1,8,0:0:0:0:
256,192,39159,1,0,0:0:0:0:
256,192,39321,1,0,0:0:0:0:
256,192,39484,1,8,0:0:0:0:
256,192,39808,1,0,0:0:0:0:
256,192,39970,1,0,0:0:0:0:
256,192,40132,1,8,0:0:0:0:
256,192,40294,1,0,0:0:0:0:
256,192,40619,1,0,0:0:0:0:
256,192,40781,1,8,0:0:0:0:
256,192,40943,1,0,0:0:0:0:
256,192,41024,1,0,0:0:0:0:
256,192,41105,1,0,0:0:0:0:
256,192,41268,1,0,0:0:0:0:
256,192,41430,1,8,0:0:0:0:
256,192,41592,1,8,0:0:0:0:
256,192,41754,1,4,0:0:0:0:
256,192,41970,1,0,0:0:0:0:
256,192,42186,1,8,0:0:0:0:
256,192,42403,1,8,0:0:0:0:
256,192,42619,1,0,0:0:0:0:
256,192,42835,1,8,0:0:0:0:
256,192,43051,1,0,0:0:0:0:
256,192,43484,1,8,0:0:0:0:
256,192,43700,1,8,0:0:0:0:
256,192,43916,1,0,0:0:0:0:
256,192,44349,1,0,0:0:0:0:
256,192,44565,1,0,0:0:0:0:
256,192,44781,1,8,0:0:0:0:
256,192,44997,1,8,0:0:0:0:
256,192,45213,1,0,0:0:0:0:
256,192,45430,1,8,0:0:0:0:
256,192,45646,1,0,0:0:0:0:
256,192,46078,1,8,0:0:0:0:
256,192,46295,1,0,0:0:0:0:
256,192,46511,1,0,0:0:0:0:
256,192,46943,1,0,0:0:0:0:
256,192,47159,1,0,0:0:0:0:
256,192,47376,1,8,0:0:0:0:
256,192,47592,1,8,0:0:0:0:
256,192,47808,1,0,0:0:0:0:
256,192,48024,1,8,0:0:0:0:
256,192,48240,1,0,0:0:0:0:
256,192,48673,1,8,0:0:0:0:
256,192,48889,1,8,0:0:0:0:
256,192,49105,1,0,0:0:0:0:
256,192,49538,1,0,0:0:0:0:
256,192,49754,1,0,0:0:0:0:
256,192,49970,1,8,0:0:0:0:
256,192,50186,1,8,0:0:0:0:
256,192,50403,1,0,0:0:0:0:
256,192,50619,1,8,0:0:0:0:
256,192,50835,1,8,0:0:0:0:
256,192,51051,1,0,0:0:0:0:
256,192,51268,1,8,0:0:0:0:
256,192,51484,1,8,0:0:0:0:
256,192,51808,1,0,0:0:0:0:
256,192,51889,1,0,0:0:0:0:
256,192,51970,1,0,0:0:0:0:
256,192,52051,1,0,0:0:0:0:
256,192,52132,1,0,0:0:0:0:
256,192,52457,1,8,0:0:0:0:
256,192,52943,1,0,0:0:0:0:
256,192,53105,1,8,0:0:0:0:
256,192,53430,1,0,0:0:0:0:
256,192,53754,1,8,0:0:0:0:
256,192,54078,1,0,0:0:0:0:
256,192,54240,1,0,0:0:0:0:
256,192,54403,1,8,0:0:0:0:
256,192,54727,1,0,0:0:0:0:
256,192,55051,1,8,0:0:0:0:
256,192,55538,1,0,0:0:0:0:
256,192,55700,1,8,0:0:0:0:
256,192,56024,1,0,0:0:0:0:
256,192,56349,1,8,0:0:0:0:
256,192,56673,1,0,0:0:0:0:
256,192,56835,1,0,0:0:0:0:
256,192,56997,1,8,0:0:0:0:
256,192,57322,1,0,0:0:0:0:
256,192,57484,1,0,0:0:0:0:
256,192,57646,1,0,0:0:0:0:
256,192,57808,1,0,0:0:0:0:
256,192,57970,1,0,0:0:0:0:
256,192,58132,1,0,0:0:0:0:
256,192,58295,1,0,0:0:0:0:
256,192,58457,1,0,0:0:0:0:
256,192,58619,1,8,0:0:0:0:
256,192,58781,1,0,0:0:0:0:
256,192,58943,1,8,0:0:0:0:
256,192,59105,1,0,0:0:0:0:
256,192,59268,1,8,0:0:0:0:
256,192,59430,1,0,0:0:0:0:
256,192,59592,1,8,0:0:0:0:
256,192,59754,1,8,0:0:0:0:
256,192,59916,2,4,L|416:192,4,140
256,192,61700,1,8,0:0:0:0:
256,192,61781,1,8,0:0:0:0:
256,192,61862,1,8,0:0:0:0:
256,192,62105,1,8,0:0:0:0:
256,192,62349,1,8,0:0:0:0:
256,192,62511,1,4,0:0:0:0:
256,192,62673,1,0,0:0:0:0:
256,192,62835,1,8,0:0:0:0:
256,192,63159,1,0,0:0:0:0:
256,192,63240,1,0,0:0:0:0:
256,192,63321,1,0,0:0:0:0:
256,192,63484,1,8,0:0:0:0:
256,192,63646,1,0,0:0:0:0:
256,192,63970,1,0,0:0:0:0:
256,192,64132,1,8,0:0:0:0:
256,192,64457,1,8,0:0:0:0:
256,192,64538,1,8,0:0:0:0:
256,192,64619,1,8,0:0:0:0:
256,192,64781,1,0,0:0:0:0:
256,192,64943,1,8,0:0:0:0:
256,192,65105,1,0,0:0:0:0:
256,192,65267,1,0,0:0:0:0:
256,192,65430,1,8,0:0:0:0:
256,192,65754,1,0,0:0:0:0:
256,192,65916,1,0,0:0:0:0:
256,192,66078,1,8,0:0:0:0:
256,192,66240,1,0,0:0:0:0:
256,192,66565,1,0,0:0:0:0:
256,192,66727,1,8,0:0:0:0:
256,192,67051,1,0,0:0:0:0:
256,192,67132,1,0,0:0:0:0:
256,192,67213,1,0,0:0:0:0:
256,192,67375,1,8,0:0:0:0:
256,192,67538,1,8,0:0:0:0:
256,192,67700,1,0,0:0:0:0:
256,192,67862,1,0,0:0:0:0:
256,192,68024,1,8,0:0:0:0:
256,192,68348,1,0,0:0:0:0:
256,192,68429,1,0,0:0:0:0:
256,192,68510,1,0,0:0:0:0:
256,192,68673,1,8,0:0:0:0:
256,192,68835,1,0,0:0:0:0:
256,192,69159,1,0,0:0:0:0:
256,192,69321,1,8,0:0:0:0:
256,192,69646,1,8,0:0:0:0:
256,192,69727,1,8,0:0:0:0:
256,192,69808,1,8,0:0:0:0:
256,192,69970,1,0,0:0:0:0:
256,192,70132,1,8,0:0:0:0:
256,192,70294,1,0,0:0:0:0:
256,192,70456,1,0,0:0:0:0:
256,192,70619,1,8,0:0:0:0:
256,192,70943,1,0,0:0:0:0:
256,192,71105,1,0,0:0:0:0:
256,192,71267,1,8,0:0:0:0:
256,192,71429,1,0,0:0:0:0:
256,192,71754,1,0,0:0:0:0:
256,192,71916,1,8,0:0:0:0:
256,192,72078,1,0,0:0:0:0:
256,192,72159,1,0,0:0:0:0:
256,192,72240,1,0,0:0:0:0:
256,192,72403,1,0,0:0:0:0:
256,192,72565,1,8,0:0:0:0:
256,192,72727,1,8,0:0:0:0:
256,192,72889,1,4,0:0:0:0:
256,192,73051,1,0,0:0:0:0:
256,192,73213,1,8,0:0:0:0:
256,192,73538,1,0,0:0:0:0:
256,192,73700,1,8,0:0:0:0:
256,192,73862,1,0,0:0:0:0:
256,192,74024,1,8,0:0:0:0:
256,192,74349,1,8,0:0:0:0:
256,192,74511,1,0,0:0:0:0:
256,192,74673,1,8,0:0:0:0:
256,192,74754,1,8,0:0:0:0:
256,192,74835,1,8,0:0:0:0:
256,192,74997,1,8,0:0:0:0:
256,192,75159,1,0,0:0:0:0:
256,192,75322,1,8,0:0:0:0:
256,192,75484,1,0,0:0:0:0:
256,192,75646,1,0,0:0:0:0:
256,192,75808,1,8,0:0:0:0:
256,192,76132,1,0,0:0:0:0:
256,192,76295,1,8,0:0:0:0:
256,192,76457,1,0,0:0:0:0:
256,192,76619,1,8,0:0:0:0:
256,192,76943,1,8,0:0:0:0:
256,192,77105,1,0,0:0:0:0:
256,192,77268,1,0,0:0:0:0:
256,192,77349,1,0,0:0:0:0:
256,192,77430,1,0,0:0:0:0:
256,192,77592,1,0,0:0:0:0:
256,192,77754,1,8,0:0:0:0:
256,192,77916,1,8,0:0:0:0:
256,192,78078,1,0,0:0:0:0:
256,192,78240,1,0,0:0:0:0:
256,192,78403,1,8,0:0:0:0:
256,192,78727,1,0,0:0:0:0:
256,192,78889,1,8,0:0:0:0:
256,192,79051,1,0,0:0:0:0:
256,192,79213,1,8,0:0:0:0:
256,192,79538,1,8,0:0:0:0:
256,192,79700,1,0,0:0:0:0:
256,192,79862,1,8,0:0:0:0:
256,192,79943,1,8,0:0:0:0:
256,192,80024,1,8,0:0:0:0:
256,192,80186,1,8,0:0:0:0:
256,192,80349,1,0,0:0:0:0:
256,192,80511,1,8,0:0:0:0:
256,192,80673,1,0,0:0:0:0:
256,192,80835,1,0,0:0:0:0:
256,192,80997,1,8,0:0:0:0:
256,192,81322,1,0,0:0:0:0:
256,192,81484,1,8,0:0:0:0:
256,192,81646,1,0,0:0:0:0:
256,192,81808,1,8,0:0:0:0:
256,192,82132,1,8,0:0:0:0:
256,192,82295,1,0,0:0:0:0:
256,192,82457,1,8,0:0:0:0:
256,192,82538,1,8,0:0:0:0:
256,192,82619,1,8,0:0:0:0:
256,192,82781,1,0,0:0:0:0:
256,192,82943,1,8,0:0:0:0:
256,192,83105,1,8,0:0:0:0:
256,192,83268,1,4,0:0:0:0:
256,192,83484,1,0,0:0:0:0:
256,192,83700,1,8,0:0:0:0:
256,192,83917,1,8,0:0:0:0:
256,192,84133,1,0,0:0:0:0:
256,192,84349,1,8,0:0:0:0:
256,192,84565,1,0,0:0:0:0:
256,192,84998,1,8,0:0:0:0:
256,192,85214,1,8,0:0:0:0:
256,192,85430,1,0,0:0:0:0:
256,192,85863,1,0,0:0:0:0:
256,192,86079,1,0,0:0:0:0:
256,192,86295,1,8,0:0:0:0:
256,192,86511,1,8,0:0:0:0:
256,192,86727,1,0,0:0:0:0:
256,192,86944,1,8,0:0:0:0:
256,192,87160,1,0,0:0:0:0:
256,192,87592,1,8,0:0:0:0:
256,192,87809,1,0,0:0:0:0:
256,192,88025,1,0,0:0:0:0:
256,192,88457,1,0,0:0:0:0:
256,192,88673,1,0,0:0:0:0:
256,192,88890,1,8,0:0:0:0:
256,192,89106,1,8,0:0:0:0:
256,192,89322,1,0,0:0:0:0:
256,192,89538,1,8,0:0:0:0:
256,192,89754,1,0,0:0:0:0:
256,192,90187,1,8,0:0:0:0:
256,192,90403,1,8,0:0:0:0:
256,192,90619,1,0,0:0:0:0:
256,192,91052,1,0,0:0:0:0:
256,192,91268,1,0,0:0:0:0:
256,192,91484,1,8,0:0:0:0:
256,192,91700,1,8,0:0:0:0:
256,192,91917,1,0,0:0:0:0:
256,192,92133,1,8,0:0:0:0:
256,192,92349,1,0,0:0:0:0:
256,192,92781,1,8,0:0:0:0:
256,192,92997,1,8,0:0:0:0:
256,192,93213,1,0,0:0:0:0:
256,192,93430,1,8,0:0:0:0:
256,192,93646,1,4,0:0:0:0:
256,192,93862,1,0,0:0:0:0:
256,192,94078,1,8,0:0:0:0:
256,192,94295,1,8,0:0:0:0:
256,192,94511,1,0,0:0:0:0:
256,192,94727,1,0,0:0:0:0:
256,192,94943,1,8,0:0:0:0:
256,192,95376,1,8,0:0:0:0:
256,192,95592,1,0,0:0:0:0:
256,192,95808,1,0,0:0:0:0:
256,192,96024,1,8,0:0:0:0:
256,192,96240,1,4,0:0:0:0:
256,192,96457,1,0,0:0:0:0:
256,192,96673,1,8,0:0:0:0:
256,192,96889,1,8,0:0:0:0:
256,192,97105,1,0,0:0:0:0:
256,192,97322,1,8,0:0:0:0:
256,192,97538,1,0,0:0:0:0:
256,192,97970,1,8,0:0:0:0:
256,192,98186,1,0,0:0:0:0:
256,192,98403,1,0,0:0:0:0:
256,192,98619,1,8,0:0:0:0:
256,192,98835,1,4,0:0:0:0:
256,192,99051,1,0,0:0:0:0:
256,192,99268,1,8,0:0:0:0:
256,192,99484,1,8,0:0:0:0:
256,192,99700,1,0,0:0:0:0:
256,192,99916,1,8,0:0:0:0:
256,192,100132,1,0,0:0:0:0:
256,192,100565,1,8,0:0:0:0:
256,192,100781,1,8,0:0:0:0:
256,192,100997,1,0,0:0:0:0:
256,192,101213,1,8,0:0:0:0:
256,192,101430,1,4,0:0:0:0:
256,192,101646,1,0,0:0:0:0:
256,192,101862,1,8,0:0:0:0:
256,192,102078,1,0,0:0:0:0:
256,192,102295,1,0,0:0:0:0:
256,192,102511,1,8,0:0:0:0:
256,192,102727,1,8,0:0:0:0:
256,192,102943,1,0,0:0:0:0:
256,192,103159,1,8,0:0:0:0:
256,192,103376,1,8,0:0:0:0:
256,192,103700,1,0,0:0:0:0:
256,192,103781,1,0,0:0:0:0:
256,192,103862,1,0,0:0:0:0:
256,192,103943,1,0,0:0:0:0:
256,192,104024,1,0,0:0:0:0:
