osu file format v12

[General]
AudioFilename: TAG underground - POSSESSION.mp3
AudioLeadIn: 2000
PreviewTime: 30240
Countdown: 0
SampleSet: Normal
StackLeniency: 0.7
Mode: 1
LetterboxInBreaks: 0
WidescreenStoryboard: 1

[Editor]
DistanceSpacing: 0.1
BeatDivisor: 4
GridSize: 32

[Metadata]
Title:POSSESSION
TitleUnicode:POSSESSION
Artist:TAG underground
ArtistUnicode:TAG underground
Creator:Kokatsu
Version:Futsuu
Source:Dance Dance Revolution X2
Tags:DDR
BeatmapID:326020
BeatmapSetID:128856

[Difficulty]
HPDrainRate:5
CircleSize:4
OverallDifficulty:4
ApproachRate:5
SliderMultiplier:1.2
SliderTickRate:1

[Events]
//Background and Video events
0,0,"possessionbg.jpg",0,0
//Break Periods
//Storyboard Layer 0 (Background)
//Storyboard Layer 1 (Fail)
//Storyboard Layer 2 (Pass)
//Storyboard Layer 3 (Foreground)
//Storyboard Sound Samples
//Background Colour Transformations
3,100,163,162,255

[TimingPoints]
241,324.324324324324,4,1,0,80,1,0
31376,-100,4,1,0,90,0,1
41754,-100,4,1,0,90,0,0
52132,-100,4,1,0,80,0,0
62511,-100,4,1,0,90,0,1
83268,-100,4,1,0,90,0,0
93646,-100,4,1,0,90,0,1
104024,-100,4,1,0,90,0,0

[HitObjects]
256,192,241,1,4,0:0:0:0:
256,192,565,1,8,0:0:0:0:
256,192,1051,1,8,0:0:0:0:
256,192,1538,1,8,0:0:0:0:
256,192,2024,1,8,0:0:0:0:
256,192,2835,1,0,0:0:0:0:
256,192,3159,1,8,0:0:0:0:
256,192,4132,1,8,0:0:0:0:
256,192,4619,1,8,0:0:0:0:
256,192,5105,1,8,0:0:0:0:
256,192,5430,1,0,0:0:0:0:
256,192,5754,1,8,0:0:0:0:
256,192,6240,1,8,0:0:0:0:
256,192,6727,1,8,0:0:0:0:
256,192,7213,1,8,0:0:0:0:
256,192,8024,1,0,0:0:0:0:
256,192,8348,1,8,0:0:0:0:
256,192,9321,1,8,0:0:0:0:
256,192,9808,1,8,0:0:0:0:
256,192,10295,1,8,0:0:0:0:
256,192,10619,1,0,0:0:0:0:
256,192,10943,1,8,0:0:0:0:
256,192,11429,1,8,0:0:0:0:
256,192,11916,1,8,0:0:0:0:
256,192,12402,1,8,0:0:0:0:
256,192,13213,1,0,0:0:0:0:
256,192,13537,1,8,0:0:0:0:
256,192,14510,1,8,0:0:0:0:
256,192,14997,1,8,0:0:0:0:
256,192,15484,1,8,0:0:0:0:
256,192,15808,1,0,0:0:0:0:
256,192,16132,1,8,0:0:0:0:
256,192,16618,1,8,0:0:0:0:
256,192,17105,1,8,0:0:0:0:
256,192,17591,1,8,0:0:0:0:
256,192,17916,1,8,0:0:0:0:
256,192,18240,1,0,0:0:0:0:
256,192,18726,1,8,0:0:0:0:
256,192,19213,1,8,0:0:0:0:
256,192,19699,1,8,0:0:0:0:
256,192,20186,1,8,0:0:0:0:
256,192,20510,1,0,0:0:0:0:
256,192,20997,12,0,23268,0:0:0:0:
256,192,23592,5,4,0:0:0:0:
256,192,24078,1,4,0:0:0:0:
256,192,25538,1,4,0:0:0:0:
256,192,25862,1,4,0:0:0:0:
256,192,26186,1,4,0:0:0:0:
256,192,26673,1,4,0:0:0:0:
256,192,28619,1,4,0:0:0:0:
256,192,28781,1,4,0:0:0:0:
256,192,29268,1,4,0:0:0:0:
256,192,29754,1,4,0:0:0:0:
256,192,30240,1,4,0:0:0:0:
256,192,30727,1,4,0:0:0:0:
256,192,31051,1,4,0:0:0:0:
256,192,31376,1,4,0:0:0:0:
256,192,31700,1,8,0:0:0:0:
256,192,32024,1,0,0:0:0:0:
256,192,32349,1,8,0:0:0:0:
256,192,32673,1,0,0:0:0:0:
256,192,33159,1,0,0:0:0:0:
256,192,33484,1,0,0:0:0:0:
256,192,33646,1,8,0:0:0:0:
256,192,33970,1,0,0:0:0:0:
256,192,34295,1,8,0:0:0:0:
256,192,34619,1,0,0:0:0:0:
256,192,34943,1,8,0:0:0:0:
256,192,35268,1,0,0:0:0:0:
256,192,35916,1,8,0:0:0:0:
256,192,36565,1,0,0:0:0:0:
256,192,36889,1,8,0:0:0:0:
256,192,37213,1,0,0:0:0:0:
256,192,37538,1,8,0:0:0:0:
256,192,37862,1,0,0:0:0:0:
256,192,38349,1,0,0:0:0:0:
256,192,38673,1,0,0:0:0:0:
256,192,38835,1,8,0:0:0:0:
256,192,39159,1,0,0:0:0:0:
256,192,39484,1,8,0:0:0:0:
256,192,39808,1,0,0:0:0:0:
256,192,40132,1,8,0:0:0:0:
256,192,40457,1,0,0:0:0:0:
256,192,41105,1,8,0:0:0:0:
256,192,41430,1,8,0:0:0:0:
256,192,41754,1,4,0:0:0:0:
256,192,42403,1,8,0:0:0:0:
256,192,43051,1,0,0:0:0:0:
256,192,44349,1,0,0:0:0:0:
256,192,44997,1,8,0:0:0:0:
256,192,45646,1,0,0:0:0:0:
256,192,46295,1,0,0:0:0:0:
256,192,46943,1,0,0:0:0:0:
256,192,47592,1,8,0:0:0:0:
256,192,48240,1,0,0:0:0:0:
256,192,49538,1,8,0:0:0:0:
256,192,50186,1,0,0:0:0:0:
256,192,50835,1,0,0:0:0:0:
256,192,51484,1,0,0:0:0:0:
256,192,51808,1,0,0:0:0:0:
256,192,52132,1,4,0:0:0:0:
256,192,52457,1,8,0:0:0:0:
256,192,53105,1,8,0:0:0:0:
256,192,53430,1,0,0:0:0:0:
256,192,54078,1,0,0:0:0:0:
256,192,54403,1,8,0:0:0:0:
256,192,54727,1,0,0:0:0:0:
256,192,55051,1,8,0:0:0:0:
256,192,55700,1,8,0:0:0:0:
256,192,56024,1,0,0:0:0:0:
256,192,56673,1,0,0:0:0:0:
256,192,56997,1,8,0:0:0:0:
256,192,57322,1,0,0:0:0:0:
256,192,57646,1,0,0:0:0:0:
256,192,57970,1,8,0:0:0:0:
256,192,58619,1,0,0:0:0:0:
256,192,58781,1,0,0:0:0:0:
256,192,58943,1,0,0:0:0:0:
256,192,59268,1,8,0:0:0:0:
256,192,59916,1,0,0:0:0:0:
256,192,60078,1,0,0:0:0:0:
256,192,60240,1,0,0:0:0:0:
256,192,60565,1,8,0:0:0:0:
256,192,60889,1,0,0:0:0:0:
256,192,61213,1,4,0:0:0:0:
256,192,61862,1,12,0:0:0:0:
256,192,62511,1,4,0:0:0:0:
256,192,62835,1,8,0:0:0:0:
256,192,63159,1,0,0:0:0:0:
256,192,63484,1,8,0:0:0:0:
256,192,63808,1,0,0:0:0:0:
256,192,64294,1,0,0:0:0:0:
256,192,64619,1,0,0:0:0:0:
256,192,64781,1,8,0:0:0:0:
256,192,65105,1,0,0:0:0:0:
256,192,65430,1,8,0:0:0:0:
256,192,65754,1,0,0:0:0:0:
256,192,66078,1,8,0:0:0:0:
256,192,66403,1,0,0:0:0:0:
256,192,67051,1,8,0:0:0:0:
256,192,67700,1,0,0:0:0:0:
256,192,68024,1,8,0:0:0:0:
256,192,68348,1,0,0:0:0:0:
256,192,68673,1,8,0:0:0:0:
256,192,68997,1,0,0:0:0:0:
256,192,69484,1,0,0:0:0:0:
256,192,69808,1,0,0:0:0:0:
256,192,69970,1,8,0:0:0:0:
256,192,70294,1,0,0:0:0:0:
256,192,70619,1,8,0:0:0:0:
256,192,70943,1,0,0:0:0:0:
256,192,71267,1,8,0:0:0:0:
256,192,71592,1,0,0:0:0:0:
256,192,72240,1,8,0:0:0:0:
256,192,72565,1,8,0:0:0:0:
256,192,72889,1,4,0:0:0:0:
256,192,73213,1,8,0:0:0:0:
256,192,73862,1,8,0:0:0:0:
256,192,74186,1,0,0:0:0:0:
256,192,74511,1,8,0:0:0:0:
256,192,74673,1,0,0:0:0:0:
256,192,75159,1,8,0:0:0:0:
256,192,75484,1,0,0:0:0:0:
256,192,75808,1,8,0:0:0:0:
256,192,76457,1,8,0:0:0:0:
256,192,76781,1,0,0:0:0:0:
256,192,77105,1,8,0:0:0:0:
256,192,77268,1,0,0:0:0:0:
256,192,77754,1,8,0:0:0:0:
256,192,78078,1,0,0:0:0:0:
256,192,78403,1,8,0:0:0:0:
256,192,79051,1,8,0:0:0:0:
256,192,79376,1,0,0:0:0:0:
256,192,79700,1,8,0:0:0:0:
256,192,79862,1,0,0:0:0:0:
256,192,80349,1,8,0:0:0:0:
256,192,80673,1,0,0:0:0:0:
256,192,80997,1,8,0:0:0:0:
256,192,81646,1,8,0:0:0:0:
256,192,81970,1,0,0:0:0:0:
256,192,82295,1,8,0:0:0:0:
256,192,82457,1,0,0:0:0:0:
256,192,82943,1,8,0:0:0:0:
256,192,83268,1,4,0:0:0:0:
256,192,83916,1,8,0:0:0:0:
256,192,84565,1,0,0:0:0:0:
256,192,85863,1,0,0:0:0:0:
256,192,86511,1,0,0:0:0:0:
256,192,87160,1,8,0:0:0:0:
256,192,87808,1,0,0:0:0:0:
256,192,88457,1,0,0:0:0:0:
256,192,89105,1,8,0:0:0:0:
256,192,89754,1,0,0:0:0:0:
256,192,91051,1,0,0:0:0:0:
256,192,91700,1,0,0:0:0:0:
256,192,92349,1,8,0:0:0:0:
256,192,92997,1,0,0:0:0:0:
256,192,93646,1,12,0:0:0:0:
256,192,94295,1,4,0:0:0:0:
256,192,94943,1,12,0:0:0:0:
256,192,96240,1,4,0:0:0:0:
256,192,96889,1,12,0:0:0:0:
256,192,97538,1,4,0:0:0:0:
256,192,98186,1,4,0:0:0:0:
256,192,98835,1,12,0:0:0:0:
256,192,99484,1,4,0:0:0:0:
256,192,100133,1,12,0:0:0:0:
256,192,101430,1,4,0:0:0:0:
256,192,102078,1,12,0:0:0:0:
256,192,102728,1,4,0:0:0:0:
256,192,103376,1,4,0:0:0:0:
256,192,103700,1,0,0:0:0:0:
256,192,104024,1,0,0:0:0:0:
