osu file format v12

[General]
AudioFilename: TAG underground POSSESSION.mp3
AudioLeadIn: 0
PreviewTime: -1
Countdown: 0
SampleSet: Soft
StackLeniency: 0.7
Mode: 3
LetterboxInBreaks: 0
SpecialStyle: 0
WidescreenStoryboard: 0

[Editor]
DistanceSpacing: 1.1
BeatDivisor: 4
GridSize: 8

[Metadata]
Title:POSSESSION
TitleUnicode:POSSESSION
Artist:TAG underground
ArtistUnicode:TAG underground
Creator:DjyuuGhosi
Version:Easy
Source:Dance Dance Revolution X2
Tags:DDR bemani
BeatmapID:367406
BeatmapSetID:148612

[Difficulty]
HPDrainRate:3
CircleSize:4
OverallDifficulty:3
ApproachRate:5
SliderMultiplier:1.4
SliderTickRate:1

[Events]
//Background and Video events
0,0,"pozessyonn.jpg",0,0
//Break Periods
//Storyboard Layer 0 (Background)
//Storyboard Layer 1 (Fail)
//Storyboard Layer 2 (Pass)
//Storyboard Layer 3 (Foreground)
//Storyboard Sound Samples
//Background Colour Transformations
3,100,163,162,255

[TimingPoints]
246.786885245901,324.324324324324,4,2,0,70,1,0

[HitObjects]
64,192,246,1,0,0:0:0:0:
448,192,571,1,0,0:0:0:0:
64,192,895,1,0,0:0:0:0:
448,192,1219,1,0,0:0:0:0:
192,192,1544,1,0,0:0:0:0:
320,192,1868,1,0,0:0:0:0:
192,192,2192,1,0,0:0:0:0:
320,192,2517,1,0,0:0:0:0:
64,192,2841,1,0,0:0:0:0:
192,192,3165,1,0,0:0:0:0:
320,192,3490,1,0,0:0:0:0:
448,192,3814,1,0,0:0:0:0:
448,192,4138,1,0,0:0:0:0:
320,192,4463,1,0,0:0:0:0:
192,192,4787,1,0,0:0:0:0:
64,192,5111,1,0,0:0:0:0:
64,192,5435,1,0,0:0:0:0:
448,192,5760,1,0,0:0:0:0:
192,192,6084,1,0,0:0:0:0:
320,192,6408,1,0,0:0:0:0:
64,192,6733,1,0,0:0:0:0:
448,192,7057,1,0,0:0:0:0:
192,192,7381,1,0,0:0:0:0:
320,192,7706,1,0,0:0:0:0:
64,192,8030,1,0,0:0:0:0:
320,192,8354,1,0,0:0:0:0:
192,192,8679,1,0,0:0:0:0:
448,192,9003,1,0,0:0:0:0:
448,192,9327,1,0,0:0:0:0:
192,192,9652,1,0,0:0:0:0:
320,192,9976,1,0,0:0:0:0:
64,192,10300,1,0,0:0:0:0:
320,192,10625,1,0,0:0:0:0:
448,192,10625,1,0,0:0:0:0:
192,192,10949,1,0,0:0:0:0:
448,192,11273,1,0,0:0:0:0:
64,192,11598,1,0,0:0:0:0:
320,192,11922,1,0,0:0:0:0:
448,192,11922,1,0,0:0:0:0:
192,192,12246,1,0,0:0:0:0:
448,192,12571,1,0,0:0:0:0:
192,192,12895,1,0,0:0:0:0:
320,192,13219,1,0,0:0:0:0:
64,192,13219,1,0,0:0:0:0:
192,192,13544,1,0,0:0:0:0:
320,192,13868,1,0,0:0:0:0:
448,192,14192,1,0,0:0:0:0:
448,192,14517,1,0,0:0:0:0:
192,192,14517,1,0,0:0:0:0:
320,192,14841,1,0,0:0:0:0:
192,192,15165,1,0,0:0:0:0:
64,192,15490,1,0,0:0:0:0:
192,192,15814,1,0,0:0:0:0:
320,192,16138,1,0,0:0:0:0:
192,192,16463,1,0,0:0:0:0:
64,192,16787,1,0,0:0:0:0:
448,192,17111,1,0,0:0:0:0:
320,192,17435,1,0,0:0:0:0:
192,192,17760,1,0,0:0:0:0:
320,192,18084,1,0,0:0:0:0:
64,192,18408,1,0,0:0:0:0:
320,192,18408,1,0,0:0:0:0:
192,192,18733,1,0,0:0:0:0:
320,192,19057,1,0,0:0:0:0:
64,192,19057,1,0,0:0:0:0:
448,192,19381,1,0,0:0:0:0:
64,192,19706,1,0,0:0:0:0:
192,192,20030,1,0,0:0:0:0:
320,192,20354,1,0,0:0:0:0:
448,192,20679,1,0,0:0:0:0:
64,192,21003,128,0,23598:0:0:0:0:
448,192,21003,128,0,23598:0:0:0:0:
192,192,23598,1,0,0:0:0:0:
320,192,23598,1,0,0:0:0:0:
192,192,24084,1,0,0:0:0:0:
320,192,24084,1,0,0:0:0:0:
192,192,25544,1,0,0:0:0:0:
320,192,25544,1,0,0:0:0:0:
192,192,25868,1,0,0:0:0:0:
320,192,25868,1,0,0:0:0:0:
64,192,26192,1,0,0:0:0:0:
320,192,26679,1,0,0:0:0:0:
448,192,27003,1,0,0:0:0:0:
192,192,27327,1,0,0:0:0:0:
64,192,27652,1,0,0:0:0:0:
320,192,27976,1,0,0:0:0:0:
448,192,28300,128,0,28625:0:0:0:0:
320,192,28300,128,0,28625:0:0:0:0:
64,192,28787,1,0,0:0:0:0:
320,192,29273,1,0,0:0:0:0:
192,192,29760,1,0,0:0:0:0:
64,192,30246,1,0,0:0:0:0:
320,192,30733,1,0,0:0:0:0:
448,192,30733,1,0,0:0:0:0:
64,192,31057,1,0,0:0:0:0:
192,192,31057,1,0,0:0:0:0:
448,192,31381,1,0,0:0:0:0:
320,192,31706,1,0,0:0:0:0:
192,192,32030,1,0,0:0:0:0:
64,192,32354,1,0,0:0:0:0:
448,192,32679,1,0,0:0:0:0:
64,192,33003,1,0,0:0:0:0:
320,192,33327,1,0,0:0:0:0:
192,192,33652,1,0,0:0:0:0:
448,192,33976,1,0,0:0:0:0:
64,192,34300,1,0,0:0:0:0:
320,192,34625,1,0,0:0:0:0:
64,192,34949,1,0,0:0:0:0:
448,192,35273,1,0,0:0:0:0:
192,192,35598,1,0,0:0:0:0:
64,192,35922,1,0,0:0:0:0:
448,192,36246,1,0,0:0:0:0:
64,192,36571,1,0,0:0:0:0:
64,192,36895,1,0,0:0:0:0:
192,192,37219,1,0,0:0:0:0:
192,192,37544,1,0,0:0:0:0:
448,192,37868,1,0,0:0:0:0:
448,192,38192,1,0,0:0:0:0:
320,192,38517,1,0,0:0:0:0:
320,192,38841,1,0,0:0:0:0:
192,192,39165,1,0,0:0:0:0:
64,192,39490,1,0,0:0:0:0:
192,192,39814,1,0,0:0:0:0:
320,192,40138,1,0,0:0:0:0:
192,192,40463,1,0,0:0:0:0:
320,192,40787,1,0,0:0:0:0:
448,192,41111,1,0,0:0:0:0:
448,192,41435,1,0,0:0:0:0:
192,192,41760,128,0,42192:0:0:0:0:
448,192,42408,128,0,42841:0:0:0:0:
320,192,43057,128,0,43490:0:0:0:0:
192,192,43706,128,0,44138:0:0:0:0:
64,192,44354,128,0,44787:0:0:0:0:
192,192,45003,128,0,45435:0:0:0:0:
448,192,45652,128,0,46084:0:0:0:0:
320,192,46300,128,0,46733:0:0:0:0:
64,192,46949,128,0,47381:0:0:0:0:
448,192,47598,128,0,48030:0:0:0:0:
320,192,48246,128,0,48679:0:0:0:0:
192,192,48895,128,0,49327:0:0:0:0:
64,192,49544,128,0,49976:0:0:0:0:
320,192,50246,128,0,50625:0:0:0:0:
192,192,50841,128,0,51273:0:0:0:0:
448,192,51490,128,0,52138:0:0:0:0:
192,192,52463,1,0,0:0:0:0:
320,192,53111,1,0,0:0:0:0:
192,192,53760,1,0,0:0:0:0:
320,192,54408,1,0,0:0:0:0:
64,192,55057,1,0,0:0:0:0:
448,192,55706,1,0,0:0:0:0:
64,192,56354,1,0,0:0:0:0:
448,192,57003,1,0,0:0:0:0:
64,192,57327,1,0,0:0:0:0:
192,192,57652,1,0,0:0:0:0:
320,192,57976,1,0,0:0:0:0:
448,192,58300,1,0,0:0:0:0:
448,192,58625,1,0,0:0:0:0:
320,192,58949,1,0,0:0:0:0:
192,192,59273,1,0,0:0:0:0:
64,192,59598,1,0,0:0:0:0:
448,192,59922,128,0,60246:0:0:0:0:
64,192,60246,128,0,60571:0:0:0:0:
448,192,60571,128,0,60895:0:0:0:0:
64,192,60895,128,0,61219:0:0:0:0:
448,192,61219,128,0,62517:0:0:0:0:
64,192,62517,1,0,0:0:0:0:
64,192,62841,1,0,0:0:0:0:
320,192,63165,1,0,0:0:0:0:
448,192,63490,1,0,0:0:0:0:
192,192,63814,1,0,0:0:0:0:
64,192,64138,1,0,0:0:0:0:
448,192,64463,1,0,0:0:0:0:
192,192,64787,1,0,0:0:0:0:
448,192,65111,1,0,0:0:0:0:
448,192,65435,1,0,0:0:0:0:
64,192,65760,1,0,0:0:0:0:
64,192,66084,1,0,0:0:0:0:
448,192,66408,1,0,0:0:0:0:
192,192,66733,1,0,0:0:0:0:
64,192,67057,1,0,0:0:0:0:
320,192,67381,1,0,0:0:0:0:
192,192,67706,1,0,0:0:0:0:
64,192,68030,1,0,0:0:0:0:
320,192,68354,1,0,0:0:0:0:
448,192,68679,1,0,0:0:0:0:
64,192,69003,1,0,0:0:0:0:
320,192,69327,1,0,0:0:0:0:
192,192,69652,1,0,0:0:0:0:
448,192,69976,1,0,0:0:0:0:
64,192,70300,1,0,0:0:0:0:
448,192,70625,1,0,0:0:0:0:
64,192,70949,1,0,0:0:0:0:
320,192,71273,1,0,0:0:0:0:
192,192,71598,1,0,0:0:0:0:
448,192,71922,1,0,0:0:0:0:
192,192,72246,1,0,0:0:0:0:
320,192,72571,1,0,0:0:0:0:
320,192,72895,128,0,73219:0:0:0:0:
64,192,73219,128,0,73544:0:0:0:0:
448,192,73544,128,0,73868:0:0:0:0:
192,192,73868,128,0,74192:0:0:0:0:
448,192,74192,1,0,0:0:0:0:
192,192,74517,1,0,0:0:0:0:
320,192,74841,1,0,0:0:0:0:
64,192,75165,1,0,0:0:0:0:
448,192,75490,128,0,75814:0:0:0:0:
64,192,75814,128,0,76138:0:0:0:0:
192,192,76138,128,0,76463:0:0:0:0:
320,192,76463,128,0,76787:0:0:0:0:
64,192,76787,1,0,0:0:0:0:
320,192,77111,1,0,0:0:0:0:
192,192,77435,1,0,0:0:0:0:
448,192,77760,1,0,0:0:0:0:
192,192,78084,128,0,78408:0:0:0:0:
448,192,78408,128,0,78733:0:0:0:0:
192,192,78733,128,0,79057:0:0:0:0:
64,192,79057,128,0,79381:0:0:0:0:
320,192,79381,128,0,79706:0:0:0:0:
192,192,79706,128,0,80030:0:0:0:0:
320,192,80030,128,0,80354:0:0:0:0:
448,192,80354,128,0,80679:0:0:0:0:
192,192,80679,128,0,81003:0:0:0:0:
320,192,81003,128,0,81327:0:0:0:0:
448,192,81327,128,0,81652:0:0:0:0:
64,192,81652,128,0,81976:0:0:0:0:
448,192,81976,128,0,82300:0:0:0:0:
320,192,82300,128,0,82625:0:0:0:0:
192,192,82625,128,0,82949:0:0:0:0:
64,192,82949,128,0,83273:0:0:0:0:
448,192,83273,128,0,83706:0:0:0:0:
320,192,83922,128,0,84354:0:0:0:0:
192,192,84571,128,0,85003:0:0:0:0:
64,192,85219,128,0,85652:0:0:0:0:
320,192,85868,128,0,86300:0:0:0:0:
192,192,86517,128,0,86949:0:0:0:0:
64,192,87165,128,0,87598:0:0:0:0:
448,192,87814,128,0,88246:0:0:0:0:
192,192,88463,128,0,88895:0:0:0:0:
320,192,89111,128,0,89544:0:0:0:0:
448,192,89760,128,0,90192:0:0:0:0:
192,192,90408,128,0,90841:0:0:0:0:
64,192,91057,128,0,91490:0:0:0:0:
192,192,91706,128,0,92138:0:0:0:0:
320,192,92354,128,0,92787:0:0:0:0:
448,192,93003,128,0,93435:0:0:0:0:
192,192,93652,1,0,0:0:0:0:
64,192,93652,128,0,94084:0:0:0:0:
192,192,94300,128,0,94733:0:0:0:0:
320,192,94949,1,0,0:0:0:0:
448,192,94949,128,0,95381:0:0:0:0:
64,192,95598,128,0,96030:0:0:0:0:
320,192,96246,1,0,0:0:0:0:
192,192,96246,128,0,96679:0:0:0:0:
448,192,96895,128,0,97327:0:0:0:0:
64,192,97544,1,0,0:0:0:0:
192,192,97544,128,0,97976:0:0:0:0:
320,192,98192,128,0,98625:0:0:0:0:
192,192,98841,1,0,0:0:0:0:
64,192,98841,128,0,99273:0:0:0:0:
320,192,99490,1,0,0:0:0:0:
448,192,99490,128,0,99922:0:0:0:0:
64,192,100138,1,0,0:0:0:0:
192,192,100138,128,0,100571:0:0:0:0:
320,192,100787,1,0,0:0:0:0:
448,192,100787,128,0,101219:0:0:0:0:
192,192,101435,1,0,0:0:0:0:
64,192,101435,128,0,101868:0:0:0:0:
320,192,102084,1,0,0:0:0:0:
192,192,102084,128,0,102517:0:0:0:0:
448,192,102733,1,0,0:0:0:0:
320,192,102733,128,0,103165:0:0:0:0:
448,192,103381,128,0,104030:0:0:0:0:
64,192,104030,128,0,106625:0:0:0:0:
