osu file format v12

[General]
AudioFilename: TAG underground - POSSESSION.mp3
AudioLeadIn: 2000
PreviewTime: 61672
Countdown: 0
SampleSet: Normal
StackLeniency: 0.7
Mode: 0
LetterboxInBreaks: 1

[Editor]
DistanceSpacing: 1
BeatDivisor: 4
GridSize: 4

[Metadata]
Title:POSSESSION
TitleUnicode:POSSESSION
Artist:TAG underground
ArtistUnicode:TAG underground
Creator:Apricot
Version:Standard
Source:Dance Dance Revolution X2
Tags:ddr galvenize bemani muya
BeatmapID:150425
BeatmapSetID:48675

[Difficulty]
HPDrainRate:5
CircleSize:4
OverallDifficulty:8
ApproachRate:8
SliderMultiplier:1.6
SliderTickRate:1

[Events]
//Background and Video events
0,0,"BG.png",0,0
//Break Periods
//Storyboard Layer 0 (Background)
//Storyboard Layer 1 (Fail)
//Storyboard Layer 2 (Pass)
//Storyboard Layer 3 (Foreground)
//Storyboard Sound Samples
//Background Colour Transformations
3,100,163,162,255

[TimingPoints]
213,324.324324324324,4,1,0,60,1,0
31348,-100,4,1,0,60,0,1
31429,-100,4,1,0,60,0,0
62483,-100,4,1,0,60,0,1
62564,-100,4,1,0,60,0,0
72861,-100,4,1,0,60,0,1
83240,-100,4,1,0,60,0,0
93618,-100,4,1,0,60,0,1
103348,-100,4,1,0,60,0,0

[Colours]
Combo1 : 0,128,192
Combo2 : 128,128,255
Combo3 : 192,192,192

[HitObjects]
256,192,213,5,4,0:0:0:0:
152,340,537,2,0,B|72:288|104:196,1,160,0|0,0:0|0:0,0:0:0:0:
208,80,1023,2,0,B|288:132|256:224,1,160
176,172,1510,1,0,0:0:0:0:
420,328,1996,1,0,0:0:0:0:
420,328,2321,2,0,B|420:156,1,160
420,88,2807,1,0,0:0:0:0:
352,128,2969,2,0,B|272:148,1,80
60,44,3618,1,0,0:0:0:0:
60,44,3942,5,0,0:0:0:0:
60,44,4104,2,0,B|96:124|196:104,1,160
256,56,4591,2,0,B|292:100|264:140,1,80
220,192,4915,1,0,0:0:0:0:
357,273,5077,1,0,0:0:0:0:
358,113,5240,1,0,0:0:0:0:
320,196,5402,5,0,0:0:0:0:
320,196,5564,1,0,0:0:0:0:
320,196,5726,2,0,B|272:260|172:236,1,160
320,196,6212,2,0,B|368:132|468:156,1,160
504,244,6699,1,0,0:0:0:0:
352,84,7185,1,0,0:0:0:0:
352,84,7510,2,0,B|192:120,1,160
120,140,7996,1,0,0:0:0:0:
120,140,8158,1,0,0:0:0:0:
60,84,8321,1,0,0:0:0:0:
148,308,8807,1,0,0:0:0:0:
148,308,9131,5,0,0:0:0:0:
148,308,9294,2,0,B|192:292|196:248,2,80
120,232,9780,2,0,B|96:192|48:192,1,80
52,272,10104,1,0,0:0:0:0:
200,212,10267,1,0,0:0:0:0:
224,56,10429,1,0,0:0:0:0:
76,120,10591,6,0,B|96:160|144:160,1,80
216,136,10915,1,8,0:0:0:0:
280,183,11077,1,0,0:0:0:0:
345,230,11240,1,0,0:0:0:0:
280,183,11402,1,8,0:0:0:0:
233,247,11564,1,0,0:0:0:0:
186,312,11726,1,0,0:0:0:0:
132,252,11888,2,0,B|96:224|96:184,1,80,8|0,0:0|0:0,0:0:0:0:
128,112,12213,1,0,0:0:0:0:
172,44,12375,2,0,B|208:72|208:112,1,80,8|0,0:0|0:0,0:0:0:0:
128,112,12699,2,0,B|196:60|280:72,1,160,8|8,0:0|0:0,0:0:0:0:
272,152,13185,2,0,B|324:228|412:208,1,160,0|8,0:0|0:0,0:0:0:0:
256,24,13996,1,0,0:0:0:0:
256,24,14321,5,0,0:0:0:0:
256,104,14483,2,0,B|176:136,1,80,8|0,0:0|0:0,0:0:0:0:
108,168,14807,1,0,0:0:0:0:
180,208,14969,2,0,B|260:240,1,80,8|0,0:0|0:0,0:0:0:0:
320,192,15294,1,8,0:0:0:0:
332,272,15456,1,8,0:0:0:0:
344,352,15618,1,0,0:0:0:0:
268,324,15780,2,0,B|188:292,1,80,0|0,0:0|0:0,0:0:0:0:
124,256,16104,1,8,0:0:0:0:
116,96,16429,1,0,0:0:0:0:
116,96,16591,2,0,B|264:160,1,160,8|0,0:0|0:0,0:0:0:0:
336,196,17077,1,8,0:0:0:0:
148,344,17564,1,8,0:0:0:0:
148,344,17888,2,0,B|148:172,1,160,8|0,0:0|0:0,0:0:0:0:
148,104,18375,5,0,0:0:0:0:
216,60,18537,1,0,0:0:0:0:
296,76,18699,1,8,0:0:0:0:
316,152,18861,1,0,0:0:0:0:
272,220,19023,2,0,B|244:260|200:256,2,80,4|8|0,0:0|0:0|0:0,0:0:0:0:
316,288,19510,2,0,B|344:328|388:324,2,80,4|8|0,0:0|0:0|0:0,0:0:0:0:
384,244,19996,2,0,B|424:216|416:172,2,80,4|8|0,0:0|0:0|0:0,0:0:0:0:
336,180,20483,2,0,B|300:132|248:148|248:148|192:104,1,160,12|0,0:0|0:0,0:0:0:0:
201,111,20969,1,0,0:0:0:0:
256,192,21131,12,4,23564,0:0:0:0:
256,80,24050,5,4,0:0:0:0:
256,192,25510,5,4,0:0:0:0:
256,192,25834,1,4,0:0:0:0:
256,192,26158,1,4,0:0:0:0:
184,232,26321,6,0,B|144:252,2,40,0|0|0,0:0|0:0|0:0,0:0:0:0:
216,304,26645,2,0,B|280:360|336:312|336:312|364:312,1,160,4|0,0:0|0:0,0:0:0:0:
416,252,27131,1,0,0:0:0:0:
416,252,27294,1,0,0:0:0:0:
376,180,27456,2,0,B|356:88|440:44,1,160,0|0,0:0|0:0,0:0:0:0:
456,124,27942,2,0,B|364:144|320:60,1,160,0|0,0:0|0:0,0:0:0:0:
256,16,28429,2,0,B|172:44,1,80,0|4,0:0|0:0,0:0:0:0:
104,68,28753,5,4,0:0:0:0:
28,96,28915,2,0,B|16:52,2,40,0|0|0,0:0|0:0|0:0,0:0:0:0:
56,172,29240,1,4,0:0:0:0:
76,248,29402,2,0,B|92:292,2,40,0|0|0,0:0|0:0|0:0,0:0:0:0:
136,196,29726,2,0,B|211:170,1,80,4|0,0:0|0:0,0:0:0:0:
288,200,30050,1,0,0:0:0:0:
360,164,30212,2,0,B|404:148|408:100,2,80,4|0|0,0:0|0:0|0:0,0:0:0:0:
328,92,30699,1,6,0:0:0:0:
220,36,30861,1,2,0:0:0:0:
328,92,31023,1,6,0:0:0:0:
256,188,31185,1,2,0:0:0:0:
188,144,31348,5,4,0:0:0:0:
180,221,31510,1,2,0:0:0:0:
167,261,31591,1,0,0:0:0:0:
145,293,31672,2,0,B|114:331|75:327,1,80,2|0,0:0|0:0,0:0:0:0:
220,348,31996,2,0,B|304:324,1,80,2|2,0:0|0:0,0:0:0:0:
356,192,32321,2,0,B|279:213,1,80,0|2,0:0|0:0,0:0:0:0:
248,140,32645,1,0,0:0:0:0:
180,100,32807,2,0,B|144:80,2,40,2|0|2,0:0|0:0|0:0,0:0:0:0:
132,164,33131,1,0,0:0:0:0:
200,204,33294,2,0,B|220:244|200:280,1,80,2|2,0:0|0:0,0:0:0:0:
312,180,33618,2,0,B|292:140|312:104,1,80,2|0,0:0|0:0,0:0:0:0:
384,140,33942,6,0,B|404:180|384:216,1,80,0|2,0:0|0:0,0:0:0:0:
383,216,34185,1,0,0:0:0:0:
383,216,34267,1,2,0:0:0:0:
312,180,34429,1,0,0:0:0:0:
252,236,34591,2,0,B|208:228|176:256,1,80,2|2,0:0|0:0,0:0:0:0:
360,292,34915,2,0,B|404:300|436:272,1,80,0|2,0:0|0:0,0:0:0:0:
252,236,35240,1,0,0:0:0:0:
244,160,35402,2,0,B|224:120|180:112,1,80,2|2,0:0|0:0,0:0:0:0:
172,192,35726,1,0,0:0:0:0:
116,248,35888,2,0,B|88:280|44:280,1,80,2|2,0:0|0:0,0:0:0:0:
172,192,36212,2,0,B|200:160|244:160,1,80,2|2,0:0|0:0,0:0:0:0:
324,160,36537,5,4,0:0:0:0:
388,208,36699,2,0,B|424:232,2,40,2|0|2,0:0|0:0|0:0,0:0:0:0:
352,280,37023,1,0,0:0:0:0:
292,228,37185,1,2,0:0:0:0:
228,276,37348,1,2,0:0:0:0:
192,256,37429,1,0,0:0:0:0:
176,220,37510,2,0,B|156:180|168:144,1,80,0|2,0:0|0:0,0:0:0:0:
200,68,37834,1,0,0:0:0:0:
280,68,37996,2,0,B|364:68,2,80,2|2|0,0:0|0:0|0:0,0:0:0:0:
200,68,38483,1,2,0:0:0:0:
140,16,38645,1,2,0:0:0:0:
124,96,38807,1,2,0:0:0:0:
184,148,38969,1,0,0:0:0:0:
244,200,39131,5,0,0:0:0:0:
276,224,39212,1,0,0:0:0:0:
308,248,39294,2,0,B|356:284,2,40,2|0|2,0:0|0:0|0:0,0:0:0:0:
372,200,39618,2,0,B|408:152,2,40,0|0|2,0:0|0:0|0:0,0:0:0:0:
320,140,39942,1,2,0:0:0:0:
256,92,40104,2,0,B|208:56,2,40,0|0|2,0:0|0:0|0:0,0:0:0:0:
192,144,40429,1,0,0:0:0:0:
120,180,40591,2,0,B|52:136,2,80,2|2|2,0:0|0:0|0:0,0:0:0:0:
146,254,41077,2,0,B|218:300,1,80,2|2,0:0|0:0,0:0:0:0:
348,294,41402,2,2,B|280:251,1,80
408,192,41726,6,0,B|408:76,2,106.666666666667,4|2|2,0:0|0:0|0:0,0:0:0:0:
300,192,42375,2,0,B|300:308,2,106.666666666667,2|0|2,0:0|0:0|0:0,0:0:0:0:
192,192,43023,2,0,B|192:76,2,106.666666666667,0|2|2,0:0|0:0|0:0,0:0:0:0:
84,192,43672,2,0,B|84:308,2,106.666666666667,2|2|0,0:0|0:0|0:0,0:0:0:0:
128,92,44321,6,0,B|232:64,1,106.666666666667,6|2,0:0|0:0,0:0:0:0:
332,36,44753,1,2,0:0:0:0:
384,128,44969,2,0,B|280:156,1,106.666666666667,2|0,0:0|0:0,0:0:0:0:
180,184,45402,1,2,0:0:0:0:
228,280,45618,2,0,B|332:252,1,106.666666666667,0|2,0:0|0:0,0:0:0:0:
432,224,46050,1,2,0:0:0:0:
484,316,46267,2,0,B|380:344,1,106.666666666667,2|2,0:0|0:0,0:0:0:0:
280,372,46699,1,2,0:0:0:0:
228,280,46915,5,4,0:0:0:0:
180,184,47131,1,2,0:0:0:0:
132,88,47348,1,2,0:0:0:0:
180,184,47564,1,2,0:0:0:0:
276,136,47780,1,0,0:0:0:0:
372,88,47996,1,2,0:0:0:0:
276,136,48212,1,0,0:0:0:0:
324,232,48429,1,2,0:0:0:0:
372,328,48645,1,2,0:0:0:0:
324,232,48861,1,2,0:0:0:0:
228,280,49077,1,2,0:0:0:0:
132,328,49294,1,0,0:0:0:0:
148,224,49510,6,0,B|252:172,1,106.666666666667,4|2,0:0|0:0,0:0:0:0:
340,128,49942,1,2,0:0:0:0:
388,224,50158,2,0,B|284:276,1,106.666666666667,2|0,0:0|0:0,0:0:0:0:
196,320,50591,1,2,0:0:0:0:
144,228,50807,2,0,B|108:180|144:128,2,106.666666666667,2|0|2,0:0|0:0|0:0,0:0:0:0:
240,184,51456,6,0,B|320:184,1,80,6|0,0:0|0:0,0:0:0:0:
400,184,51780,2,0,B|440:184,2,40,4|0|4,0:0|0:0|0:0,0:0:0:0:
360,116,52104,5,0,0:0:0:0:
296,68,52267,1,0,0:0:0:0:
216,76,52429,1,8,0:0:0:0:
148,120,52591,2,0,B|112:148|72:136,2,80,0|0|8,0:0|0:0|0:0,0:0:0:0:
216,160,53077,2,0,B|252:188|292:176,1,80,0|0,0:0|0:0,0:0:0:0:
364,144,53402,1,8,0:0:0:0:
424,196,53564,2,0,B|444:236|424:272,1,80,0|0,0:0|0:0,0:0:0:0:
352,232,53888,1,8,0:0:0:0:
280,268,54050,2,8,B|196:268,1,80,0|0,0:0|0:0,0:0:0:0:
352,232,54375,2,0,B|376:272|352:308,1,80,8|0,0:0|0:0,0:0:0:0:
292,180,54699,6,0,B|272:140|292:104,2,80,0|0|8,0:0|0:0|0:0,0:0:0:0:
244,244,55185,2,0,B|244:328,2,80,0|0|8,0:0|0:0|0:0,0:0:0:0:
192,180,55672,2,0,B|212:140|192:104,2,80,0|0|8,0:0|0:0|0:0,0:0:0:0:
124,140,56158,2,0,B|84:120|48:140,2,80,0|0|8,0:0|0:0|0:0,0:0:0:0:
88,212,56645,2,0,B|100:256|144:264,1,80
224,264,56969,2,0,B|268:256|280:212,1,80,8|0,0:0|0:0,0:0:0:0:
304,136,57294,5,4,0:0:0:0:
304,136,57456,1,0,0:0:0:0:
380,112,57618,1,8,0:0:0:0:
380,112,57780,1,0,0:0:0:0:
456,136,57942,1,0,0:0:0:0:
456,136,58104,1,0,0:0:0:0:
484,212,58267,1,8,0:0:0:0:
484,212,58429,1,0,0:0:0:0:
404,204,58591,5,4,0:0:0:0:
440,276,58753,1,0,0:0:0:0:
360,272,58915,1,8,0:0:0:0:
396,344,59077,1,0,0:0:0:0:
316,340,59240,1,0,0:0:0:0:
244,376,59402,1,0,0:0:0:0:
176,332,59564,1,8,0:0:0:0:
248,296,59726,1,0,0:0:0:0:
256,192,59888,12,4,61185,0:0:0:0:
256,192,61672,6,0,B|256:144,2,40,2|2|2,0:0|0:0|0:0,0:0:0:0:
256,192,62077,1,2,0:0:0:0:
256,192,62321,1,2,0:0:0:0:
256,272,62483,6,0,B|256:320,2,40,0|0|2,0:0|0:0|0:0,0:0:0:0:
332,296,62807,1,2,0:0:0:0:
388,352,62969,2,0,B|420:380,2,40,0|0|2,0:0|0:0|0:0,0:0:0:0:
332,296,63294,1,2,0:0:0:0:
392,244,63456,2,0,B|416:204|392:168,1,80,0|2,0:0|0:0,0:0:0:0:
320,204,63780,1,0,0:0:0:0:
252,160,63942,2,0,B|176:184,1,80,2|2,0:0|0:0,0:0:0:0:
100,204,64267,1,0,0:0:0:0:
156,260,64429,2,0,B|180:300|156:336,2,80,2|2|2,0:0|0:0|0:0,0:0:0:0:
84,296,64915,1,0,0:0:0:0:
28,236,65077,5,0,0:0:0:0:
8,200,65158,1,0,0:0:0:0:
12,160,65240,2,0,B|8:116|36:88,1,80,2|2,0:0|0:0,0:0:0:0:
92,144,65564,1,0,0:0:0:0:
160,104,65726,2,0,B|240:104,1,80,2|2,0:0|0:0,0:0:0:0:
300,52,66050,2,0,B|380:52,1,80,0|2,0:0|0:0,0:0:0:0:
460,52,66375,2,0,B|500:52,2,40,0|0|2,0:0|0:0|0:0,0:0:0:0:
460,52,66699,1,2,0:0:0:0:
432,128,66861,2,0,B|460:156,2,40,0|0|2,0:0|0:0|0:0,0:0:0:0:
432,128,67185,1,2,0:0:0:0:
368,176,67348,2,0,B|284:176,1,80,2|2,0:0|0:0,0:0:0:0:
208,176,67672,6,0,B|164:176,2,40,0|0|2,0:0|0:0|0:0,0:0:0:0:
248,244,67996,1,2,0:0:0:0:
324,260,68158,1,0,0:0:0:0:
304,296,68240,1,0,0:0:0:0:
268,316,68321,2,0,B|224:328|192:296,1,80,2|2,0:0|0:0,0:0:0:0:
156,228,68645,2,0,B|68:228,1,80,0|2,0:0|0:0,0:0:0:0:
40,300,68969,1,0,0:0:0:0:
40,300,69050,1,0,0:0:0:0:
40,300,69131,2,0,B|128:300,1,80,2|2,0:0|0:0,0:0:0:0:
200,300,69456,1,0,0:0:0:0:
280,300,69618,2,0,B|364:300,1,80,2|2,0:0|0:0,0:0:0:0:
388,224,69942,2,0,B|304:224,1,80,2|0,0:0|0:0,0:0:0:0:
260,160,70267,5,0,0:0:0:0:
240,196,70348,1,0,0:0:0:0:
216,228,70429,2,0,B|184:264|144:248,2,80,2|2|0,0:0|0:0|0:0,0:0:0:0:
284,268,70915,1,2,0:0:0:0:
332,204,71077,2,0,B|360:168|404:172,2,80,2|0|2,0:0|0:0|0:0,0:0:0:0:
396,256,71564,1,0,0:0:0:0:
332,308,71726,2,0,B|360:344|404:340,2,80,2|2|2,0:0|0:0|0:0,0:0:0:0:
268,352,72212,1,2,0:0:0:0:
188,364,72375,1,2,0:0:0:0:
128,312,72537,1,2,0:0:0:0:
136,232,72699,1,2,0:0:0:0:
176,164,72861,6,0,B|200:128|192:88,1,80,4|2,0:0|0:0,0:0:0:0:
191,87,73104,1,0,0:0:0:0:
191,87,73185,1,2,0:0:0:0:
116,112,73348,1,0,0:0:0:0:
56,164,73510,2,0,B|16:188|12:228,1,80,2|2,0:0|0:0,0:0:0:0:
92,240,73834,2,0,B|132:264|136:304,1,80,0|2,0:0|0:0,0:0:0:0:
200,348,74158,1,0,0:0:0:0:
248,284,74321,2,0,B|272:244|312:244,2,80,2|2|0,0:0|0:0|0:0,0:0:0:0:
320,320,74807,1,2,0:0:0:0:
384,272,74969,1,2,0:0:0:0:
376,192,75131,1,2,0:0:0:0:
300,168,75294,1,2,0:0:0:0:
228,200,75456,5,0,0:0:0:0:
228,200,75537,1,0,0:0:0:0:
228,200,75618,2,0,B|180:200,2,40,2|0|2,0:0|0:0|0:0,0:0:0:0:
212,280,75942,1,0,0:0:0:0:
212,280,76023,1,0,0:0:0:0:
212,280,76104,2,0,B|260:280,2,40,2|0|2,0:0|0:0|0:0,0:0:0:0:
196,360,76429,2,0,B|116:360,1,80,0|2,0:0|0:0,0:0:0:0:
64,300,76753,1,0,0:0:0:0:
24,232,76915,2,0,B|0:192|24:156,2,80,2|2|0,0:0|0:0|0:0,0:0:0:0:
96,196,77402,1,2,0:0:0:0:
144,132,77564,1,2,0:0:0:0:
220,108,77726,1,2,0:0:0:0:
292,144,77888,1,2,0:0:0:0:
336,212,78050,5,4,0:0:0:0:
284,272,78212,1,2,0:0:0:0:
320,288,78294,1,0,0:0:0:0:
360,288,78375,2,0,B|408:272|412:232,1,80,2|0,0:0|0:0,0:0:0:0:
336,212,78699,2,0,B|252:188,1,80,2|2,0:0|0:0,0:0:0:0:
144,80,79023,2,0,B|221:101,1,80,0|2,0:0|0:0,0:0:0:0:
276,44,79348,1,0,0:0:0:0:
296,120,79510,2,0,B|336:128,2,40,2|0|2,0:0|0:0|0:0,0:0:0:0:
244,180,79834,1,0,0:0:0:0:
216,256,79996,2,0,B|196:296|216:332,1,80,2|2,0:0|0:0,0:0:0:0:
284,372,80321,2,0,B|304:332|284:296,1,80,2|2,0:0|0:0,0:0:0:0:
284,216,80645,5,4,0:0:0:0:
284,136,80807,2,0,B|284:96,2,40,2|0|2,0:0|0:0|0:0,0:0:0:0:
360,116,81131,1,0,0:0:0:0:
416,172,81294,2,0,B|416:256,1,80,2|2,0:0|0:0,0:0:0:0:
340,360,81618,2,0,B|340:280,1,80,0|2,0:0|0:0,0:0:0:0:
264,252,81942,1,0,0:0:0:0:
236,176,82104,2,0,B|216:136|172:128,1,80,2|2,0:0|0:0,0:0:0:0:
164,208,82429,1,2,0:0:0:0:
108,264,82591,2,0,B|80:296|36:296,1,80,2|2,0:0|0:0,0:0:0:0:
164,208,82915,2,0,B|192:176|236:176,1,80,2|2,0:0|0:0,0:0:0:0:
236,256,83240,6,0,B|272:304|332:288,1,106.666666666667,0|2,0:0|0:0,0:0:0:0:
420,228,83672,1,2,0:0:0:0:
384,128,83888,2,0,B|364:64|420:36,2,106.666666666667,2|0|2,0:0|0:0|0:0,0:0:0:0:
308,204,84537,1,0,0:0:0:0:
224,136,84753,2,0,B|120:168,1,106.666666666667,2|2,0:0|0:0,0:0:0:0:
20,200,85185,1,2,0:0:0:0:
56,300,85402,2,0,B|157:268,1,106.666666666667,2|0,0:0|0:0,0:0:0:0:
260,236,85834,6,0,B|361:204,2,106.666666666667,2|2|2,0:0|0:0|0:0,0:0:0:0:
408,80,86483,2,0,B|306:111,2,106.666666666667,2|0|2,0:0|0:0|0:0,0:0:0:0:
204,144,87131,2,0,B|102:175,2,106.666666666667,0|2|2,0:0|0:0|0:0,0:0:0:0:
56,300,87780,2,0,B|157:268,2,106.666666666667,2|2|2,0:0|0:0|0:0,0:0:0:0:
268,328,88429,6,0,B|384:328,1,106.666666666667,0|2,0:0|0:0,0:0:0:0:
492,328,88861,1,2,0:0:0:0:
296,240,89077,2,0,B|180:240,1,106.666666666667,2|0,0:0|0:0,0:0:0:0:
72,240,89510,1,2,0:0:0:0:
268,152,89726,2,0,B|384:152,1,106.666666666667,0|2,0:0|0:0,0:0:0:0:
492,152,90158,1,2,0:0:0:0:
296,64,90375,2,0,B|180:64,1,106.666666666667,2|2,0:0|0:0,0:0:0:0:
72,64,90807,1,0,0:0:0:0:
140,148,91023,5,0,0:0:0:0:
168,252,91240,2,0,B|188:312|144:348,1,106.666666666667,2|2,0:0|0:0,0:0:0:0:
64,280,91672,1,2,0:0:0:0:
168,252,91888,2,0,B|284:252,1,106.666666666667,0|2,0:0|0:0,0:0:0:0:
380,252,92321,1,0,0:0:0:0:
274,252,92537,2,0,B|248:196|276:148,1,106.666666666667,2|2,0:0|0:0,0:0:0:0:
340,68,92969,1,2,0:0:0:0:
275,149,93185,2,0,B|167:149,1,106.666666666667,0|2,0:0|0:0,0:0:0:0:
84,52,93618,5,4,0:0:0:0:
0,148,93834,1,6,0:0:0:0:
84,244,94050,1,6,0:0:0:0:
172,148,94267,1,6,0:0:0:0:
256,244,94483,1,4,0:0:0:0:
172,340,94699,1,6,0:0:0:0:
84,244,94915,5,4,0:0:0:0:
256,244,95131,1,6,0:0:0:0:
428,244,95348,1,6,0:0:0:0:
344,96,95564,1,6,0:0:0:0:
172,96,95780,1,4,0:0:0:0:
0,96,95996,1,6,0:0:0:0:
84,244,96212,5,4,0:0:0:0:
100,272,96429,1,6,0:0:0:0:
116,300,96645,1,6,0:0:0:0:
172,96,96861,5,6,0:0:0:0:
156,68,97077,1,4,0:0:0:0:
140,40,97294,1,6,0:0:0:0:
288,192,97510,5,4,0:0:0:0:
304,220,97726,1,6,0:0:0:0:
320,248,97942,1,6,0:0:0:0:
452,80,98158,5,6,0:0:0:0:
436,52,98375,1,6,0:0:0:0:
420,24,98591,1,6,0:0:0:0:
176,140,98807,5,4,0:0:0:0:
140,240,99023,1,6,0:0:0:0:
40,284,99240,1,6,0:0:0:0:
336,244,99456,1,6,0:0:0:0:
372,144,99672,1,4,0:0:0:0:
472,100,99888,1,6,0:0:0:0:
460,204,100104,5,4,0:0:0:0:
372,144,100321,1,6,0:0:0:0:
380,36,100537,1,6,0:0:0:0:
52,180,100753,1,6,0:0:0:0:
140,240,100969,1,6,0:0:0:0:
132,348,101185,1,4,0:0:0:0:
256,192,101402,5,6,0:0:0:0:
368,80,101618,1,6,0:0:0:0:
256,192,101834,1,6,0:0:0:0:
152,72,102050,1,6,0:0:0:0:
40,184,102267,1,4,0:0:0:0:
152,72,102483,1,6,0:0:0:0:
256,192,102699,2,0,B|256:300,2,106.666666666667,6|4|6,0:0|0:0|0:0,0:0:0:0:
348,244,103348,6,0,B|348:156,1,80,2|0,0:0|0:0,0:0:0:0:
348,84,103672,2,0,B|348:40,4,40,0|0|0|0|4,0:0|0:0|0:0|0:0|0:0,0:0:0:0:
