osu file format v14

[General]
AudioFilename: konoaosora.mp3
AudioLeadIn: 1000
PreviewTime: 36209
Countdown: 0
SampleSet: Soft
StackLeniency: 0.7
Mode: 3
LetterboxInBreaks: 0
SpecialStyle: 0
WidescreenStoryboard: 0

[Editor]
DistanceSpacing: 1
BeatDivisor: 4
GridSize: 8
TimelineZoom: 1.5

[Metadata]
Title:Kono aozora no shita de
TitleUnicode:この青空の下で
Artist:TAG meets "eimy"
ArtistUnicode:TAG meets "eimy"
Creator:Cirno
Version:ADVANCED
Source:REFLEC BEAT limelight
Tags:
BeatmapID:238273
BeatmapSetID:87194

[Difficulty]
HPDrainRate:8
CircleSize:7
OverallDifficulty:10
ApproachRate:5
SliderMultiplier:1.4
SliderTickRate:1

[Events]
//Background and Video events
0,0,"a10b89e5d5d538efc6b765761c8bcfba_l.jpg",0,0
//Break Periods
//Storyboard Layer 0 (Background)
//Storyboard Layer 1 (Fail)
//Storyboard Layer 2 (Pass)
//Storyboard Layer 3 (Foreground)
//Storyboard Sound Samples

[TimingPoints]
940,363.636363636364,4,2,1,50,1,0
69300,-100,4,1,1,20,0,0
72209,-100,4,2,1,50,0,0

[HitObjects]
36,192,940,5,0,0:0:0:0:
182,192,1030,1,0,0:0:0:0:
329,192,1121,1,2,0:0:0:0:
109,192,1212,1,0,0:0:0:0:
256,192,1303,1,0,0:0:0:0:
402,192,1394,1,2,0:0:0:0:
36,192,1485,1,0,0:0:0:0:
182,192,1576,1,0,0:0:0:0:
329,192,1667,1,2,0:0:0:0:
109,192,1758,1,0,0:0:0:0:
256,192,1849,1,0,0:0:0:0:
402,192,1940,1,2,0:0:0:0:
182,192,2030,1,0,0:0:0:0:
329,192,2121,1,2,0:0:0:0:
109,192,2212,1,0,0:0:0:0:
256,192,2303,1,2,0:0:0:0:
36,192,2394,1,2,0:0:0:0:
182,192,2485,1,0,0:0:0:0:
182,192,2667,1,0,0:0:0:0:
109,192,2940,1,2,0:0:0:0:
256,192,3030,1,0,0:0:0:0:
256,192,3212,1,0,0:0:0:0:
329,192,3485,1,2,0:0:0:0:
475,192,3667,1,2,0:0:0:0:
36,192,3849,1,0,0:0:0:0:
182,192,3940,1,0,0:0:0:0:
329,192,4030,1,2,0:0:0:0:
109,192,4121,1,0,0:0:0:0:
256,192,4212,1,0,0:0:0:0:
402,192,4303,1,2,0:0:0:0:
36,192,4394,1,0,0:0:0:0:
182,192,4485,1,0,0:0:0:0:
329,192,4576,1,2,0:0:0:0:
109,192,4667,1,0,0:0:0:0:
256,192,4758,1,0,0:0:0:0:
402,192,4849,1,2,0:0:0:0:
182,192,4940,1,0,0:0:0:0:
329,192,5030,1,2,0:0:0:0:
109,192,5121,1,0,0:0:0:0:
256,192,5212,1,2,0:0:0:0:
475,192,5303,1,2,0:0:0:0:
329,192,5394,1,0,0:0:0:0:
182,192,5485,1,0,0:0:0:0:
402,192,5576,1,2,0:0:0:0:
256,192,5667,1,0,0:0:0:0:
109,192,5758,1,0,0:0:0:0:
329,192,5849,1,2,0:0:0:0:
182,192,5940,1,0,0:0:0:0:
36,192,6030,1,0,0:0:0:0:
475,192,6121,1,2,0:0:0:0:
329,192,6212,1,0,0:0:0:0:
182,192,6303,1,0,0:0:0:0:
402,192,6394,1,2,0:0:0:0:
256,192,6485,1,0,0:0:0:0:
475,192,6576,1,2,0:0:0:0:
329,192,6667,1,0,0:0:0:0:
36,192,6758,1,0,0:0:0:0:
182,192,6849,1,0,0:0:0:0:
329,192,6940,1,2,0:0:0:0:
109,192,7030,1,0,0:0:0:0:
256,192,7121,1,0,0:0:0:0:
402,192,7212,1,2,0:0:0:0:
36,192,7303,1,0,0:0:0:0:
182,192,7394,1,0,0:0:0:0:
329,192,7485,1,2,0:0:0:0:
109,192,7576,1,0,0:0:0:0:
256,192,7667,1,0,0:0:0:0:
402,192,7758,1,2,0:0:0:0:
182,192,7849,1,0,0:0:0:0:
329,192,7940,1,2,0:0:0:0:
109,192,8030,1,0,0:0:0:0:
256,192,8121,1,2,0:0:0:0:
36,192,8212,1,2,0:0:0:0:
182,192,8303,1,0,0:0:0:0:
182,192,8485,1,0,0:0:0:0:
109,192,8758,1,2,0:0:0:0:
256,192,8849,1,0,0:0:0:0:
256,192,9030,1,0,0:0:0:0:
329,192,9303,1,2,0:0:0:0:
475,192,9485,1,2,0:0:0:0:
36,192,9667,1,0,0:0:0:0:
182,192,9758,1,0,0:0:0:0:
329,192,9849,1,2,0:0:0:0:
109,192,9940,1,0,0:0:0:0:
256,192,10030,1,0,0:0:0:0:
402,192,10121,1,2,0:0:0:0:
36,192,10212,1,0,0:0:0:0:
182,192,10303,1,0,0:0:0:0:
329,192,10394,1,2,0:0:0:0:
109,192,10485,1,0,0:0:0:0:
256,192,10576,1,0,0:0:0:0:
402,192,10667,1,2,0:0:0:0:
36,192,10758,1,0,0:0:0:0:
182,192,10849,1,2,0:0:0:0:
109,192,10940,1,0,0:0:0:0:
256,192,11030,1,2,0:0:0:0:
329,192,11121,1,0,0:0:0:0:
109,192,11121,1,0,0:0:0:0:
402,192,11212,1,0,0:0:0:0:
182,192,11212,1,0,0:0:0:0:
402,192,11394,1,0,0:0:0:0:
182,192,11394,1,0,0:0:0:0:
475,192,11667,1,0,0:0:0:0:
256,192,11667,1,0,0:0:0:0:
36,192,12030,1,0,0:0:0:0:
329,192,12030,1,0,0:0:0:0:
109,192,12212,1,0,0:0:0:0:
402,192,12212,1,0,0:0:0:0:
182,192,12394,1,0,0:0:0:0:
475,192,12394,1,0,0:0:0:0:
36,192,12576,1,4,0:3:0:0:
182,192,12576,1,4,0:0:0:0:
329,192,12758,1,0,0:0:0:0:
36,192,12940,1,4,0:3:0:0:
182,192,12940,1,8,0:0:0:0:
329,192,13121,1,0,0:0:0:0:
36,192,13303,1,4,0:3:0:0:
402,192,13485,1,0,0:0:0:0:
36,192,13667,1,4,0:3:0:0:
182,192,13667,1,8,0:0:0:0:
402,192,13849,1,0,0:0:0:0:
36,192,14030,1,4,0:3:0:0:
256,192,14212,1,0,0:0:0:0:
182,192,14394,1,8,0:0:0:0:
36,192,14394,1,4,0:3:0:0:
256,192,14576,1,0,0:0:0:0:
36,192,14758,1,4,0:3:0:0:
475,192,14940,1,0,0:0:0:0:
182,192,15121,1,8,0:0:0:0:
36,192,15121,1,4,0:3:0:0:
475,192,15303,1,0,0:0:0:0:
36,192,15485,1,4,0:3:0:0:
329,192,15667,1,0,0:0:0:0:
36,192,15849,1,4,0:3:0:0:
182,192,15849,1,8,0:0:0:0:
329,192,16030,1,0,0:0:0:0:
36,192,16212,1,4,0:3:0:0:
402,192,16394,1,0,0:0:0:0:
36,192,16576,1,4,0:3:0:0:
182,192,16576,1,8,0:0:0:0:
402,192,16758,1,0,0:0:0:0:
36,192,16940,1,4,0:3:0:0:
256,192,17121,1,0,0:0:0:0:
36,192,17303,1,4,0:3:0:0:
182,192,17303,1,8,0:0:0:0:
256,192,17485,1,0,0:0:0:0:
36,192,17667,1,4,0:3:0:0:
475,192,17849,1,0,0:0:0:0:
109,192,17849,1,4,0:3:0:0:
182,192,18030,1,8,0:0:0:0:
36,192,18030,1,4,0:3:0:0:
475,192,18212,1,0,0:0:0:0:
109,192,18212,1,4,0:3:0:0:
36,192,18394,1,4,0:3:0:0:
329,192,18576,1,0,0:0:0:0:
182,192,18758,1,8,0:0:0:0:
36,192,18758,1,4,0:3:0:0:
329,192,18940,1,0,0:0:0:0:
36,192,19121,1,4,0:3:0:0:
402,192,19303,1,0,0:0:0:0:
182,192,19485,1,8,0:0:0:0:
36,192,19485,1,4,0:3:0:0:
402,192,19667,1,0,0:0:0:0:
36,192,19849,1,4,0:3:0:0:
256,192,20030,1,0,0:0:0:0:
182,192,20212,1,8,0:0:0:0:
36,192,20212,1,4,0:3:0:0:
256,192,20394,1,0,0:0:0:0:
36,192,20576,1,4,0:3:0:0:
475,192,20758,1,0,0:0:0:0:
36,192,20940,1,4,0:3:0:0:
182,192,20940,1,8,0:0:0:0:
475,192,21121,1,0,0:0:0:0:
36,192,21303,1,4,0:3:0:0:
329,192,21485,1,0,0:0:0:0:
36,192,21667,1,4,0:3:0:0:
182,192,21667,1,8,0:0:0:0:
329,192,21849,1,0,0:0:0:0:
36,192,22030,1,4,0:3:0:0:
402,192,22212,1,0,0:0:0:0:
36,192,22394,1,4,0:3:0:0:
182,192,22394,1,8,0:0:0:0:
402,192,22576,1,0,0:0:0:0:
36,192,22758,1,4,0:3:0:0:
475,192,22940,1,0,0:0:0:0:
109,192,22940,1,4,0:3:0:0:
36,192,23121,1,4,0:3:0:0:
182,192,23121,1,8,0:0:0:0:
475,192,23303,1,0,0:0:0:0:
109,192,23303,1,4,0:3:0:0:
36,192,23485,1,4,0:3:0:0:
109,192,23667,1,4,0:3:0:0:
475,192,23667,1,0,0:0:0:0:
182,192,23849,1,8,0:0:0:0:
36,192,23849,1,4,0:3:0:0:
475,192,24030,1,0,0:0:0:0:
109,192,24030,1,4,0:3:0:0:
36,192,24212,1,4,0:3:0:0:
182,192,24212,1,4,0:0:0:0:
36,192,24576,1,4,0:3:0:0:
182,192,24576,1,8,0:0:0:0:
256,192,24576,1,0,0:0:0:0:
402,192,24576,1,0,0:0:0:0:
36,192,24940,1,4,0:3:0:0:
256,192,25121,1,0,0:0:0:0:
402,192,25121,1,0,0:0:0:0:
36,192,25303,1,4,0:3:0:0:
182,192,25303,1,8,0:0:0:0:
256,192,25485,1,0,0:0:0:0:
402,192,25485,1,0,0:0:0:0:
36,192,25667,1,4,0:3:0:0:
329,192,25849,1,0,0:0:0:0:
475,192,25849,1,0,0:0:0:0:
182,192,26030,1,8,0:0:0:0:
36,192,26030,1,4,0:3:0:0:
329,192,26212,1,0,0:0:0:0:
475,192,26212,1,0,0:0:0:0:
329,192,26394,1,0,0:0:0:0:
475,192,26394,1,0,0:0:0:0:
36,192,26394,1,4,0:3:0:0:
182,192,26758,1,8,0:0:0:0:
36,192,26758,1,4,0:3:0:0:
329,192,26758,1,0,0:0:0:0:
475,192,26758,1,0,0:0:0:0:
36,192,27121,1,4,0:3:0:0:
329,192,27303,1,0,0:0:0:0:
475,192,27303,1,0,0:0:0:0:
36,192,27485,1,4,0:3:0:0:
182,192,27485,1,8,0:0:0:0:
36,192,27849,1,4,0:3:0:0:
329,192,27849,1,0,0:0:0:0:
475,192,27849,1,0,0:0:0:0:
36,192,28212,1,4,0:3:0:0:
182,192,28212,1,8,0:0:0:0:
329,192,28394,1,0,0:0:0:0:
475,192,28394,1,0,0:0:0:0:
36,192,28576,1,4,0:3:0:0:
402,192,28758,1,0,0:0:0:0:
475,192,28758,1,0,0:0:0:0:
182,192,28940,1,8,0:0:0:0:
36,192,28940,1,4,0:3:0:0:
402,192,29303,1,0,0:0:0:0:
475,192,29303,1,0,0:0:0:0:
36,192,29303,1,4,0:3:0:0:
329,192,29667,1,0,0:0:0:0:
182,192,29667,1,8,0:0:0:0:
36,192,29667,1,4,0:3:0:0:
402,192,29667,1,0,0:0:0:0:
36,192,30030,1,4,0:3:0:0:
256,192,30030,1,0,0:0:0:0:
402,192,30030,1,0,0:0:0:0:
36,192,30394,1,4,0:3:0:0:
182,192,30394,1,8,0:0:0:0:
256,192,30576,1,0,0:0:0:0:
402,192,30576,1,0,0:0:0:0:
36,192,30758,1,4,0:3:0:0:
256,192,30940,1,0,0:0:0:0:
402,192,30940,1,0,0:0:0:0:
36,192,31121,1,4,0:3:0:0:
182,192,31121,1,8,0:0:0:0:
256,192,31303,1,0,0:0:0:0:
402,192,31303,1,0,0:0:0:0:
36,192,31485,1,4,0:3:0:0:
256,192,31667,1,0,0:0:0:0:
329,192,31667,1,0,0:0:0:0:
182,192,31849,1,8,0:0:0:0:
36,192,31849,1,4,0:3:0:0:
256,192,32212,1,0,0:0:0:0:
329,192,32212,1,0,0:0:0:0:
36,192,32212,1,4,0:3:0:0:
182,192,32576,1,8,0:0:0:0:
36,192,32576,1,4,0:3:0:0:
329,192,32940,1,0,0:0:0:0:
402,192,32940,1,0,0:0:0:0:
36,192,32940,1,0,1:0:0:0:
182,192,33121,1,0,1:0:0:0:
109,192,33303,1,0,1:0:0:0:
256,192,33485,1,0,1:0:0:0:
329,192,33485,1,0,0:0:0:0:
402,192,33485,1,0,0:0:0:0:
36,192,33667,1,0,1:0:0:0:
182,192,33849,1,0,1:0:0:0:
329,192,33849,1,0,0:0:0:0:
402,192,33849,1,0,0:0:0:0:
109,192,34030,1,0,1:0:0:0:
256,192,34212,1,0,1:0:0:0:
329,192,34212,1,0,0:0:0:0:
475,192,34212,1,0,0:0:0:0:
36,192,34394,1,0,1:0:0:0:
182,192,34576,1,0,1:0:0:0:
329,192,34576,1,0,0:0:0:0:
475,192,34576,1,0,0:0:0:0:
109,192,34758,1,0,1:0:0:0:
256,192,34940,1,0,1:0:0:0:
36,192,35121,1,0,0:0:0:0:
109,192,35212,1,0,0:0:0:0:
182,192,35303,1,0,0:0:0:0:
256,192,35394,1,0,0:0:0:0:
182,192,35485,1,0,0:0:0:0:
256,192,35576,1,0,0:0:0:0:
329,192,35667,1,0,0:0:0:0:
402,192,35758,1,0,0:0:0:0:
475,192,35849,1,0,0:0:0:0:
36,192,35849,1,4,0:0:0:0:
36,192,36030,1,4,0:0:0:0:
475,192,36030,1,0,0:0:0:0:
182,192,36940,1,4,0:0:0:0:
329,192,36940,1,8,0:0:0:0:
329,192,37303,1,0,0:0:0:0:
182,192,37303,1,0,0:0:0:0:
36,192,37303,1,4,0:3:0:0:
329,192,37576,1,0,0:0:0:0:
182,192,37576,1,0,0:0:0:0:
36,192,37667,1,4,0:3:0:0:
329,192,37849,1,0,0:0:0:0:
182,192,37849,1,0,0:0:0:0:
329,192,38030,1,0,0:0:0:0:
182,192,38030,1,0,0:0:0:0:
36,192,38030,1,4,0:3:0:0:
329,192,38212,1,0,0:0:0:0:
182,192,38212,1,0,0:0:0:0:
36,192,38394,1,4,0:3:0:0:
329,192,38576,1,0,0:0:0:0:
182,192,38576,1,0,0:0:0:0:
256,192,38758,1,0,0:0:0:0:
402,192,38758,1,0,0:0:0:0:
109,192,38758,1,4,0:3:0:0:
256,192,39030,1,0,0:0:0:0:
402,192,39030,1,0,0:0:0:0:
109,192,39121,1,4,0:3:0:0:
329,192,39303,1,0,0:0:0:0:
475,192,39303,1,0,0:0:0:0:
109,192,39485,1,4,0:3:0:0:
256,192,39667,1,0,0:0:0:0:
402,192,39667,1,0,0:0:0:0:
109,192,39849,1,4,0:3:0:0:
256,192,40030,1,0,0:0:0:0:
402,192,40030,1,0,0:0:0:0:
109,192,40212,1,0,0:0:0:0:
256,192,40212,1,0,0:0:0:0:
36,192,40212,1,4,0:3:0:0:
256,192,40485,1,0,0:0:0:0:
109,192,40485,1,0,0:0:0:0:
36,192,40576,1,4,0:3:0:0:
109,192,40758,1,0,0:0:0:0:
256,192,40758,1,0,0:0:0:0:
36,192,40940,1,4,0:3:0:0:
109,192,41121,1,0,0:0:0:0:
256,192,41121,1,0,0:0:0:0:
109,192,41303,1,0,0:0:0:0:
256,192,41303,1,0,0:0:0:0:
36,192,41303,1,4,0:3:0:0:
109,192,41485,1,0,0:0:0:0:
256,192,41485,1,0,0:0:0:0:
182,192,41667,1,0,0:0:0:0:
329,192,41667,1,0,0:0:0:0:
109,192,41667,1,4,0:3:0:0:
329,192,41940,1,0,0:0:0:0:
182,192,41940,1,0,0:0:0:0:
109,192,42030,1,4,0:3:0:0:
256,192,42212,1,0,0:0:0:0:
402,192,42212,1,0,0:0:0:0:
109,192,42394,1,4,0:3:0:0:
256,192,42576,1,0,0:0:0:0:
402,192,42576,1,0,0:0:0:0:
109,192,42758,1,4,0:3:0:0:
256,192,42940,1,0,0:0:0:0:
402,192,42940,1,0,0:0:0:0:
475,192,43121,1,0,0:0:0:0:
329,192,43121,1,0,0:0:0:0:
36,192,43121,1,4,0:3:0:0:
329,192,43394,1,0,0:0:0:0:
475,192,43394,1,0,0:0:0:0:
36,192,43485,1,4,0:3:0:0:
256,192,43667,1,0,0:0:0:0:
402,192,43667,1,0,0:0:0:0:
36,192,43849,1,4,0:3:0:0:
182,192,44030,1,0,0:0:0:0:
329,192,44030,1,0,0:0:0:0:
36,192,44212,1,4,0:3:0:0:
256,192,44394,1,0,0:0:0:0:
402,192,44394,1,0,0:0:0:0:
109,192,44576,1,0,0:0:0:0:
256,192,44576,1,0,0:0:0:0:
36,192,44576,1,4,0:3:0:0:
109,192,44849,1,0,0:0:0:0:
256,192,44849,1,0,0:0:0:0:
36,192,44940,1,4,0:3:0:0:
182,192,45121,1,0,0:0:0:0:
329,192,45121,1,0,0:0:0:0:
36,192,45303,1,4,0:3:0:0:
256,192,45485,1,0,0:0:0:0:
402,192,45485,1,0,0:0:0:0:
36,192,45667,1,4,0:3:0:0:
182,192,45849,1,0,0:0:0:0:
329,192,45849,1,0,0:0:0:0:
256,192,46030,1,0,0:0:0:0:
402,192,46030,1,0,0:0:0:0:
36,192,46030,1,4,0:3:0:0:
256,192,46303,1,0,0:0:0:0:
402,192,46303,1,0,0:0:0:0:
36,192,46394,1,4,0:3:0:0:
329,192,46576,1,0,0:0:0:0:
475,192,46576,1,0,0:0:0:0:
36,192,46758,1,4,0:3:0:0:
36,192,47121,1,4,0:3:0:0:
36,192,47485,1,0,0:0:0:0:
182,192,47576,1,0,0:0:0:0:
329,192,47667,1,0,0:0:0:0:
475,192,47758,1,0,0:0:0:0:
109,192,47849,1,0,0:0:0:0:
256,192,47940,1,0,0:0:0:0:
329,192,48030,1,0,0:0:0:0:
402,192,48121,1,0,0:0:0:0:
475,192,48212,1,0,0:0:0:0:
329,192,48303,1,0,0:0:0:0:
182,192,48394,1,0,0:0:0:0:
36,192,48485,1,0,0:0:0:0:
402,192,48576,1,0,0:0:0:0:
256,192,48667,1,0,0:0:0:0:
182,192,48758,1,0,0:0:0:0:
109,192,48849,1,0,0:0:0:0:
36,192,48940,1,4,0:3:0:0:
182,192,48940,1,0,0:0:0:0:
329,192,48940,1,0,0:0:0:0:
329,192,49212,1,0,0:0:0:0:
182,192,49212,1,0,0:0:0:0:
36,192,49303,1,4,0:3:0:0:
182,192,49485,1,0,0:0:0:0:
329,192,49485,1,0,0:0:0:0:
36,192,49667,1,4,0:3:0:0:
182,192,49849,1,0,0:0:0:0:
329,192,49849,1,0,0:0:0:0:
182,192,50030,1,0,0:0:0:0:
329,192,50030,1,0,0:0:0:0:
36,192,50030,1,4,0:3:0:0:
182,192,50212,1,0,0:0:0:0:
329,192,50212,1,0,0:0:0:0:
256,192,50394,1,0,0:0:0:0:
402,192,50394,1,0,0:0:0:0:
109,192,50394,1,4,0:3:0:0:
256,192,50667,1,0,0:0:0:0:
402,192,50667,1,0,0:0:0:0:
109,192,50758,1,4,0:3:0:0:
329,192,50940,1,0,0:0:0:0:
475,192,50940,1,0,0:0:0:0:
109,192,51121,1,4,0:3:0:0:
256,192,51303,1,0,0:0:0:0:
402,192,51303,1,0,0:0:0:0:
109,192,51485,1,4,0:3:0:0:
256,192,51667,1,0,0:0:0:0:
402,192,51667,1,0,0:0:0:0:
109,192,51849,1,0,0:0:0:0:
256,192,51849,1,0,0:0:0:0:
36,192,51849,1,4,0:3:0:0:
109,192,52121,1,0,0:0:0:0:
256,192,52121,1,0,0:0:0:0:
36,192,52212,1,4,0:3:0:0:
109,192,52394,1,0,0:0:0:0:
256,192,52394,1,0,0:0:0:0:
182,192,52576,1,0,0:0:0:0:
329,192,52576,1,0,0:0:0:0:
36,192,52576,1,4,0:3:0:0:
182,192,52849,1,0,0:0:0:0:
329,192,52849,1,0,0:0:0:0:
36,192,52940,1,4,0:3:0:0:
182,192,53121,1,0,0:0:0:0:
329,192,53121,1,0,0:0:0:0:
256,192,53303,1,0,0:0:0:0:
402,192,53303,1,0,0:0:0:0:
109,192,53303,1,4,0:3:0:0:
256,192,53576,1,0,0:0:0:0:
402,192,53576,1,0,0:0:0:0:
109,192,53667,1,4,0:3:0:0:
329,192,53849,1,0,0:0:0:0:
475,192,53849,1,0,0:0:0:0:
109,192,54030,1,4,0:3:0:0:
329,192,54212,1,0,0:0:0:0:
475,192,54212,1,0,0:0:0:0:
109,192,54394,1,4,0:3:0:0:
329,192,54576,1,0,0:0:0:0:
475,192,54576,1,0,0:0:0:0:
36,192,54758,1,0,0:0:0:0:
182,192,54849,1,0,0:0:0:0:
329,192,54940,1,0,0:0:0:0:
36,192,55030,1,0,0:0:0:0:
182,192,55121,1,0,0:0:0:0:
329,192,55212,1,0,0:0:0:0:
36,192,55303,1,0,0:0:0:0:
182,192,55394,1,0,0:0:0:0:
329,192,55485,1,0,0:0:0:0:
36,192,55576,1,0,0:0:0:0:
256,192,55667,1,0,0:0:0:0:
402,192,55667,1,0,0:0:0:0:
256,192,56030,1,0,0:0:0:0:
402,192,56030,1,0,0:0:0:0:
109,192,56212,1,0,0:0:0:0:
256,192,56303,1,0,0:0:0:0:
402,192,56394,1,0,0:0:0:0:
109,192,56485,1,0,0:0:0:0:
256,192,56576,1,0,0:0:0:0:
402,192,56667,1,0,0:0:0:0:
109,192,56758,1,0,0:0:0:0:
256,192,56849,1,0,0:0:0:0:
402,192,56940,1,0,0:0:0:0:
109,192,57030,1,0,0:0:0:0:
329,192,57121,1,0,0:0:0:0:
475,192,57121,1,0,0:0:0:0:
329,192,57485,1,0,0:0:0:0:
475,192,57485,1,0,0:0:0:0:
36,192,57667,1,0,0:0:0:0:
182,192,57758,1,0,0:0:0:0:
329,192,57849,1,0,0:0:0:0:
475,192,57940,1,0,0:0:0:0:
36,192,58030,1,0,0:0:0:0:
109,192,58121,1,0,0:0:0:0:
182,192,58212,1,0,0:0:0:0:
256,192,58303,1,0,0:0:0:0:
329,192,58394,1,0,0:0:0:0:
402,192,58485,1,0,0:0:0:0:
475,192,58576,1,0,0:0:0:0:
329,192,58576,1,0,0:0:0:0:
329,192,58940,1,0,0:0:0:0:
475,192,58940,1,0,0:0:0:0:
109,192,59121,1,4,0:3:0:0:
256,192,59121,1,4,0:0:0:0:
109,192,59394,1,4,0:3:0:0:
256,192,59394,1,4,0:0:0:0:
109,192,59667,1,4,0:3:0:0:
256,192,59667,1,4,0:0:0:0:
475,192,59849,1,0,0:0:0:0:
402,192,59940,1,0,0:0:0:0:
329,192,60030,1,0,0:0:0:0:
256,192,60121,1,0,0:0:0:0:
329,192,60212,1,0,0:0:0:0:
256,192,60303,1,0,0:0:0:0:
182,192,60394,1,0,0:0:0:0:
109,192,60485,1,0,0:0:0:0:
475,192,60576,1,2,0:0:0:0:
329,192,60667,1,0,0:0:0:0:
182,192,60758,1,0,0:0:0:0:
402,192,60849,1,2,0:0:0:0:
256,192,60940,1,0,0:0:0:0:
109,192,61030,1,0,0:0:0:0:
475,192,61121,1,2,0:0:0:0:
329,192,61212,1,0,0:0:0:0:
182,192,61303,1,0,0:0:0:0:
402,192,61394,1,2,0:0:0:0:
256,192,61485,1,0,0:0:0:0:
109,192,61576,1,0,0:0:0:0:
475,192,61667,1,2,0:0:0:0:
329,192,61758,1,0,0:0:0:0:
182,192,61849,1,0,0:0:0:0:
402,192,61940,1,2,0:0:0:0:
256,192,62030,1,0,0:0:0:0:
109,192,62121,1,0,0:0:0:0:
475,192,62212,1,2,0:0:0:0:
329,192,62303,1,0,0:0:0:0:
182,192,62394,1,0,0:0:0:0:
402,192,62485,1,2,0:0:0:0:
256,192,62576,1,0,0:0:0:0:
109,192,62667,1,0,0:0:0:0:
329,192,62758,1,2,0:0:0:0:
182,192,62849,1,0,0:0:0:0:
36,192,62940,1,0,0:0:0:0:
475,192,63030,1,2,0:0:0:0:
329,192,63121,1,0,0:0:0:0:
182,192,63212,1,0,0:0:0:0:
402,192,63303,1,2,0:0:0:0:
256,192,63394,1,0,0:0:0:0:
402,192,63485,1,2,0:0:0:0:
256,192,63576,1,0,0:0:0:0:
109,192,63667,1,0,0:0:0:0:
329,192,63758,1,2,0:0:0:0:
182,192,63849,1,0,0:0:0:0:
36,192,63940,1,0,0:0:0:0:
402,192,64030,1,2,0:0:0:0:
256,192,64121,1,0,0:0:0:0:
109,192,64212,1,0,0:0:0:0:
329,192,64303,1,2,0:0:0:0:
182,192,64394,1,0,0:0:0:0:
36,192,64485,1,0,0:0:0:0:
402,192,64576,1,2,0:0:0:0:
256,192,64667,1,0,0:0:0:0:
109,192,64758,1,0,0:0:0:0:
329,192,64849,1,2,0:0:0:0:
182,192,64940,1,0,0:0:0:0:
36,192,65030,1,0,0:0:0:0:
402,192,65121,1,2,0:0:0:0:
256,192,65212,1,0,0:0:0:0:
109,192,65303,1,0,0:0:0:0:
329,192,65394,1,2,0:0:0:0:
182,192,65485,1,0,0:0:0:0:
36,192,65576,1,0,0:0:0:0:
402,192,65667,1,2,0:0:0:0:
256,192,65758,1,0,0:0:0:0:
109,192,65849,1,0,0:0:0:0:
402,192,65940,1,2,0:0:0:0:
256,192,66030,1,0,0:0:0:0:
109,192,66121,1,0,0:0:0:0:
182,192,66212,1,2,0:0:0:0:
329,192,66303,1,0,0:0:0:0:
475,192,66394,1,2,0:0:0:0:
329,192,66485,1,0,0:0:0:0:
182,192,66576,1,0,0:0:0:0:
475,192,66667,1,2,0:0:0:0:
329,192,66758,1,0,0:0:0:0:
182,192,66849,1,0,0:0:0:0:
475,192,66940,1,2,0:0:0:0:
329,192,67030,1,0,0:0:0:0:
182,192,67121,1,0,0:0:0:0:
475,192,67212,1,2,0:0:0:0:
329,192,67303,1,0,0:0:0:0:
182,192,67394,1,0,0:0:0:0:
329,192,67485,1,2,0:0:0:0:
475,192,67576,1,0,0:0:0:0:
329,192,67667,1,0,0:0:0:0:
182,192,67758,1,0,0:0:0:0:
402,192,67849,1,2,0:0:0:0:
256,192,67940,1,0,0:0:0:0:
109,192,68030,1,0,0:0:0:0:
402,192,68121,1,2,0:0:0:0:
256,192,68212,1,0,0:0:0:0:
109,192,68303,1,0,0:0:0:0:
402,192,68394,1,2,0:0:0:0:
256,192,68485,1,0,0:0:0:0:
109,192,68576,1,0,0:0:0:0:
402,192,68667,1,2,0:0:0:0:
256,192,68758,1,0,0:0:0:0:
109,192,68849,1,0,0:0:0:0:
256,192,68940,1,2,0:0:0:0:
402,192,69030,1,0,0:0:0:0:
256,192,69121,1,0,0:0:0:0:
109,192,69212,1,0,0:0:0:0:
475,192,69303,1,0,0:0:0:0:
329,192,69394,1,0,0:0:0:0:
182,192,69485,1,0,0:0:0:0:
36,192,69576,1,0,0:0:0:0:
402,192,69667,1,0,0:0:0:0:
256,192,69758,1,0,0:0:0:0:
109,192,69849,1,0,0:0:0:0:
36,192,69940,1,0,0:0:0:0:
329,192,70030,1,0,0:0:0:0:
182,192,70121,1,0,0:0:0:0:
109,192,70212,1,0,0:0:0:0:
36,192,70303,1,0,0:0:0:0:
256,192,70394,1,0,0:0:0:0:
182,192,70485,1,0,0:0:0:0:
109,192,70576,1,0,0:0:0:0:
36,192,70667,1,0,0:0:0:0:
109,192,70758,1,0,0:0:0:0:
256,192,70849,1,0,0:0:0:0:
402,192,70940,1,0,0:0:0:0:
475,192,71030,1,0,0:0:0:0:
182,192,71121,1,0,0:0:0:0:
329,192,71212,1,0,0:0:0:0:
402,192,71303,1,0,0:0:0:0:
475,192,71394,1,0,0:0:0:0:
256,192,71485,1,0,0:0:0:0:
329,192,71576,1,0,0:0:0:0:
402,192,71667,1,0,0:0:0:0:
475,192,71758,1,0,0:0:0:0:
36,192,71849,1,0,0:0:0:0:
182,192,71940,1,0,0:0:0:0:
329,192,72030,1,0,0:0:0:0:
475,192,72121,1,0,0:0:0:0:
109,192,72212,1,0,0:0:0:0:
402,192,72212,1,4,0:0:0:0:
109,192,72394,1,0,0:0:0:0:
402,192,72394,1,4,0:0:0:0:
402,192,73667,1,4,0:0:0:0:
109,192,73849,1,0,0:0:0:0:
109,192,74212,1,0,0:0:0:0:
109,192,74576,1,0,0:0:0:0:
109,192,74940,1,0,0:0:0:0:
182,192,75303,1,0,0:0:0:0:
182,192,75667,1,0,0:0:0:0:
182,192,76030,1,0,0:0:0:0:
182,192,76394,1,0,0:0:0:0:
402,192,76576,1,4,0:0:0:0:
36,192,76758,1,0,0:0:0:0:
402,192,76758,1,4,0:0:0:0:
36,192,77121,1,0,0:0:0:0:
36,192,77485,1,0,0:0:0:0:
36,192,77849,1,0,0:0:0:0:
402,192,77849,1,4,0:0:0:0:
256,192,78212,1,0,0:0:0:0:
402,192,78212,1,4,0:0:0:0:
256,192,78576,1,0,0:0:0:0:
402,192,78576,1,4,0:0:0:0:
256,192,78940,1,0,0:0:0:0:
402,192,78940,1,4,0:0:0:0:
402,192,79121,1,4,0:0:0:0:
256,192,79303,1,0,0:0:0:0:
402,192,79303,1,4,0:0:0:0:
36,192,79303,1,0,0:0:0:0:
182,192,79394,1,0,0:0:0:0:
475,192,79485,1,0,0:0:0:0:
475,192,79758,1,0,0:0:0:0:
329,192,80030,1,0,0:0:0:0:
256,192,80394,1,0,0:0:0:0:
182,192,80758,1,0,0:0:0:0:
109,192,80940,1,0,0:0:0:0:
109,192,81212,1,0,0:0:0:0:
182,192,81485,1,0,0:0:0:0:
329,192,81849,1,0,0:0:0:0:
256,192,82212,1,0,0:0:0:0:
329,192,82394,1,0,0:0:0:0:
329,192,82667,1,0,0:0:0:0:
475,192,82940,1,0,0:0:0:0:
36,192,83849,1,0,0:0:0:0:
182,192,83940,1,0,0:0:0:0:
329,192,84030,1,0,0:0:0:0:
475,192,84121,1,0,0:0:0:0:
182,192,84212,1,0,0:0:0:0:
256,192,84303,1,0,0:0:0:0:
329,192,84394,1,0,0:0:0:0:
402,192,84485,1,0,0:0:0:0:
475,192,84576,1,0,0:0:0:0:
329,192,84667,1,0,0:0:0:0:
182,192,84758,1,0,0:0:0:0:
36,192,84849,1,0,0:0:0:0:
402,192,84940,1,0,0:0:0:0:
329,192,85030,1,0,0:0:0:0:
256,192,85121,1,0,0:0:0:0:
182,192,85212,1,0,0:0:0:0:
256,192,85303,1,0,0:0:0:0:
109,192,85303,1,0,0:0:0:0:
475,192,85303,1,4,0:3:0:0:
109,192,85576,1,0,0:0:0:0:
256,192,85576,1,0,0:0:0:0:
475,192,85667,1,4,0:3:0:0:
109,192,85849,1,0,0:0:0:0:
256,192,85849,1,0,0:0:0:0:
475,192,86030,1,4,0:3:0:0:
109,192,86212,1,0,0:0:0:0:
256,192,86212,1,0,0:0:0:0:
109,192,86394,1,0,0:0:0:0:
256,192,86394,1,0,0:0:0:0:
475,192,86394,1,4,0:3:0:0:
109,192,86576,1,0,0:0:0:0:
256,192,86576,1,0,0:0:0:0:
182,192,86758,1,0,0:0:0:0:
329,192,86758,1,0,0:0:0:0:
402,192,86758,1,4,0:3:0:0:
329,192,87030,1,0,0:0:0:0:
182,192,87030,1,0,0:0:0:0:
402,192,87121,1,4,0:3:0:0:
256,192,87303,1,0,0:0:0:0:
109,192,87303,1,0,0:0:0:0:
402,192,87485,1,4,0:3:0:0:
329,192,87667,1,0,0:0:0:0:
182,192,87667,1,0,0:0:0:0:
402,192,87849,1,4,0:3:0:0:
182,192,88030,1,0,0:0:0:0:
329,192,88030,1,0,0:0:0:0:
475,192,88212,1,4,0:3:0:0:
182,192,88212,1,0,0:0:0:0:
36,192,88212,1,0,0:0:0:0:
182,192,88485,1,0,0:0:0:0:
36,192,88485,1,0,0:0:0:0:
475,192,88576,1,4,0:3:0:0:
182,192,88758,1,0,0:0:0:0:
36,192,88758,1,0,0:0:0:0:
109,192,88940,1,0,0:0:0:0:
256,192,88940,1,0,0:0:0:0:
475,192,88940,1,4,0:3:0:0:
109,192,89212,1,0,0:0:0:0:
256,192,89212,1,0,0:0:0:0:
475,192,89303,1,4,0:3:0:0:
109,192,89485,1,0,0:0:0:0:
256,192,89485,1,0,0:0:0:0:
329,192,89667,1,0,0:0:0:0:
182,192,89667,1,0,0:0:0:0:
475,192,89667,1,4,0:3:0:0:
329,192,89940,1,0,0:0:0:0:
182,192,89940,1,0,0:0:0:0:
475,192,90030,1,4,0:3:0:0:
402,192,90212,1,0,0:0:0:0:
256,192,90212,1,0,0:0:0:0:
475,192,90394,1,4,0:3:0:0:
256,192,90576,1,0,0:0:0:0:
402,192,90576,1,0,0:0:0:0:
475,192,90758,1,4,0:3:0:0:
402,192,90940,1,0,0:0:0:0:
256,192,90940,1,0,0:0:0:0:
36,192,91121,1,0,0:0:0:0:
182,192,91212,1,0,0:0:0:0:
329,192,91303,1,0,0:0:0:0:
36,192,91394,1,0,0:0:0:0:
182,192,91485,1,0,0:0:0:0:
329,192,91576,1,0,0:0:0:0:
36,192,91667,1,0,0:0:0:0:
182,192,91758,1,0,0:0:0:0:
329,192,91849,1,0,0:0:0:0:
36,192,91940,1,0,0:0:0:0:
256,192,92030,1,0,0:0:0:0:
402,192,92030,1,0,0:0:0:0:
256,192,92394,1,0,0:0:0:0:
402,192,92394,1,0,0:0:0:0:
109,192,92576,1,0,0:0:0:0:
256,192,92667,1,0,0:0:0:0:
402,192,92758,1,0,0:0:0:0:
109,192,92849,1,0,0:0:0:0:
256,192,92940,1,0,0:0:0:0:
402,192,93030,1,0,0:0:0:0:
109,192,93121,1,0,0:0:0:0:
256,192,93212,1,0,0:0:0:0:
402,192,93303,1,0,0:0:0:0:
109,192,93394,1,0,0:0:0:0:
329,192,93485,1,0,0:0:0:0:
475,192,93485,1,0,0:0:0:0:
329,192,93849,1,0,0:0:0:0:
475,192,93849,1,0,0:0:0:0:
36,192,94030,1,0,0:0:0:0:
182,192,94121,1,0,0:0:0:0:
329,192,94212,1,0,0:0:0:0:
475,192,94303,1,0,0:0:0:0:
36,192,94394,1,0,0:0:0:0:
109,192,94485,1,0,0:0:0:0:
182,192,94576,1,0,0:0:0:0:
256,192,94667,1,0,0:0:0:0:
329,192,94758,1,0,0:0:0:0:
402,192,94849,1,0,0:0:0:0:
475,192,94940,1,0,0:0:0:0:
329,192,94940,1,0,0:0:0:0:
329,192,95303,1,0,0:0:0:0:
475,192,95303,1,0,0:0:0:0:
109,192,95485,1,4,0:3:0:0:
256,192,95485,1,4,0:0:0:0:
109,192,95758,1,4,0:3:0:0:
256,192,95758,1,4,0:0:0:0:
109,192,96030,1,4,0:3:0:0:
256,192,96030,1,4,0:0:0:0:
182,192,96576,1,4,0:0:0:0:
329,192,96576,1,8,0:0:0:0:
36,192,96940,1,0,0:0:0:0:
182,192,97030,1,0,0:0:0:0:
329,192,97121,1,2,0:0:0:0:
109,192,97212,1,0,0:0:0:0:
256,192,97303,1,0,0:0:0:0:
402,192,97394,1,2,0:0:0:0:
36,192,97485,1,0,0:0:0:0:
182,192,97576,1,0,0:0:0:0:
329,192,97667,1,2,0:0:0:0:
109,192,97758,1,0,0:0:0:0:
256,192,97849,1,0,0:0:0:0:
402,192,97940,1,2,0:0:0:0:
182,192,98030,1,0,0:0:0:0:
329,192,98121,1,2,0:0:0:0:
109,192,98212,1,0,0:0:0:0:
256,192,98303,1,2,0:0:0:0:
36,192,98394,1,2,0:0:0:0:
182,192,98485,1,0,0:0:0:0:
182,192,98667,1,0,0:0:0:0:
109,192,98940,1,2,0:0:0:0:
256,192,99030,1,0,0:0:0:0:
256,192,99212,1,0,0:0:0:0:
329,192,99485,1,2,0:0:0:0:
475,192,99667,1,2,0:0:0:0:
36,192,99849,1,0,0:0:0:0:
182,192,99940,1,0,0:0:0:0:
329,192,100030,1,2,0:0:0:0:
109,192,100121,1,0,0:0:0:0:
256,192,100212,1,0,0:0:0:0:
402,192,100303,1,2,0:0:0:0:
36,192,100394,1,0,0:0:0:0:
182,192,100485,1,0,0:0:0:0:
329,192,100576,1,2,0:0:0:0:
109,192,100667,1,0,0:0:0:0:
256,192,100758,1,0,0:0:0:0:
402,192,100849,1,2,0:0:0:0:
182,192,100940,1,0,0:0:0:0:
329,192,101030,1,2,0:0:0:0:
109,192,101121,1,0,0:0:0:0:
256,192,101212,1,2,0:0:0:0:
475,192,101303,1,2,0:0:0:0:
329,192,101394,1,0,0:0:0:0:
182,192,101485,1,0,0:0:0:0:
402,192,101576,1,2,0:0:0:0:
256,192,101667,1,0,0:0:0:0:
109,192,101758,1,0,0:0:0:0:
329,192,101849,1,2,0:0:0:0:
182,192,101940,1,0,0:0:0:0:
36,192,102030,1,0,0:0:0:0:
475,192,102121,1,2,0:0:0:0:
329,192,102212,1,0,0:0:0:0:
182,192,102303,1,0,0:0:0:0:
402,192,102394,1,2,0:0:0:0:
256,192,102485,1,0,0:0:0:0:
475,192,102576,1,2,0:0:0:0:
329,192,102667,1,0,0:0:0:0:
36,192,102758,1,0,0:0:0:0:
182,192,102849,1,0,0:0:0:0:
329,192,102940,1,2,0:0:0:0:
109,192,103030,1,0,0:0:0:0:
256,192,103121,1,0,0:0:0:0:
402,192,103212,1,2,0:0:0:0:
36,192,103303,1,0,0:0:0:0:
182,192,103394,1,0,0:0:0:0:
329,192,103485,1,2,0:0:0:0:
109,192,103576,1,0,0:0:0:0:
256,192,103667,1,0,0:0:0:0:
402,192,103758,1,2,0:0:0:0:
182,192,103849,1,0,0:0:0:0:
329,192,103940,1,2,0:0:0:0:
109,192,104030,1,0,0:0:0:0:
256,192,104121,1,2,0:0:0:0:
36,192,104212,1,2,0:0:0:0:
182,192,104303,1,0,0:0:0:0:
182,192,104485,1,0,0:0:0:0:
109,192,104758,1,2,0:0:0:0:
256,192,104849,1,0,0:0:0:0:
256,192,105030,1,0,0:0:0:0:
329,192,105303,1,2,0:0:0:0:
475,192,105485,1,2,0:0:0:0:
36,192,105667,1,0,0:0:0:0:
182,192,105758,1,0,0:0:0:0:
329,192,105849,1,2,0:0:0:0:
109,192,105940,1,0,0:0:0:0:
256,192,106030,1,0,0:0:0:0:
402,192,106121,1,2,0:0:0:0:
36,192,106212,1,0,0:0:0:0:
182,192,106303,1,0,0:0:0:0:
329,192,106394,1,2,0:0:0:0:
109,192,106485,1,0,0:0:0:0:
256,192,106576,1,0,0:0:0:0:
402,192,106667,1,2,0:0:0:0:
36,192,106758,1,0,0:0:0:0:
182,192,106849,1,2,0:0:0:0:
109,192,106940,1,0,0:0:0:0:
256,192,107030,1,2,0:0:0:0:
109,192,107121,1,0,0:0:0:0:
329,192,107121,1,0,0:0:0:0:
402,192,107212,1,0,0:0:0:0:
182,192,107212,1,0,0:0:0:0:
402,192,107394,1,0,0:0:0:0:
182,192,107394,1,0,0:0:0:0:
475,192,107667,1,0,0:0:0:0:
256,192,107667,1,0,0:0:0:0:
36,192,108030,1,0,0:0:0:0:
329,192,108030,1,0,0:0:0:0:
109,192,108212,1,0,0:0:0:0:
402,192,108212,1,0,0:0:0:0:
475,192,108394,1,0,0:0:0:0:
182,192,108394,1,0,0:0:0:0:
182,192,108576,1,4,0:0:0:0:
36,192,108576,1,4,0:3:0:0:
329,192,108576,1,2,0:0:0:0:
475,192,108576,1,0,0:0:0:0:
