osu file format v6

[General]
AudioFilename: Heatstroke.mp3
AudioLeadIn: 0
PreviewTime: 70071
Countdown: 1
SampleSet: Soft
StackLeniency: 0.7
Mode: 0
LetterboxInBreaks: 1

[Editor]
DistanceSpacing: 0.800000011920929
BeatDivisor: 4
GridSize: 8

[Metadata]
Title:Heatstroke
Artist:TAG feat. Angie Lee
Creator:ouranhshc
Version:Warm
Source:Dance Dance Revolution
Tags:TAG heatstroke angie lee matma rex strager

[Difficulty]
HPDrainRate:5
CircleSize:4
OverallDifficulty:5
SliderMultiplier:1.2
SliderTickRate:1

[Events]
//Background and Video events
0,0,"Heatstroke-bg.png"
//Break Periods
2,19212,20919
2,28640,34633
2,40105,41490
2,48033,48347
2,53497,54990
//Storyboard Layer 0 (Background)
//Storyboard Layer 1 (Fail)
//Storyboard Layer 2 (Pass)
//Storyboard Layer 3 (Foreground)
//Storyboard Sound Samples
//Background Colour Transformations
3,100,0,0,0

[TimingPoints]
1548,428.571428571429,4,2,0,100,1,0
68591,-100,4,2,0,71,0,0
69341,-100,4,2,0,100,0,0
70099,-100,4,1,0,100,0,1
83619,-100,4,1,0,100,0,0
84361,-100,4,2,0,100,0,0
97742,-100,4,2,0,0,0,0

[Colours]
Combo1 : 255,182,72
Combo2 : 131,252,131
Combo3 : 168,168,253
Combo4 : 241,245,156

[HitObjects]
240,272,8405,1,0
240,224,8619,1,0
240,176,8833,1,8
240,80,9262,2,2,B|296:32|352:88,1,120
352,176,10119,5,0
352,224,10333,1,0
352,272,10547,1,8
256,272,10976,2,2,B|192:312|136:264,1,120
88,192,11833,5,0
88,144,12047,1,0
88,96,12262,1,8
184,96,12690,2,2,B|240:64|304:96,1,120
296,192,13547,5,0
296,240,13762,1,0
296,288,13976,1,8
392,288,14405,2,2,B|448:320|496:240,1,120
488,152,15262,6,0,B|464:96|416:48|328:80|352:128|376:128|392:112|400:96|400:72|384:56|360:40|288:40|240:40|200:48,1,360,0|6
120,40,16976,2,0,B|64:64|32:120|32:152|56:160|72:160|88:136|88:120|72:104|40:112|16:136|0:168|8:208|32:216|56:216|80:200|80:184|72:168|64:160|48:160|32:184|24:200|24:216|40:272,1,360,0|4
128,296,18690,1,8
128,296,19012,1,8
256,56,22119,5,0
256,152,22548,1,0
327,152,22869,1,2
327,152,23083,1,2
327,152,23298,1,2
327,271,23833,5,0
231,271,24262,1,0
159,271,24583,1,2
159,271,24798,1,2
159,271,25012,1,2
159,151,25548,5,0
160,56,25976,1,0
232,56,26298,1,2
232,56,26512,1,2
232,56,26726,1,2
352,56,27262,5,0
352,151,27690,1,0
352,224,28012,1,2
352,224,28226,1,2
352,224,28440,1,2
256,192,35833,5,0
256,120,36155,1,0
256,48,36476,1,0
480,112,37548,5,0
480,208,37976,1,0
384,208,38405,2,0,B|352:264|280:232|240:224|216:264|224:304|240:328|264:344,1,240,0|2
328,336,39583,1,8
400,336,39905,1,8
48,48,42690,5,0
115,115,43119,1,8
48,183,43548,1,0
115,251,43976,1,8
183,183,44405,1,0
217,149,44619,1,0
251,115,44833,1,8
319,183,45262,1,0
251,251,45690,2,2,B|227:307|147:315,1,120
88,246,46547,5,0
88,150,46976,1,0
184,150,47405,1,0
184,54,47833,1,0
424,80,49547,6,0,B|424:144,1,60
424,184,49976,2,2,B|424:216|424:240|408:280|280:296|240:192,1,240,10|2
248,168,51047,6,0,B|248:104,1,60,0|10
248,56,51476,2,0,B|192:32,1,60
144,32,51905,2,0,B|72:32|32:96|24:152,1,180
24,146,52762,1,0
24,146,52976,1,8
40,216,53297,1,4
256,320,56190,6,0,B|256:256,1,60
256,160,56833,1,0
352,160,57262,1,2
352,160,57476,1,2
352,160,57690,1,8
352,64,58119,5,0
256,64,58547,1,0
160,64,58976,1,2
160,64,59190,1,2
160,64,59405,1,8
256,192,59619,12,0,61547
352,192,62405,5,0
448,192,62833,1,0
400,104,63262,1,0
304,104,63690,1,0
240,176,64119,1,2
240,176,64333,1,2
240,176,64547,5,8
240,272,64976,1,0
144,272,65405,1,0
96,184,65833,2,0,B|80:120|96:96|128:88|144:112|128:120|112:128|96:112|96:112|88:88|96:64|160:32,1,240
249,35,67119,6,0,B|313:35|369:59|369:91|353:83|345:67|361:51|401:27|441:43|449:59|449:83|433:99|409:115|385:131|369:139|369:131|385:115|401:147|409:171|401:211|385:243,1,360
319,229,68726,1,4
246,229,69047,1,4
246,229,69262,1,4
151,229,69690,5,12
248,160,70119,5,2
248,112,70333,1,2
248,64,70547,1,2
344,64,70976,2,0,B|400:88|416:128|392:152|368:160|344:184|344:216|368:232|400:240|416:264,1,240
312,280,72262,1,0
216,280,72690,5,2
168,280,72905,1,2
120,280,73119,1,2
48,216,73547,2,2,B|48:88,1,120
144,88,74405,2,2,B|272:88,1,120
360,88,75262,1,8
360,184,75690,1,8
264,184,76119,1,8
264,280,76547,1,8
168,280,76976,1,4
72,280,77405,5,2
72,280,77619,1,0
72,280,77833,1,2
72,184,78262,1,0
72,88,78690,2,0,B|120:40|184:40,1,120,2|4
272,40,79547,1,2
272,40,79762,1,2
272,40,79976,1,2
272,136,80405,5,4
344,136,80726,1,4
416,136,81047,1,12
416,232,81476,1,8
416,328,81905,1,8
320,328,82333,1,8
224,328,82762,1,8
128,328,83190,2,0,B|64:312|80:264|128:240|160:224|184:208,1,180,0|4
272,184,84262,1,0
272,184,84476,6,0,B|336:184|392:160|392:80|376:32|336:24|280:8|288:48|248:16|232:48,1,300
80,104,86190,5,0
80,104,86405,1,0
80,200,86762,1,0
256,192,87047,12,0,88976
256,184,89619,5,0
256,184,89833,1,0
352,184,90190,1,0
256,192,90476,12,0,93262
256,192,94119,5,2
256,192,94333,1,2
256,192,94547,1,10
256,96,94976,2,8,B|328:80|352:136|352:176,1,120
256,192,95833,5,2
256,192,96047,1,2
256,192,96262,1,10
256,288,96690,2,8,B|184:304|160:248|160:208,1,120,8|12
256,192,97547,12,0,100119
