osu file format v10

[General]
AudioFilename: 02 Theory of Eternity.mp3
AudioLeadIn: 2000
PreviewTime: 48857
Countdown: 0
SampleSet: Normal
StackLeniency: 0.7
Mode: 0
LetterboxInBreaks: 0

[Editor]
Bookmarks: 69184
DistanceSpacing: 1.1
BeatDivisor: 4
GridSize: 32

[Metadata]
Title:Theory of Eternity
TitleUnicode:Theory of Eternity
Artist:TAG
ArtistUnicode:TAG
Creator:DarknessAngel
Version:Standard
Source:jubeat
Tags:knit
BeatmapID:181141
BeatmapSetID:60562

[Difficulty]
HPDrainRate:4
CircleSize:4
OverallDifficulty:5
ApproachRate:5
SliderMultiplier:1.3
SliderTickRate:2

[Events]
//Background and Video events
0,0,"BG.jpg"
//Break Periods
//Storyboard Layer 0 (Background)
//Storyboard Layer 1 (Fail)
//Storyboard Layer 2 (Pass)
//Storyboard Layer 3 (Foreground)
//Storyboard Sound Samples
//Background Colour Transformations
3,100,163,162,255

[TimingPoints]
920,375,4,2,1,50,1,0
11420,-100,4,1,1,60,0,0
12920,-100,4,1,0,45,0,1
13013,-100,4,1,0,45,0,0
18920,-100,4,2,0,60,0,0
19013,-100,4,1,0,45,0,0
20420,-100,4,2,0,60,0,0
20795,-100,4,1,0,45,0,0
21920,-100,4,2,0,60,0,0
22295,-100,4,1,0,45,0,0
22670,-100,4,2,0,60,0,0
22857,-100,4,1,0,45,0,0
23420,-100,4,2,0,60,0,0
23513,-100,4,1,0,45,0,0
24920,-100,4,2,0,60,0,0
25107,-100,4,1,0,45,0,0
29982,-100,4,1,1,45,0,0
32982,-100,4,1,0,45,0,0
36357,-100,4,1,1,45,0,0
36920,-100,4,2,1,60,0,0
37107,-100,4,1,1,45,0,0
39170,-100,4,1,0,45,0,0
42920,-100,4,2,0,60,0,0
43013,-100,4,1,0,45,0,0
48920,-100,4,1,0,45,0,1
49013,-100,4,1,0,45,0,0
54920,-100,4,1,0,60,0,1
55013,-100,4,1,0,45,0,0
56420,-100,4,1,0,60,0,1
56513,-100,4,1,0,45,0,0
57920,-100,4,1,0,60,0,1
58013,-100,4,1,0,45,0,0
58670,-100,4,1,0,60,0,0
58763,-100,4,1,0,45,0,0
59420,-100,4,1,0,60,0,1
59513,-100,4,1,0,50,0,0
60920,-100,4,1,1,45,0,1
71420,-100,4,1,0,60,0,0
72920,-100,4,1,0,50,0,1
73013,-100,4,1,1,35,0,0
78920,-100,4,2,0,50,0,0
79013,-100,4,1,1,35,0,0
83420,-100,4,2,0,70,0,0
84920,-100,4,1,0,40,0,0
90920,-100,4,1,0,60,0,1
91013,-100,4,1,0,40,0,0
92420,-100,4,1,0,60,0,1
92513,-100,4,1,0,40,0,0
93920,-100,4,1,0,60,0,1
94013,-100,4,1,0,60,0,0
94295,-100,4,1,0,40,0,0
94670,-100,4,1,0,60,0,0
95045,-100,4,1,0,40,0,0
95420,-100,4,1,0,45,0,1
95513,-100,4,1,0,45,0,0
97295,-100,4,1,0,60,0,1
97482,-100,4,1,1,45,0,1
105920,-100,4,1,1,50,0,1
107420,-100,4,1,0,60,0,0
110982,-100,4,1,0,70,0,1
111076,-100,4,1,0,35,0,1
112670,-100,4,2,0,20,0,0

[Colours]
Combo1 : 0,113,225
Combo2 : 47,249,239
Combo3 : 231,231,254
Combo4 : 109,109,184

[HitObjects]
52,112,920,6,0,B|116:88|180:88,1,130,4|0,0:0|0:0,0:0:0
244,120,1482,1,2,0:0:0
388,120,1857,2,0,B|412:88|416:56,2,65,0|0|2,0:0|0:0|0:0,0:0:0
300,232,2607,6,0,B|280:264|248:280,2,65,0|0|2,0:0|0:0|0:0,0:0:0
344,176,3170,1,0,0:0:0
292,127,3357,2,0,B|272:95|240:79,2,65,2|0|2,0:0|0:0|0:0,0:0:0
396,224,4107,6,0,B|444:276|508:296,1,130,0|2,0:0|0:0,0:0:0
320,304,4857,2,0,B|252:292|188:304,1,130,0|2,0:0|0:0,0:0:0
116,224,5607,6,0,B|68:276|4:296,1,130,0|2,0:0|0:0,0:0:0
0,224,6170,1,0,0:0:0
8,152,6357,2,0,B|44:156|60:188,2,65,2|0|2,0:0|0:0|0:0,0:0:0
132,80,7107,5,0,0:0:0
132,80,7295,1,0,0:0:0
132,80,7482,1,2,0:0:0
256,152,7857,1,0,0:0:0
256,152,8045,1,0,0:0:0
256,152,8232,1,2,0:0:0
380,80,8607,6,0,B|420:144,1,65
348,160,8982,2,0,B|388:224,1,65,2|0,0:0|0:0,0:0:0
316,244,9357,2,0,B|356:308,1,65,2|0,0:0|0:0,0:0:0
284,324,9732,1,2,0:0:0
256,192,9920,12,0,11420,0:0:0
384,88,12357,6,0,B|416:108|448:108,2,65
320,52,12920,6,0,B|256:40|188:52,1,130,4|4,0:0|0:0,0:0:0
84,148,13670,1,0,0:0:0
152,172,13857,2,0,B|216:184|284:172,1,130
348,144,14420,5,0,0:0:0
480,196,14795,2,0,B|488:232|484:264,1,65
356,316,15357,2,0,B|388:332|420:336,2,65
292,284,15920,5,0,0:0:0
164,224,16295,1,0,0:0:0
284,144,16670,1,0,0:0:0
220,112,16857,2,0,B|152:92|84:96,1,130
24,124,17420,5,0,0:0:0
128,24,17795,1,0,0:0:0
128,24,17982,1,0,0:0:0
268,48,18357,1,0,0:0:0
328,84,18545,2,0,B|364:100|388:104,2,65,0|0|4,0:0|0:0|0:0,0:0:0
208,164,19295,5,0,0:0:0
316,260,19670,1,0,0:0:0
316,260,19857,2,0,B|376:243|444:255,1,130
496,304,20420,5,4,0:0:0
428,180,20795,2,0,B|456:160|488:156,1,65
376,68,21357,2,0,B|340:84|312:88,1,65
244,92,21732,2,0,B|204:88|172:92,1,65,0|4,0:0|0:0,0:0:0
60,172,22295,5,0,0:0:0
192,232,22670,1,4,0:0:0
192,232,22857,1,0,0:0:0
76,316,23232,1,0,0:0:0
144,340,23420,6,0,B|208:360|276:344,1,130,4|0,0:0|0:0,0:0:0
340,320,23982,1,0,0:0:0
424,204,24357,2,0,B|460:208|480:232,2,65
356,176,24920,5,4,0:0:0
288,160,25107,1,0,0:0:0
232,205,25295,2,0,P|206:224|170:223,1,65
136,162,25670,2,0,P|105:200|105:247,2,97.5
244,60,26607,2,0,B|312:76|372:56,1,130
436,92,27170,6,2,B|384:136|376:204|420:268,1,195
292,328,28107,6,0,B|260:344|228:348,1,65
100,292,28670,1,0,0:0:0
144,236,28857,2,0,B|168:212,2,32.5
72,224,29232,2,0,B|40:160|56:88,1,130
188,48,29982,5,0,0:0:0
188,48,30170,1,2,0:0:0
284,152,30545,1,0,0:0:0
284,152,30732,1,2,0:0:0
388,56,31107,5,0,0:0:0
428,116,31295,2,0,B|456:180|440:248,1,130
436,316,31857,2,0,B|476:328,2,32.5
368,292,32232,2,0,B|300:276|236:296,1,130
96,284,32982,6,0,B|80:316|52:336,2,65,0|2|0,0:0|0:0|0:0,0:0:0
136,224,33545,1,0,0:0:0
64,220,33732,1,2,0:0:0
208,216,34107,5,0,0:0:0
208,216,34295,1,0,0:0:0
164,80,34670,2,0,B|228:56|300:56,1,130
364,68,35232,2,0,B|432:80|492:64,1,130
228,172,36357,2,0,B|192:176|168:196,2,65,2|0|2,0:0|0:0|0:0,0:0:0
300,168,36920,6,0,B|336:176|368:176,1,65,4|0,0:0|0:0,0:0:0
436,160,37295,2,0,B|464:224|444:288,1,130
408,348,37857,2,0,B|436:368,2,32.5
340,320,38232,2,0,B|276:304|212:316,1,130
144,344,38795,1,0,0:0:0
88,212,39170,6,0,B|56:232|44:264,2,65,2|0|2,0:0|0:0|0:0,0:0:0
148,172,39732,1,0,0:0:0
248,68,40107,5,0,0:0:0
180,48,40295,2,0,B|112:36|52:52,2,130
248,68,41232,2,0,B|316:80|376:64,1,130
456,184,41982,6,0,B|432:208|400:216,1,65,0|2,0:0|0:0,0:0:0
344,172,42357,2,0,B|368:148|400:140,2,65,0|2|0,0:0|0:0|0:0,0:0:0
292,232,42920,6,0,B|264:264|240:276,2,65,4|0|0,0:0|0:0|0:0,0:0:0
208,116,43670,1,0,0:0:0
156,68,43857,2,0,B|124:44,2,32.5
136,136,44232,2,0,B|96:192|40:220,1,130
8,156,44795,1,0,0:0:0
92,272,45170,6,2,B|176:332|276:336,1,195,2|0,0:0|0:0,0:0:0
256,192,46107,6,0,B|224:172|192:168,1,65
76,92,46670,2,0,B|144:112|212:92,1,130
272,76,47232,2,0,B|332:56|400:68,1,130
256,228,48170,5,0,0:0:0
256,228,48545,1,0,0:0:0
325,352,48920,6,0,B|385:324|421:260|413:188,2,195,4|2|2,0:0|0:0|0:0,0:0:0
181,352,50420,6,0,B|121:324|85:260|93:188,2,195,0|2|2,0:0|0:0|0:0,0:0:0
256,232,51920,6,0,B|256:36,2,195,0|2|2,0:0|0:0|0:0,0:0:0
356,332,53420,6,0,B|412:288|428:220,1,130,2|0,0:0|0:0,0:0:0
428,156,53982,2,2,B|413:93|357:49,1,130,2|2,0:0|0:0,0:0:0
288,28,54545,1,2,0:0:0
156,84,54920,5,4,0:0:0
44,172,55295,1,0,0:0:0
176,224,55670,1,0,0:0:0
64,312,56045,1,2,0:0:0
176,224,56420,6,0,B|240:208|304:220,1,130,4|0,0:0|0:0,0:0:0
408,320,57170,2,0,B|344:336|280:324,1,130,0|2,0:0|0:0,0:0:0
176,224,57920,6,0,B|156:152|176:88,1,130,4|2,0:0|0:0,0:0:0
338,95,58670,2,0,B|356:152|336:224,1,130,4|2,0:0|0:0,0:0:0
256,340,59420,6,0,P|257:144,2,195,4|4|4,0:0|0:0|0:0,0:0:0
396,320,60920,6,0,B|424:296|436:268,1,65,12|2,0:0|0:0,0:0:0
444,200,61295,2,0,B|444:128|408:72,2,130,2|0|0,0:0|0:0|0:0,0:0:0
376,228,62232,1,2,0:0:0
308,248,62420,6,0,B|240:260|180:240,1,130,2|0,0:0|0:0,0:0:0
44,188,63170,2,0,B|23:248|35:316,1,130
96,356,63732,1,2,0:0:0
164,336,63920,6,0,B|148:300|120:288,2,65,2|0|0,0:0|0:0|0:0,0:0:0
308,340,64670,2,0,B|352:284|352:216,1,130
364,148,65232,1,2,0:0:0
328,84,65420,6,0,B|272:48|200:52,2,130,2|0|0,0:0|0:0|0:0,0:0:0
364,148,66357,2,0,B|392:124|400:96,2,65,2|0|2,0:0|0:0|0:0,0:0:0
308,192,66920,6,0,B|248:224|180:216,1,130,4|0,0:0|0:0,0:0:0
124,176,67482,1,2,0:0:0
60,204,67670,2,0,B|52:269|84:329,1,130,0|0,0:0|0:0,0:0:0
152,348,68232,1,2,0:0:0
216,316,68420,6,0,B|280:296|344:308,1,130,2|0,0:0|0:0,0:0:0
452,216,69170,2,0,B|388:236|324:224,1,130,2|0,0:0|0:0,0:0:0
264,184,69732,1,2,0:0:0
244,116,69920,6,0,B|260:84|292:72,1,65,2|0,0:0|0:0,0:0:0
360,88,70295,2,0,B|347:121|316:136,1,65,0|0,0:0|0:0,0:0:0
264,184,70670,2,0,B|208:224|140:224,1,130,2|0,0:0|0:0,0:0:0
84,48,71420,2,0,P|40:136|56:228,2,195,6|2|2,0:0|0:0|0:0,0:0:0
224,20,72920,5,4,0:0:0
124,288,73670,2,0,B|96:328|44:352,2,97.5,2|0|2,0:0|0:0|0:0,0:0:0
304,172,74795,5,8,0:0:0
388,288,75170,2,0,B|416:328|468:352,2,97.5,2|0|2,0:0|0:0|0:0,0:0:0
208,172,76295,5,8,0:0:0
124,288,76670,2,0,B|96:328|44:352,2,97.5,2|0|2,0:0|0:0|0:0,0:0:0
256,120,77795,5,8,0:0:0
256,264,78170,2,0,B|256:364,2,97.5,2|0|2,0:0|0:0|0:0,0:0:0
304,208,78920,6,0,B|372:224|432:196,1,130,4|8,0:0|0:0,0:0:0
340,88,79670,2,0,B|376:52|424:40,2,97.5,2|2|2,0:0|0:0|0:0,0:0:0
204,136,80607,6,0,B|172:156|144:152,2,65,0|8|0,0:0|0:0|0:0,0:0:0
276,132,81170,2,0,B|304:172|304:224,2,97.5,2|2|2,0:0|0:0|0:0,0:0:0
256,192,81920,12,6,83420,0:0:0
164,111,84920,6,0,B|220:71|296:71|347:107,2,195,4|2|2,0:0|0:0|0:0,0:0:0
171,253,86420,6,0,B|131:313|75:345,1,130,2|0,0:0|0:0,0:0:0
32,289,86982,2,0,B|72:229|128:197,1,130,2|0,0:0|0:0,0:0:0
191,181,87545,1,2,0:0:0
341,253,87920,6,0,B|381:313|437:345,1,130,2|0,0:0|0:0,0:0:0
480,289,88482,2,0,B|440:229|384:197,1,130,2|0,0:0|0:0,0:0:0
321,181,89045,1,2,0:0:0
184,140,89420,6,0,B|117:146|57:117,1,130,2|0,0:0|0:0,0:0:0
32,48,89982,2,0,B|135:36|221:76,1,195,2|2,0:0|0:0,0:0:0
256,264,90920,5,4,0:0:0
156,368,91295,1,0,0:0:0
60,260,91670,1,0,0:0:0
160,160,92045,1,2,0:0:0
256,264,92420,5,4,0:0:0
356,368,92795,1,0,0:0:0
452,260,93170,1,0,0:0:0
352,160,93545,1,2,0:0:0
256,264,93920,6,0,B|256:332,2,65,4|0|2,0:0|0:0|0:0,0:0:0
256,120,94670,2,0,B|256:56,2,65,4|0|2,0:0|0:0|0:0,0:0:0
256,192,95420,12,0,96920,0:0:0
336,104,97295,6,0,B|372:88|400:88,1,65,12|2,0:0|0:0,0:0:0
448,140,97670,2,0,B|396:184|324:176,1,130
256,160,98232,6,0,B|224:152|192:152,2,65,2|2|0,0:0|0:0|0:0,0:0:0
276,228,98795,1,0,0:0:0
244,292,98982,1,0,0:0:0
184,332,99170,2,0,B|120:312|52:328,1,130
40,256,99732,1,2,0:0:0
64,188,99920,6,0,B|80:152|76:120,1,65,2|0,0:0|0:0,0:0:0
84,52,100295,2,0,B|148:76|212:64,1,130
284,56,100857,1,0,0:0:0
356,72,101045,1,0,0:0:0
404,124,101232,1,2,0:0:0
416,196,101420,6,0,B|404:264|356:308,1,130,2|0,0:0|0:0,0:0:0
212,292,102170,2,0,B|148:272|84:284,1,130,2|2,0:0|0:0,0:0:0
44,148,102920,5,4,0:0:0
104,108,103107,1,2,0:0:0
172,128,103295,2,0,B|240:132|296:84,1,130,2|0,0:0|0:0,0:0:0
360,68,103857,2,0,B|392:72|420:92,1,65
452,156,104232,1,2,0:0:0
468,224,104420,6,0,B|436:284|376:312,1,130,2|0,0:0|0:0,0:0:0
252,240,105170,2,0,B|260:204|284:180,2,65
260,312,105732,1,2,0:0:0
260,312,105920,6,0,B|192:296|128:308,1,130,2|0,0:0|0:0,0:0:0
28,208,106670,2,0,B|96:224|160:212,1,130,0|0,0:0|0:0,0:0:0
256,108,107420,6,0,B|212:88|160:92,2,97.5,6|2|2,0:0|0:0|0:0,0:0:0
352,156,108263,2,0,B|376:200|372:252,1,97.5,2|2,0:0|0:0,0:0:0
340,316,108732,1,2,0:0:0
256,108,109107,6,0,B|212:172,1,65,2|4,0:0|0:0,0:0:0
176,324,109670,6,0,B|220:260,1,65,2|4,0:0|0:0,0:0:0
344,160,110232,6,0,B|300:224,1,65,2|4,0:0|0:0,0:0:0
264,376,110795,6,0,B|308:312,1,65,2|4,0:0|0:0,0:0:0
256,192,111076,12,0,112670,0:0:0
