osu file format v10

[General]
AudioFilename: 02 Theory of Eternity.mp3
AudioLeadIn: 2000
PreviewTime: 48857
Countdown: 0
SampleSet: Normal
StackLeniency: 0.7
Mode: 0
LetterboxInBreaks: 0

[Editor]
DistanceSpacing: 2
BeatDivisor: 4
GridSize: 32

[Metadata]
Title:Theory of Eternity
TitleUnicode:Theory of Eternity
Artist:TAG
ArtistUnicode:TAG
Creator:DarknessAngel
Version:Extreme
Source:jubeat
Tags:knit
BeatmapID:181041
BeatmapSetID:60562

[Difficulty]
HPDrainRate:7
CircleSize:4
OverallDifficulty:7
ApproachRate:8
SliderMultiplier:1.8
SliderTickRate:2

[Events]
//Background and Video events
0,0,"BG.jpg"
//Break Periods
//Storyboard Layer 0 (Background)
//Storyboard Layer 1 (Fail)
//Storyboard Layer 2 (Pass)
//Storyboard Layer 3 (Foreground)
//Storyboard Sound Samples
//Background Colour Transformations
3,100,163,162,255

[TimingPoints]
920,375,4,2,1,50,1,0
9920,-100,4,1,0,30,0,0
11420,-100,4,1,0,60,0,0
11795,-100,4,1,0,45,0,0
12920,-100,4,1,0,45,0,1
13013,-100,4,1,0,45,0,0
18920,-100,4,2,0,65,0,0
19107,-100,4,1,0,45,0,0
20420,-100,4,2,0,60,0,0
20607,-100,4,1,0,45,0,0
21920,-100,4,2,0,60,0,0
22107,-100,4,1,0,45,0,0
22670,-100,4,2,0,60,0,0
22857,-100,4,1,0,45,0,0
23420,-100,4,2,0,60,0,0
23795,-100,4,1,0,45,0,0
24920,-100,4,2,0,60,0,0
25013,-100,4,1,0,45,0,0
28107,-100,4,1,1,45,0,0
30920,-100,4,2,0,60,0,0
31013,-100,4,1,0,45,0,0
34107,-100,4,1,1,45,0,0
35607,-100,4,1,1,38,0,0
36920,-100,4,2,0,60,0,0
37013,-100,4,1,0,45,0,0
47420,-100,4,2,0,60,0,0
47607,-100,4,1,0,45,0,0
48920,-100,4,1,0,40,0,1
49013,-100,4,1,0,40,0,0
54920,-100,4,1,0,60,0,1
55013,-100,4,1,0,60,0,0
55107,-100,4,1,0,40,0,0
56420,-100,4,1,0,60,0,1
56513,-100,4,1,0,60,0,0
56607,-100,4,1,0,40,0,0
57920,-100,4,1,0,60,0,1
58013,-100,4,1,0,60,0,0
58295,-100,4,1,0,40,0,0
58670,-100,4,1,0,60,0,0
59045,-100,4,1,0,40,0,0
59420,-100,4,1,1,50,0,1
59513,-100,4,1,1,50,0,0
60920,-100,4,1,1,45,0,1
71420,-76.9230769230769,4,1,0,60,0,0
72920,-133.333333333333,4,1,0,50,0,1
73013,-133.333333333333,4,1,1,35,0,0
78920,-133.333333333333,4,2,0,50,0,0
79107,-133.333333333333,4,1,1,35,0,0
82951,-133.333333333333,4,1,1,43,0,0
83420,-133.333333333333,4,2,1,70,0,0
84920,-100,4,1,0,40,0,0
90920,-100,4,1,0,60,0,1
91013,-100,4,1,0,40,0,0
92420,-100,4,1,0,60,0,1
92513,-100,4,1,0,60,0,0
92607,-100,4,1,0,40,0,0
93920,-100,4,1,0,60,0,1
94013,-100,4,1,0,60,0,0
94295,-100,4,1,0,40,0,0
94670,-100,4,1,0,60,0,0
95045,-100,4,1,0,40,0,0
95420,-133.333333333333,4,1,0,45,0,1
95513,-133.333333333333,4,1,0,45,0,0
95701,-100,4,1,0,45,0,0
95982,-76.9230769230769,4,1,0,45,0,0
96263,-58.8235294117647,4,1,0,45,0,0
96545,-50,4,1,1,45,0,0
96920,-83.3333333333333,4,1,1,45,0,0
97295,-50,4,1,1,60,0,1
97670,-83.3333333333333,4,1,1,45,0,1
105920,-83.3333333333333,4,1,1,50,0,1
107420,-133.333333333333,4,1,0,60,0,0
107701,-100,4,1,0,60,0,0
107982,-76.9230769230769,4,1,0,60,0,0
108263,-58.8235294117647,4,1,0,60,0,0
108545,-50,4,1,0,60,0,0
108826,-83.3333333333333,4,1,0,45,0,0
109107,-83.3333333333333,4,1,0,60,0,0
109482,-83.3333333333333,4,1,0,45,0,0
109670,-83.3333333333333,4,1,0,60,0,0
110045,-83.3333333333333,4,1,0,45,0,0
110232,-83.3333333333333,4,1,0,60,0,0
110607,-83.3333333333333,4,1,0,45,0,0
110795,-83.3333333333333,4,1,0,60,0,0
110982,-83.3333333333333,4,1,0,70,0,1
111076,-83.3333333333333,4,1,0,35,0,1
112670,-83.3333333333333,4,2,0,20,0,0

[Colours]
Combo1 : 0,113,225
Combo2 : 47,249,239
Combo3 : 231,231,254
Combo4 : 109,109,184

[HitObjects]
352,96,920,5,4,0:0:0
436,144,1107,2,0,B|456:104|436:48,1,90,0|8,0:0|0:0,0:0:0
352,96,1482,1,2,0:0:0
76,144,1857,2,0,B|56:104|76:48,1,90,0|8,0:0|0:0,0:0:0
160,96,2232,1,2,0:0:0
256,312,2607,5,0,0:0:0
200,229,2795,2,0,B|164:265|156:309,2,90,8|2|0,0:0|0:0|0:0,0:0:0
312,229,3357,2,0,B|348:265|356:309,2,90,2|8|2,0:0|0:0|0:0,0:0:0
200,56,4107,5,0,0:0:0
116,112,4295,1,8,0:0:0
20,100,4482,1,2,0:0:0
20,284,4857,1,0,0:0:0
116,272,5045,1,8,0:0:0
200,328,5232,1,2,0:0:0
344,192,5607,6,0,B|248:192,2,90,0|8|2,0:0|0:0|0:0,0:0:0
408,152,6170,2,0,B|476:92,1,90,0|2,0:0|0:0,0:0:0
408,232,6545,2,0,B|476:292,1,90,8|2,0:0|0:0,0:0:0
384,328,6920,5,4,0:0:0
284,328,7107,1,0,0:0:0
184,316,7295,2,0,B|200:272|200:272|236:236,1,90,8|2,0:0|0:0,0:0:0
284,56,7857,1,0,0:0:0
184,68,8045,2,0,B|200:112|200:112|236:148,1,90,8|2,0:0|0:0,0:0:0
420,104,8607,6,0,B|328:140,1,90,0|8,0:0|0:0,0:0:0
420,192,8982,2,0,B|516:192,1,90,2|0,0:0|0:0,0:0:0
420,280,9357,2,0,B|328:244,1,90,2|8,0:0|0:0,0:0:0
256,192,9732,1,2,0:0:0
160,96,9920,5,0,0:0:0
144,104,10013,1,0,0:0:0
128,116,10107,1,0,0:0:0
116,128,10201,1,0,0:0:0
104,144,10295,1,0,0:0:0
96,160,10388,1,0,0:0:0
88,176,10482,1,0,0:0:0
84,192,10576,1,0,0:0:0
88,208,10670,1,0,0:0:0
96,224,10763,1,0,0:0:0
104,240,10857,1,0,0:0:0
116,256,10951,1,0,0:0:0
128,268,11045,1,0,0:0:0
144,280,11138,1,0,0:0:0
160,288,11232,1,0,0:0:0
256,192,11420,5,0,0:0:0
256,192,11607,1,0,0:0:0
256,192,11701,12,0,12545,0:0:0
448,80,12920,5,4,0:0:0
352,56,13107,1,0,0:0:0
352,56,13201,1,0,0:0:0
352,56,13295,2,0,B|272:96|176:80,1,180,4|0,0:0|0:0,0:0:0
320,200,13857,2,0,B|368:180|416:192,1,90
484,252,14232,1,0,0:0:0
376,352,14420,6,0,B|288:332|192:348,1,180
56,232,14982,2,0,B|144:212|240:228,1,180
204,132,15545,1,0,0:0:0
128,72,15732,2,0,B|80:64|36:72,1,90
352,156,16295,6,0,B|400:164|444:156,1,90
441,156,16576,1,0,0:0:0
441,156,16670,2,0,B|464:112|456:64,1,90
288,72,17045,2,0,B|248:156|292:248,1,180
348,328,17607,5,0,0:0:0
377,226,17795,1,0,0:0:0
187,241,17982,1,0,0:0:0
232,336,18170,1,0,0:0:0
276,176,18357,1,0,0:0:0
276,176,18451,1,0,0:0:0
276,176,18545,2,0,P|288:132|288:88,1,90
180,16,18920,5,4,0:0:0
56,72,19107,1,0,0:0:0
56,72,19201,1,0,0:0:0
56,72,19295,2,0,B|20:160|52:252,1,180
136,300,19857,1,0,0:0:0
136,300,20045,2,0,B|100:336|60:344,1,90
208,208,20420,5,4,0:0:0
308,216,20607,1,0,0:0:0
308,216,20701,1,0,0:0:0
308,216,20795,2,0,B|356:208|388:176,2,90
264,128,21357,2,0,B|224:112|176:120,1,90
76,200,21732,2,0,B|36:236,2,45,0|0|4,0:0|0:0|0:0,0:0:0
184,292,22107,6,0,B|168:324,3,30
328,292,22482,2,0,B|344:324,3,30,0|0|0|4,0:0|0:0|0:0|0:0,0:0:0
424,200,22857,1,0,0:0:0
424,200,22951,1,0,0:0:0
424,200,23045,2,0,B|450:225,3,30
408,104,23420,5,4,0:0:0
104,104,23795,1,0,0:0:0
104,104,23982,1,0,0:0:0
104,104,24357,5,0,0:0:0
256,316,24545,1,0,0:0:0
408,104,24732,1,0,0:0:0
304,64,24920,6,0,B|284:108|296:152,1,90,4|0,0:0|0:0,0:0:0
360,228,25295,2,0,B|404:216|448:228,1,90
344,316,25670,2,0,B|296:304|256:316,1,90
204,312,25951,1,0,0:0:0
160,336,26045,2,0,B|116:344|68:336,1,90
360,228,26607,2,0,B|436:180|468:88,1,180
376,52,27170,5,2,0:0:0
328,52,27263,1,2,0:0:0
280,64,27357,1,0,0:0:0
240,96,27451,1,2,0:0:0
216,140,27545,1,2,0:0:0
208,188,27638,1,0,0:0:0
216,236,27732,1,2,0:0:0
240,280,27826,1,0,0:0:0
448,276,28107,5,0,0:0:0
344,192,28295,2,0,B|344:376,1,180
448,276,28857,1,0,0:0:0
448,276,28951,2,0,B|448:141,1,135
64,96,29607,2,0,B|64:192,1,90
216,184,29982,6,0,B|216:88,1,90,2|2,0:0|0:0,0:0:0
80,288,30357,1,0,0:0:0
216,184,30545,1,0,0:0:0
64,184,30732,1,2,0:0:0
196,288,30920,6,0,B|244:308|288:304,1,90,4|0,0:0|0:0,0:0:0
384,296,31295,2,0,B|444:224|444:120,1,180
316,44,31857,1,0,0:0:0
292,72,31951,1,0,0:0:0
280,108,32045,1,0,0:0:0
304,216,32232,2,0,B|224:264|132:256,1,180
56,192,32795,2,0,B|96:168|144:160,1,90
252,195,33170,5,2,0:0:0
246,246,33263,1,2,0:0:0
224,288,33357,1,0,0:0:0
190,323,33451,1,2,0:0:0
144,344,33545,1,2,0:0:0
93,346,33638,1,0,0:0:0
46,328,33732,1,2,0:0:0
8,300,33826,1,0,0:0:0
76,96,34107,5,0,0:0:0
168,64,34295,2,0,B|260:48|352:60,1,180
468,156,34857,2,0,B|460:200|424:232,1,90
276,276,35232,2,0,B|296:320|348:336,1,90,0|0,0:0|0:0,0:0:0
336,216,35607,5,0,0:0:0
220,152,35795,1,2,0:0:0
328,128,35982,1,2,0:0:0
240,56,36170,1,0,0:0:0
120,136,36357,1,6,0:0:0
40,68,36545,1,0,0:0:0
140,32,36732,1,2,0:0:0
148,240,36920,6,0,B|120:284|80:304,1,90,4|0,0:0|0:0,0:0:0
240,256,37295,2,0,B|332:232|424:236,1,180
348,152,37857,1,0,0:0:0
320,132,37951,1,0,0:0:0
288,120,38045,2,0,B|244:108|196:116,1,90
40,328,38607,2,0,B|8:240|40:144,1,180
104,76,39170,6,0,B|148:60,1,45,2|2,0:0|0:0,0:0:0
216,116,39357,2,0,B|168:136,1,45,0|2,0:0|0:0,0:0:0
156,224,39545,2,0,B|200:208,1,45,2|0,0:0|0:0,0:0:0
268,264,39732,2,0,B|220:284,1,45,2|0,0:0|0:0,0:0:0
456,136,40107,5,0,0:0:0
456,136,40295,2,0,B|476:84|468:36,1,90
320,84,40670,2,0,B|308:136|324:172,1,90
324,172,40951,1,0,0:0:0
324,172,41045,2,0,B|272:164|236:176,1,90
96,336,41607,2,0,P|68:300|52:256,1,90
84,160,41982,6,0,P|128:176,1,45,0|2,0:0|0:0,0:0:0
80,96,42170,2,0,P|120:76,1,45,2|2,0:0|0:0,0:0:0
164,156,42357,2,0,P|208:172,1,45,0|2,0:0|0:0,0:0:0
160,92,42545,2,0,P|200:72,1,45,0|2,0:0|0:0,0:0:0
276,120,42732,2,0,P|228:120,1,45,0|2,0:0|0:0,0:0:0
340,320,43107,6,0,B|392:320|432:292,1,90
425,296,43670,1,0,0:0:0
400,200,43857,1,0,0:0:0
400,200,43951,1,0,0:0:0
400,200,44045,2,0,B|348:200|308:228,1,90
48,64,44607,2,0,B|136:56|220:104,1,180
232,244,45170,6,0,B|200:284,1,45,2|2,0:0|0:0,0:0:0
112,284,45357,2,0,B|144:240,1,45,0|2,0:0|0:0,0:0:0
120,156,45545,2,0,B|88:196,1,45,2|0,0:0|0:0,0:0:0
0,196,45732,2,0,B|32:152,1,45,2|0,0:0|0:0,0:0:0
220,100,46107,5,0,0:0:0
220,100,46295,2,0,B|308:116|400:96,1,180
400,228,46857,1,0,0:0:0
400,228,46951,1,0,0:0:0
400,228,47045,2,0,B|356:212|312:224,1,90
216,252,47420,1,4,0:0:0
140,316,47607,2,0,B|88:304|72:248|84:200|140:180,1,180
256,144,48170,5,0,0:0:0
256,144,48263,1,0,0:0:0
256,144,48357,1,0,0:0:0
256,144,48451,1,0,0:0:0
256,144,48545,1,0,0:0:0
256,144,48638,1,0,0:0:0
256,144,48732,1,0,0:0:0
256,144,48826,1,0,0:0:0
256,144,48920,6,0,B|256:48,1,90,4|2,0:0|0:0,0:0:0
356,68,49295,1,2,0:0:0
368,168,49482,2,0,B|420:156,1,45,0|2,0:0|0:0,0:0:0
296,244,49763,2,0,B|244:256,1,45,2|0,0:0|0:0,0:0:0
376,308,50045,2,0,B|424:296|468:304,1,90,2|2,0:0|0:0,0:0:0
368,168,50420,5,0,0:0:0
220,100,50607,1,2,0:0:0
296,244,50795,1,2,0:0:0
208,200,50982,1,0,0:0:0
208,200,51076,2,0,B|160:196|116:208,1,90,2|2,0:0|0:0,0:0:0
108,256,51357,2,0,B|80:296|32:300,1,90,0|0,0:0|0:0,0:0:0
4,168,51732,1,2,0:0:0
176,48,51920,5,0,0:0:0
40,48,52107,1,2,0:0:0
120,156,52295,1,2,0:0:0
216,140,52482,1,2,0:0:0
216,140,52576,2,0,B|264:128|308:136,1,90,0|2,0:0|0:0,0:0:0
352,156,52857,1,0,0:0:0
380,252,53045,2,2,B|332:264|288:256,1,90,0|2,0:0|0:0,0:0:0
192,240,53420,5,0,0:0:0
156,240,53513,1,2,0:0:0
120,248,53607,1,0,0:0:0
92,268,53701,1,2,0:0:0
72,296,53795,2,0,B|108:324|160:332,1,90
192,332,54076,2,2,B|256:320|332:336,1,135,2|0,0:0|0:0,0:0:0
424,336,54545,2,2,B|448:288|444:236,1,90,0|2,0:0|0:0,0:0:0
384,72,54920,5,6,0:0:0
276,180,55107,1,0,0:0:0
428,152,55295,1,2,0:0:0
288,88,55482,2,0,B|236:72,1,45,0|2,0:0|0:0,0:0:0
152,36,55763,2,0,B|124:84,1,45,2|0,0:0|0:0,0:0:0
92,168,56045,2,0,B|60:184,5,30,2|0|0|0|0|0,0:0|0:0|0:0|0:0|0:0|0:0,0:0:0
64,216,56420,5,6,0:0:0
168,328,56607,1,0,0:0:0
180,176,56795,1,2,0:0:0
88,296,56982,1,0,0:0:0
88,296,57076,2,0,B|120:256|168:252,1,90,2|2,0:0|0:0,0:0:0
212,256,57357,1,0,0:0:0
288,316,57545,2,0,B|272:348,5,30,2|0|0|0|0|0,0:0|0:0|0:0|0:0|0:0|0:0,0:0:0
240,348,57920,5,4,0:0:0
384,292,58107,1,0,0:0:0
308,160,58295,2,0,B|268:160,5,30,2|0|0|0|0|0,0:0|0:0|0:0|0:0|0:0|0:0,0:0:0
256,184,58670,5,4,0:0:0
368,80,58857,1,0,0:0:0
216,52,59045,2,0,B|184:68,5,30,2|0|0|0|0|0,0:0|0:0|0:0|0:0|0:0|0:0,0:0:0
156,60,59420,5,4,0:0:0
88,252,59701,1,4,0:0:0
256,368,59982,1,4,0:0:0
424,252,60263,1,4,0:0:0
356,60,60545,1,4,0:0:0
256,160,60732,5,2,0:0:0
256,160,60826,1,2,0:0:0
256,160,60920,2,0,B|256:248,1,90,4|0,0:0|0:0,0:0:0
328,316,61295,2,0,B|328:224,1,90,2|0,0:0|0:0,0:0:0
160,168,61670,1,0,0:0:0
160,168,61763,2,0,B|116:156|68:160,1,90,2|2,0:0|0:0,0:0:0
72,160,62045,2,0,B|104:116|100:64,1,90
140,48,62326,1,2,0:0:0
188,60,62420,6,0,B|232:76|280:68,1,90,2|0,0:0|0:0,0:0:0
424,200,62795,2,0,B|380:188|336:196,1,90,2|0,0:0|0:0,0:0:0
256,260,63170,1,2,0:0:0
228,284,63263,1,2,0:0:0
192,292,63357,1,0,0:0:0
156,288,63451,1,2,0:0:0
124,272,63545,2,0,B|76:264|32:280,1,90,0|0,0:0|0:0,0:0:0
35,278,63826,1,2,0:0:0
35,278,63920,1,2,0:0:0
104,180,64107,6,0,B|152:160,1,45,2|2,0:0|0:0,0:0:0
168,136,64295,2,0,B|96:72,1,90,0|2,0:0|0:0,0:0:0
256,56,64670,1,0,0:0:0
256,56,64763,2,0,B|256:144,1,90,2|2,0:0|0:0,0:0:0
264,180,65045,2,0,B|304:200|356:192,1,90,0|2,0:0|0:0,0:0:0
384,180,65326,1,2,0:0:0
416,164,65420,6,0,B|464:152|508:164,1,90,2|0,0:0|0:0,0:0:0
360,76,65795,1,2,0:0:0
304,268,65982,2,0,B|296:312|320:360,1,90,2|0,0:0|0:0,0:0:0
317,355,66263,2,0,B|264:340|224:352,1,90,2|0,0:0|0:0,0:0:0
196,364,66545,1,2,0:0:0
304,268,66732,1,2,0:0:0
208,148,66920,6,0,B|160:160|108:144,1,90,4|2,0:0|0:0,0:0:0
118,147,67201,1,0,0:0:0
118,147,67295,2,0,B|68:140|24:152,1,90,2|0,0:0|0:0,0:0:0
216,268,67670,1,2,0:0:0
216,268,67763,2,0,B|264:256|316:272,1,90,2|2,0:0|0:0,0:0:0
336,288,68045,1,0,0:0:0
368,300,68138,1,2,0:0:0
404,304,68232,1,2,0:0:0
440,296,68326,1,0,0:0:0
472,276,68420,6,0,B|496:232|488:188,1,90,2|0,0:0|0:0,0:0:0
416,48,68795,2,0,B|392:92|400:136,1,90,2|0,0:0|0:0,0:0:0
304,208,69170,1,2,0:0:0
304,208,69263,2,0,B|288:120,1,90,2|2,0:0|0:0,0:0:0
268,88,69545,2,0,B|176:64,1,90
144,64,69826,1,2,0:0:0
108,76,69920,1,2,0:0:0
28,196,70107,6,0,B|120:220,1,90,2|0,0:0|0:0,0:0:0
304,312,70482,2,0,B|212:336,1,90,2|2,0:0|0:0,0:0:0
184,344,70763,1,2,0:0:0
148,336,70857,2,0,B|103:321|51:325,1,90,0|0,0:0|0:0,0:0:0
28,308,71138,1,2,0:0:0
24,272,71232,1,2,0:0:0
52,252,71326,1,0,0:0:0
88,252,71420,6,2,B|148:256|208:228,1,116.999994644165,6|0,0:0|0:0,0:0:0
280,212,71701,2,2,B|296:152|284:96,1,116.999994644165,2|0,0:0|0:0,0:0:0
220,44,71982,2,2,B|204:104|216:160,1,116.999994644165,2|0,0:0|0:0,0:0:0
292,212,72263,2,2,B|308:152|296:96,1,116.999994644165,2|0,0:0|0:0,0:0:0
284,40,72545,5,2,0:0:0
108,136,72732,1,2,0:0:0
108,136,72920,6,0,B|76:200|16:232,1,135.000005149842,4|8,0:0|0:0,0:0:0
208,308,73670,2,0,B|244:344|300:352,2,101.250003862381,2|0|2,0:0|0:0|0:0,0:0:0
208,308,74607,5,0,0:0:0
328,248,74795,1,8,0:0:0
328,248,75170,6,0,B|376:228|416:184,1,101.250003862381,2|0,0:0|0:0,0:0:0
440,152,75545,2,0,B|440:108,3,33.7500012874604,0|0|2|0,0:0|0:0|0:0|0:0,0:0:0
420,76,75920,6,0,B|352:100|288:88,1,135.000005149842,0|8,0:0|0:0,0:0:0
196,64,76482,1,0,0:0:0
168,84,76670,5,2,0:0:0
64,256,76951,1,0,0:0:0
264,264,77232,1,2,0:0:0
264,264,77607,6,0,B|340:256,1,67.5000025749208,0|8,0:0|0:0,0:0:0
220,172,77982,1,0,0:0:0
196,196,78170,5,2,0:0:0
116,384,78451,1,0,0:0:0
316,344,78732,1,2,0:0:0
316,344,78920,6,0,B|240:352,2,67.5000025749208,4|0|8,0:0|0:0|0:0,0:0:0
373,252,79482,1,0,0:0:0
460,302,79670,1,2,0:0:0
460,302,79763,1,0,0:0:0
512,214,79951,1,2,0:0:0
512,214,80045,1,0,0:0:0
424,162,80232,2,0,B|360:146|288:158,1,135.000005149842,2|0,0:0|0:0,0:0:0
204,198,80795,6,0,B|224:230|260:242,1,67.5000025749208,8|0,0:0|0:0,0:0:0
204,322,81170,1,2,0:0:0
204,322,81263,1,0,0:0:0
116,282,81451,1,2,0:0:0
116,282,81545,1,0,0:0:0
92,190,81732,2,0,B|76:122|100:50,1,135.000005149842,2|0,0:0|0:0,0:0:0
192,62,82295,6,0,B|228:70|264:66,1,67.5000025749208
352,58,82670,1,2,0:0:0
396,70,82763,1,2,0:0:0
436,98,82857,1,0,0:0:0
460,138,82951,1,2,0:0:0
468,186,83045,1,2,0:0:0
460,234,83138,1,0,0:0:0
436,274,83232,1,0,0:0:0
396,302,83326,1,2,0:0:0
352,314,83420,1,6,0:0:0
160,80,84920,6,0,B|68:100,1,90,4|2,0:0|0:0,0:0:0
232,184,85295,1,2,0:0:0
320,140,85482,1,0,0:0:0
320,140,85576,2,0,B|368:132|412:140,1,90,2|2,0:0|0:0,0:0:0
452,168,85857,2,0,B|448:216|424:252,1,90,0|2,0:0|0:0,0:0:0
344,308,86232,1,0,0:0:0
220,292,86420,6,0,B|176:280|132:296,1,90,0|2,0:0|0:0,0:0:0
24,156,86795,1,2,0:0:0
100,96,86982,1,2,0:0:0
100,96,87076,1,0,0:0:0
116,192,87263,1,2,0:0:0
192,132,87451,1,2,0:0:0
192,132,87545,1,0,0:0:0
192,132,87732,2,0,B|240:144|280:140,1,90,0|0,0:0|0:0,0:0:0
436,72,88107,5,2,0:0:0
332,48,88295,1,2,0:0:0
372,148,88482,1,2,0:0:0
404,168,88576,1,0,0:0:0
324,224,88763,1,2,0:0:0
412,268,88951,1,2,0:0:0
444,288,89045,1,0,0:0:0
360,340,89232,1,0,0:0:0
268,304,89420,5,2,0:0:0
232,296,89513,1,2,0:0:0
196,296,89607,1,0,0:0:0
160,304,89701,1,2,0:0:0
128,324,89795,2,0,B|88:348|40:344,1,90,2|0,0:0|0:0,0:0:0
40,308,90076,2,2,B|60:252|44:168,1,135,2|0,0:0|0:0,0:0:0
56,76,90545,1,2,0:0:0
88,56,90638,1,2,0:0:0
124,52,90732,1,0,0:0:0
236,120,90920,6,0,B|284:132|332:120,1,90,6|0,0:0|0:0,0:0:0
416,80,91295,2,0,B|456:64|504:64,1,90,2|2,0:0|0:0,0:0:0
496,112,91576,2,0,B|480:152|496:200,1,90,0|2,0:0|0:0,0:0:0
472,244,91857,1,0,0:0:0
388,300,92045,2,0,B|384:328,5,30,2|0|0|0|0|0,0:0|0:0|0:0|0:0|0:0|0:0,0:0:0
352,344,92420,5,6,0:0:0
236,244,92607,1,0,0:0:0
380,196,92795,1,2,0:0:0
316,124,92982,2,0,B|280:92,1,45,2|0,0:0|0:0,0:0:0
200,148,93263,1,2,0:0:0
120,88,93451,1,0,0:0:0
120,88,93545,2,0,B|148:68,5,30,2|0|0|0|0|0,0:0|0:0|0:0|0:0|0:0|0:0,0:0:0
176,64,93920,5,4,0:0:0
52,152,94107,1,0,0:0:0
112,232,94295,2,0,B|140:256,5,30,2|0|0|0|0|0,0:0|0:0|0:0|0:0|0:0|0:0,0:0:0
164,232,94670,5,4,0:0:0
28,296,94857,1,0,0:0:0
112,352,95045,2,0,B|140:328,5,30,2|0|0|0|0|0,0:0|0:0|0:0|0:0|0:0|0:0,0:0:0
180,340,95420,6,0,B|216:356|252:352,1,67.5000025749208,4|0,0:0|0:0,0:0:0
312,344,95701,6,0,B|308:300|268:260,1,90,4|0,0:0|0:0,0:0:0
236,200,95982,6,0,B|292:176|356:176,1,116.999994644165,4|0,0:0|0:0,0:0:0
428,184,96263,6,0,B|412:108|348:52,1,153.000002918243,4|0,0:0|0:0,0:0:0
284,88,96545,6,0,B|200:120|104:104,1,180,4|2,0:0|0:0,0:0:0
68,124,96826,1,2,0:0:0
40,152,96920,2,0,B|12:176,5,35.9999989013672,0|0|0|0|0|0,0:0|0:0|0:0|0:0|0:0|0:0,0:0:0
24,208,97295,6,0,B|80:280|176:300,1,180,12|2,0:0|0:0,0:0:0
344,284,97670,5,0,0:0:0
344,284,97763,2,0,B|404:264|460:272,1,107.999996704102,2|2,0:0|0:0,0:0:0
376,128,98138,1,2,0:0:0
376,128,98232,1,2,0:0:0
376,128,98326,1,0,0:0:0
376,128,98420,6,0,B|328:148|268:136,1,107.999996704102,2|2,0:0|0:0,0:0:0
172,88,98795,1,0,0:0:0
76,140,98982,1,2,0:0:0
120,316,99170,1,2,0:0:0
120,316,99263,2,0,B|176:328|232:308,1,107.999996704102,2|2,0:0|0:0,0:0:0
268,292,99545,1,0,0:0:0
176,220,99732,1,2,0:0:0
132,212,99826,1,2,0:0:0
88,220,99920,6,0,B|40:252|24:304,1,107.999996704102,2|0,0:0|0:0,0:0:0
176,220,100295,2,0,B|208:176|204:112,1,107.999996704102,2|2,0:0|0:0,0:0:0
300,68,100670,1,0,0:0:0
300,68,100763,2,0,B|356:52|412:56,1,107.999996704102,2|2,0:0|0:0,0:0:0
406,55,101045,1,0,0:0:0
406,55,101138,1,2,0:0:0
406,55,101232,1,2,0:0:0
406,55,101326,1,0,0:0:0
406,55,101420,6,0,B|464:76|512:64,1,107.999996704102,0|2,0:0|0:0,0:0:0
388,196,101795,2,0,B|330:175|282:187,1,107.999996704102,2|0,0:0|0:0,0:0:0
72,192,102170,1,2,0:0:0
88,232,102263,2,0,B|146:253|194:241,1,107.999996704102,2|2,0:0|0:0,0:0:0
232,260,102545,2,0,B|212:312|156:336,1,107.999996704102,2|2,0:0|0:0,0:0:0
40,104,102920,6,0,B|88:72|144:68,1,107.999996704102,4|2,0:0|0:0,0:0:0
184,76,103201,1,2,0:0:0
224,88,103295,2,0,B|280:96|332:80,1,107.999996704102,2|2,0:0|0:0,0:0:0
456,200,103670,1,0,0:0:0
412,192,103763,2,0,B|360:184|300:196,1,107.999996704102,2|2,0:0|0:0,0:0:0
264,208,104045,1,0,0:0:0
220,216,104138,1,2,0:0:0
176,220,104232,1,0,0:0:0
132,212,104326,1,2,0:0:0
92,196,104420,6,0,B|68:144|84:88,1,107.999996704102,2|0,0:0|0:0,0:0:0
220,216,104795,2,0,B|235:269|211:321,1,107.999996704102,2|2,0:0|0:0,0:0:0
320,304,105170,1,0,0:0:0
360,284,105263,2,0,B|412:268|480:276,1,107.999996704102,2|2,0:0|0:0,0:0:0
466,274,105545,2,0,B|452:320|404:360,1,107.999996704102
316,212,105920,5,0,0:0:0
412,112,106107,1,0,0:0:0
272,116,106295,1,0,0:0:0
364,12,106482,1,0,0:0:0
224,20,106670,1,0,0:0:0
180,28,106763,1,0,0:0:0
144,52,106857,1,0,0:0:0
120,88,106951,1,0,0:0:0
116,132,107045,2,0,B|120:172,5,35.9999989013672
128,192,107420,6,2,B|140:228|128:264,1,67.5000025749208,6|0,0:0|0:0,0:0:0
76,308,107701,6,2,B|112:344|156:348,1,90,2|0,0:0|0:0,0:0:0
224,332,107982,6,2,B|284:308|344:316,1,116.999994644165,2|0,0:0|0:0,0:0:0
408,324,108263,6,2,B|448:256|436:172,1,153.000002918243,2|0,0:0|0:0,0:0:0
412,108,108545,6,2,B|324:132|232:104,1,180,2|2,0:0|0:0,0:0:0
182,98,108826,1,0,0:0:0
136,80,108920,6,0,B|92:40,2,53.9999983520508,0|0|2,0:0|0:0|0:0,0:0:0
268,192,109295,1,4,0:0:0
108,96,109482,6,0,B|64:56,2,53.9999983520508,0|0|2,0:0|0:0|0:0,0:0:0
252,224,109857,1,4,0:0:0
76,112,110045,6,0,B|32:72,2,53.9999983520508,0|0|2,0:0|0:0|0:0,0:0:0
236,264,110420,1,4,0:0:0
48,132,110607,6,0,B|4:92,2,53.9999983520508,0|0|2,0:0|0:0|0:0,0:0:0
224,300,110982,1,4,0:0:0
256,192,111076,12,0,112670,0:0:0
