osu file format v10

[General]
AudioFilename: 02 Theory of Eternity.mp3
AudioLeadIn: 2000
PreviewTime: 48857
Countdown: 0
SampleSet: Normal
StackLeniency: 0.7
Mode: 0
LetterboxInBreaks: 0

[Editor]
DistanceSpacing: 1.1
BeatDivisor: 4
GridSize: 32

[Metadata]
Title:Theory of Eternity
TitleUnicode:Theory of Eternity
Artist:TAG
ArtistUnicode:TAG
Creator:DarknessAngel
Version:Basic
Source:jubeat
Tags:knit
BeatmapID:181140
BeatmapSetID:60562

[Difficulty]
HPDrainRate:3
CircleSize:3
OverallDifficulty:3
ApproachRate:4
SliderMultiplier:0.8
SliderTickRate:1

[Events]
//Background and Video events
0,0,"BG.jpg"
//Break Periods
//Storyboard Layer 0 (Background)
//Storyboard Layer 1 (Fail)
//Storyboard Layer 2 (Pass)
//Storyboard Layer 3 (Foreground)
//Storyboard Sound Samples
//Background Colour Transformations
3,100,163,162,255

[TimingPoints]
920,375,4,2,1,50,1,0
9920,-100,4,1,1,35,0,0
11420,-100,4,1,1,60,0,0
11513,-100,4,1,1,30,0,0
12170,-100,4,1,1,60,0,0
12920,-100,4,1,0,45,0,1
13013,-100,4,1,0,45,0,0
18920,-100,4,2,0,60,0,0
19295,-100,4,1,0,45,0,0
20420,-100,4,2,0,60,0,0
20795,-100,4,1,0,45,0,0
21920,-100,4,2,0,60,0,0
23795,-100,4,1,0,45,0,0
24920,-100,4,2,0,60,0,0
25013,-100,4,1,0,45,0,0
30170,-100,4,1,1,45,0,0
30920,-100,4,2,0,60,0,0
31013,-100,4,1,0,45,0,0
36170,-100,4,1,1,45,0,0
36920,-100,4,2,0,60,0,0
37013,-100,4,1,0,45,0,0
47420,-100,4,2,0,60,0,0
48170,-100,4,1,0,45,0,0
48920,-100,4,1,0,45,0,1
49013,-100,4,1,0,45,0,0
54920,-100,4,1,0,60,0,1
55013,-100,4,1,0,45,0,0
56420,-100,4,1,0,60,0,1
56513,-100,4,1,0,45,0,0
57920,-100,4,1,0,60,0,1
58013,-100,4,1,0,60,0,0
58295,-100,4,1,0,45,0,0
58670,-100,4,1,0,60,0,0
59045,-100,4,1,0,45,0,0
59420,-100,4,1,0,45,0,1
59513,-100,4,1,0,45,0,0
60920,-100,4,1,1,45,0,1
71420,-100,4,1,0,60,0,0
72920,-100,4,1,0,50,0,1
73013,-100,4,1,1,35,0,0
78920,-100,4,2,1,50,0,0
79013,-100,4,1,1,35,0,0
83420,-100,4,2,1,70,0,0
84920,-100,4,1,0,40,0,0
90920,-100,4,1,0,60,0,1
91013,-100,4,1,0,60,0,0
92420,-100,4,1,0,60,0,1
92513,-100,4,1,0,60,0,0
93920,-100,4,1,0,60,0,1
94013,-100,4,1,0,60,0,0
94295,-100,4,1,0,40,0,0
94670,-100,4,1,0,60,0,0
95045,-100,4,1,0,40,0,0
95420,-100,4,1,0,50,0,1
95513,-100,4,1,0,50,0,0
97295,-100,4,1,0,60,0,1
97388,-100,4,1,1,45,0,1
106295,-100,4,1,1,50,0,1
107420,-100,4,1,0,45,0,0
110982,-100,4,1,0,70,0,1
111076,-100,4,1,0,35,0,1
112670,-100,4,2,0,20,0,0

[Colours]
Combo1 : 0,113,225
Combo2 : 47,249,239
Combo3 : 231,231,254
Combo4 : 109,109,184

[HitObjects]
336,84,920,6,0,B|252:64|176:88,2,160,4|2|2,0:0|0:0|0:0,0:0:0
456,216,3170,1,0,0:0:0
408,292,3545,1,0,0:0:0
334,339,3920,6,0,B|250:359|174:335,2,160,2|2|2,0:0|0:0|0:0,0:0:0
264,176,6170,1,0,0:0:0
176,160,6545,1,0,0:0:0
104,212,6920,6,0,B|44:272|32:356,2,160,4|2|2,0:0|0:0|0:0,0:0:0
152,44,9170,2,0,B|108:48|76:76,1,80
144,132,9920,6,0,B|224:152|304:132,1,160,0|0,0:0|0:0,0:0:0
472,180,11420,2,0,B|444:256|384:312,1,160
296,328,12545,1,0,0:0:0
208,328,12920,6,0,B|84:328,2,120,4|0|0,0:0|0:0|0:0,0:0:0
264,260,14420,2,0,B|276:176|264:96,1,160
196,48,15545,1,0,0:0:0
108,48,15920,5,0,0:0:0
56,120,16295,1,0,0:0:0
84,204,16670,1,0,0:0:0
84,204,16857,2,0,B|104:268|152:304,1,120
232,332,17795,1,0,0:0:0
232,332,17982,2,0,B|296:336|352:316,1,120
433,287,18920,5,4,0:0:0
376,216,19295,2,0,B|312:212|256:232,1,120
172,240,20232,1,0,0:0:0
172,240,20420,2,0,B|132:256|92:256,2,80,4|0|0,0:0|0:0|0:0,0:0:0
224,168,21545,1,0,0:0:0
196,84,21920,6,0,B|116:60|32:76,2,160,4|4|4,0:0|0:0|0:0,0:0:0
276,116,23795,1,0,0:0:0
276,116,23982,1,0,0:0:0
360,96,24357,1,0,0:0:0
360,96,24545,1,0,0:0:0
444,124,24920,6,0,B|448:212,1,80,4|0,0:0|0:0,0:0:0
380,260,25670,2,0,B|440:312,2,80
240,156,27170,2,0,B|196:136|160:136,2,80,2|2|0,0:0|0:0|0:0,0:0:0
308,212,28295,5,0,0:0:0
248,276,28670,2,0,B|196:312|136:320,2,120
308,212,30170,1,2,0:0:0
252,144,30545,1,2,0:0:0
180,96,30920,6,0,B|136:80|100:76,1,80,4|0,0:0|0:0,0:0:0
80,160,31670,2,0,B|124:176|160:180,1,80
192,208,32232,2,0,B|160:264|100:296,1,120
40,236,33170,1,2,0:0:0
80,160,33545,1,2,0:0:0
80,160,33732,6,0,B|120:104|168:76,1,120,2|0,0:0|0:0,0:0:0
256,80,34670,1,0,0:0:0
346,77,35045,1,0,0:0:0
346,77,35232,2,0,B|392:104|432:160,1,120
456,244,36170,1,2,0:0:0
424,324,36545,1,2,0:0:0
336,316,36920,6,0,B|252:296|176:308,1,160,4|0,0:0|0:0,0:0:0
92,288,38045,2,0,B|92:240|76:204,1,80
84,164,38607,2,0,B|104:104|148:56,1,120,0|2,0:0|0:0,0:0:0
232,64,39545,1,2,0:0:0
404,108,40295,5,0,0:0:0
404,196,40670,2,0,B|396:256|356:304,1,120
280,260,41607,2,0,B|288:200|328:152,1,120,0|2,0:0|0:0,0:0:0
400,100,42545,1,2,0:0:0
328,48,42920,5,4,0:0:0
240,44,43295,1,0,0:0:0
156,72,43670,1,0,0:0:0
92,132,44045,2,0,B|48:176|36:240,2,120,0|0|2,0:0|0:0|0:0,0:0:0
156,72,45545,1,2,0:0:0
180,156,45920,6,0,B|172:236|116:300,2,160,0|0|4,0:0|0:0|0:0,0:0:0
332,64,48170,2,0,B|372:52|412:56,1,80
464,128,48920,6,0,B|428:212,1,80,4|2,0:0|0:0,0:0:0
416,240,49482,2,0,B|380:320,1,80,2|0,0:0|0:0,0:0:0
368,352,50045,1,2,0:0:0
288,312,50420,6,0,B|340:200,2,120,2|2|2,0:0|0:0|0:0,0:0:0
208,276,51920,6,0,B|246:193,1,80,2|0,0:0|0:0,0:0:0
259,165,52482,2,0,B|297:86,1,80,2|0,0:0|0:0,0:0:0
311,55,53045,1,2,0:0:0
224,36,53420,6,0,B|168:144,2,120,2|2|2,0:0|0:0|0:0,0:0:0
136,36,54920,5,4,0:0:0
56,192,55670,1,0,0:0:0
80,276,56045,1,2,0:0:0
140,340,56420,5,4,0:0:0
256,208,57170,1,0,0:0:0
340,180,57545,1,2,0:0:0
412,232,57920,6,0,B|404:272,2,40,4|0|2,0:0|0:0|0:0,0:0:0
420,144,58670,2,0,B|416:104,2,40,4|0|2,0:0|0:0|0:0,0:0:0
256,192,59420,12,12,60920,0:0:0
208,104,61670,6,0,B|124:92|48:112,1,160,2|0,0:0|0:0,0:0:0
28,196,62795,1,0,0:0:0
84,264,63170,2,0,B|120:280|164:284,1,80,2|0,0:0|0:0,0:0:0
248,284,63920,6,0,B|328:264|408:280,1,160,0|2,0:0|0:0,0:0:0
456,208,65045,1,0,0:0:0
432,124,65420,1,0,0:0:0
360,72,65795,1,0,0:0:0
272,68,66170,1,2,0:0:0
188,88,66545,2,0,B|164:44,2,40,0|0|4,0:0|0:0|0:0,0:0:0
156,172,67295,6,0,B|108:216|48:228,2,120,2|0|0,0:0|0:0|0:0,0:0:0
244,160,68795,1,2,0:0:0
328,132,69170,2,0,B|368:120|408:128,2,80,2|0|0,0:0|0:0|0:0,0:0:0
160,192,70670,5,2,0:0:0
312,284,71420,2,0,B|372:312|432:312,2,120,6|2|2,0:0|0:0|0:0,0:0:0
256,216,72920,5,4,0:0:0
144,80,73670,2,0,B|108:72|80:80,2,60,2|0|2,0:0|0:0|0:0,0:0:0
360,128,75170,2,0,B|388:116|408:88,2,60,2|0|2,0:0|0:0|0:0,0:0:0
148,188,76670,6,0,B|116:192|92:216,2,60,2|0|2,0:0|0:0|0:0,0:0:0
336,304,78170,2,0,B|368:324|400:328,2,60,2|0|2,0:0|0:0|0:0,0:0:0
292,296,78920,6,0,B|248:284|208:292,1,80,4|0,0:0|0:0,0:0:0
124,300,79670,2,0,B|100:324|76:336,2,60,2|2|2,0:0|0:0|0:0,0:0:0
256,124,81170,2,0,B|232:100|208:88,2,60,2|2|2,0:0|0:0|0:0,0:0:0
256,192,81920,12,4,83420,0:0:0
416,148,84920,5,4,0:0:0
340,100,85295,1,0,0:0:0
340,100,85482,1,2,0:0:0
268,52,85857,1,0,0:0:0
268,52,86045,1,2,0:0:0
208,116,86420,6,0,B|280:168,1,80,2|0,0:0|0:0,0:0:0
308,188,86982,2,0,B|380:240,1,80,2|2,0:0|0:0,0:0:0
408,260,87545,1,2,0:0:0
336,308,87920,5,0,0:0:0
260,260,88295,1,0,0:0:0
260,260,88482,1,2,0:0:0
188,212,88857,1,0,0:0:0
188,212,89045,1,2,0:0:0
100,200,89420,6,0,B|56:244|56:312,2,120,2|2|2,0:0|0:0|0:0,0:0:0
156,132,90920,5,4,0:0:0
324,80,91670,1,0,0:0:0
404,116,92045,1,2,0:0:0
448,192,92420,5,4,0:0:0
324,316,93170,1,0,0:0:0
236,296,93545,1,2,0:0:0
156,256,93920,6,0,B|128:284,2,40,4|0|2,0:0|0:0|0:0,0:0:0
232,208,94670,2,0,B|252:160,2,40,0|0|2,0:0|0:0|0:0,0:0:0
152,168,95420,2,0,P|106:125|77:70,2,120,4|4|4,0:0|0:0|0:0,0:0:0
232,208,96920,1,0,0:0:0
320,224,97295,6,0,B|404:236|480:204,1,160,12|0,0:0|0:0,0:0:0
468,116,98420,2,0,B|428:96|392:92,1,80,2|0,0:0|0:0,0:0:0
304,80,99170,1,0,0:0:0
216,88,99545,1,0,0:0:0
148,144,99920,6,0,B|104:184|40:204,1,120,2|0,0:0|0:0,0:0:0
44,248,100670,2,0,B|64:288|100:312,1,80
180,332,101420,1,2,0:0:0
268,316,101795,1,0,0:0:0
348,280,102170,2,0,B|392:288|420:316,2,80,0|0|6,0:0|0:0|0:0,0:0:0
280,224,103295,6,0,B|284:140|332:72,1,160
409,35,104420,1,2,0:0:0
464,104,104795,1,0,0:0:0
432,184,105170,2,0,B|360:228|280:224,1,160,0|2,0:0|0:0,0:0:0
192,208,106295,6,0,B|128:196|72:212,2,120,0|0|6,0:0|0:0|0:0,0:0:0
256,324,107982,2,0,B|210:285,2,60,2|2|2,0:0|0:0|0:0,0:0:0
296,344,108732,6,0,B|344:352|384:340,1,80,2|4,0:0|0:0,0:0:0
460,240,109670,2,0,B|400:256|340:244,1,120,2|4,0:0|0:0,0:0:0
256,144,110795,2,0,P|256:184,1,40,2|4,0:0|0:0,0:0:0
256,192,111076,12,0,112670,0:0:0
