osu file format v9

[General]
AudioFilename: SABER WING.mp3
AudioLeadIn: 1004
PreviewTime: 26703
Countdown: 0
SampleSet: Soft
StackLeniency: 0.6
Mode: 0
LetterboxInBreaks: 0

[Editor]
DistanceSpacing: 1
BeatDivisor: 4
GridSize: 8

[Metadata]
Title:SABER WING
Artist:TAG
Creator:TW-KUMA01
Version:Hyper
Source:DanceDanceRevolution X
Tags:ddr ddrs dance revolution

[Difficulty]
HPDrainRate:5
CircleSize:4
OverallDifficulty:6
ApproachRate:7
SliderMultiplier:1.4
SliderTickRate:1

[Events]
//Background and Video events
0,0,"SABER WING-bg.png"
//Break Periods
//Storyboard Layer 0 (Background)
//Storyboard Layer 1 (Fail)
//Storyboard Layer 2 (Pass)
//Storyboard Layer 3 (Foreground)
//Storyboard Sound Samples
//Background Colour Transformations
3,100,163,162,255

[TimingPoints]
760,270.27027027027,3,2,0,80,1,0
31570,-200,3,2,0,80,0,0
33124,-100,3,2,0,80,0,0
62381,810.810810810811,3,2,0,80,1,1

[Colours]
Combo1 : 29,233,187
Combo2 : 230,230,230
Combo3 : 147,0,0
Combo4 : 89,89,255
Combo5 : 230,117,15

[HitObjects]
40,96,760,1,0
176,56,1030,1,0
120,16,1165,1,0
256,48,1435,1,0
312,96,1570,2,0,B|408:128|408:128|416:176,1,140
328,280,2111,2,0,B|232:240|232:240|216:192,1,140
112,296,2651,5,0
160,248,2787,1,0
144,112,3057,1,0
168,176,3192,1,0
304,216,3462,2,0,B|192:216|192:216|160:192,1,140
48,128,4003,2,0,B|160:128|160:128|200:160,1,140
181,145,4408,5,0
296,64,4678,1,0
296,64,4814,2,0,B|320:96|320:96|432:96,1,140
392,232,5354,2,0,B|280:232|280:232|256:256,1,140
260,251,6165,1,0
260,251,6435,1,0
48,64,6976,5,0
112,160,7246,1,0
208,104,7516,1,0
208,104,7651,1,0
248,208,7922,1,0
248,208,8057,2,0,B|200:264|200:264|208:328,1,140
312,296,8597,2,0,B|352:240|352:240|320:168,1,140
384,48,9138,6,0,B|384:120,1,70
256,176,9543,2,0,B|256:104,1,70
256,106,9949,1,0
128,48,10219,1,0
128,48,10489,2,0,B|120:128|120:128|48:160,1,140
96,216,10895,1,0
232,168,11165,5,0
264,232,11300,2,0,B|296:168|296:168|376:160,1,140
400,296,11841,2,0,B|368:360|368:360|288:368,1,140
24,48,12922,5,0
160,80,13192,1,0
296,112,13462,1,0
432,144,13732,2,0,B|376:176|376:176|352:176|352:176|288:208,1,140
305,199,14138,1,0
305,199,14273,1,0
168,200,14543,2,0,B|224:232|224:232|232:256|232:256|296:296,1,140
274,282,14949,1,0
274,282,15084,1,0
144,336,15354,5,0
40,240,15624,1,0
152,160,15895,1,0
56,56,16165,2,0,B|136:72|136:72|216:48,1,140
192,56,16570,1,0
192,56,16705,1,0
256,184,16976,6,0,B|256:336,1,140
256,324,17381,1,0
256,324,17516,1,0
384,264,17787,2,0,B|384:120,1,140
384,124,18192,1,0
384,124,18327,1,0
264,56,18597,5,0
240,88,18868,5,0
256,128,19138,5,0
224,160,19408,5,0
248,200,19678,5,2
248,200,19814,1,2
248,200,19949,1,0
144,296,20219,5,0
144,296,20489,2,0,B|224:320|224:320|304:304,1,140
384,216,21030,1,0
384,216,21300,2,0,B|312:192|312:192|224:208,1,140
136,120,21841,2,0,B|288:120,2,140
208,240,22651,2,0,B|48:240,2,140
272,272,23327,1,0
304,208,23462,2,0,B|464:208,2,140
216,96,24273,2,0,B|64:96,2,140
96,272,25084,1,0
280,368,25354,1,0
416,192,25624,1,0
416,192,25895,5,0
216,96,26705,5,0
128,208,26976,1,0
64,240,27111,1,0
200,272,27381,1,0
264,240,27516,1,0
400,256,27787,2,0,B|272:320,1,140
274,318,28327,5,0
296,184,28597,1,0
312,256,28732,1,0
216,152,29003,1,0
200,80,29138,1,0
128,200,29408,2,0,B|152:344,1,140
151,338,29949,5,0
240,232,30219,1,0
240,232,30354,2,0,B|320:264|320:264|400:248,1,140
416,240,30759,1,0
336,120,31030,2,0,B|256:96|256:96|168:112,1,140
200,106,31570,2,0,B|240:240,1,140
144,344,32381,2,0,B|96:208,1,140
96,208,33192,6,0,B|168:232|168:232|254:220,1,140
280,208,33597,1,0
288,96,33868,1,0
336,104,34003,2,0,B|408:120|408:120|472:96,1,140
470,96,34543,6,0,B|440:216|432:240,1,140
352,312,35084,1,0
352,312,35219,2,0,B|208:272,1,140
160,288,35623,1,0
192,40,35895,5,0
392,192,36165,5,0
392,192,36435,2,0,B|240:208,1,140
216,176,36841,1,0
104,96,37111,1,0
136,64,37246,2,0,B|112:200,1,140
168,280,37787,1,0
416,248,38057,6,0,B|440:288,10,35
416,248,38868,5,0
208,280,39138,5,0
280,88,39408,5,0
280,88,39678,2,0,B|304:224,1,140
216,336,40219,2,0,B|192:192,1,140
192,197,40759,1,0
192,197,41030,5,0
344,56,41300,2,0,B|264:80|264:80|192:56,1,140
72,56,41841,2,0,B|144:32|144:32|224:72,1,140
201,60,42381,6,0,B|120:184,1,140
160,312,42922,2,0,B|112:176,1,140
113,179,43462,6,0,B|192:168|192:168|264:184,1,140
296,312,44003,2,0,B|400:320|400:320|464:304,1,140
434,311,44543,1,0
