osu file format v14

[General]
AudioFilename: RIOTNOCOLOR.mp3
AudioLeadIn: 0
PreviewTime: 13210
Countdown: 0
SampleSet: Normal
StackLeniency: 0.7
Mode: 1
LetterboxInBreaks: 0
WidescreenStoryboard: 0

[Editor]
Bookmarks: 13202,64402
DistanceSpacing: 0.8
BeatDivisor: 4
GridSize: 32
TimelineZoom: 2.1

[Metadata]
Title:Riot of Color
TitleUnicode:Riot of Color
Artist:TAG
ArtistUnicode:TAG
Creator:OzzyOzrock
Version:Muzukashii
Source:jubeat copious APPEND
Tags:bemani konami metal rock colour GuitarFreaksXG3 & DrumManiaXG3 GITADORA CS jukebeat music pack 10 12 24 pop'n music Sunny Park ミライダガッキ FutureTomTom tasuke912
BeatmapID:576977
BeatmapSetID:251169

[Difficulty]
HPDrainRate:5
CircleSize:5
OverallDifficulty:5
ApproachRate:6
SliderMultiplier:1.4
SliderTickRate:1

[Events]
//Background and Video events
0,0,"a-riot-of-color.jpg",0,0
//Break Periods
//Storyboard Layer 0 (Background)
//Storyboard Layer 1 (Fail)
//Storyboard Layer 2 (Pass)
//Storyboard Layer 3 (Foreground)
//Storyboard Sound Samples

[TimingPoints]
410,400,4,1,0,90,1,0
38810,-100,4,1,0,90,0,1
51610,-100,4,1,0,90,0,0
77210,-100,4,1,0,90,0,1
90010,-100,4,1,0,90,0,0
103410,-100,4,1,0,50,0,0

[Colours]
Combo1 : 0,128,192
Combo2 : 255,128,64

[HitObjects]
96,288,410,5,0,0:0:0:0:
96,288,710,1,0,0:0:0:0:
96,288,1010,1,0,0:0:0:0:
96,288,1310,1,0,0:0:0:0:
96,288,1610,1,0,0:0:0:0:
96,288,1910,1,0,0:0:0:0:
96,288,2210,1,0,0:0:0:0:
32,288,2510,1,0,0:0:0:0:
384,288,2810,1,8,0:0:0:0:
384,288,3010,1,8,0:0:0:0:
384,288,3210,1,8,0:0:0:0:
120,284,3410,1,0,0:0:0:0:
96,288,3610,1,0,0:0:0:0:
160,128,3910,1,12,0:0:0:0:
96,288,4210,1,0,0:0:0:0:
160,128,4510,1,12,0:0:0:0:
96,288,4810,1,0,0:0:0:0:
160,128,5110,1,12,0:0:0:0:
96,288,5410,1,0,0:0:0:0:
96,128,5710,1,12,0:0:0:0:
384,288,6010,1,8,0:0:0:0:
384,288,6210,1,8,0:0:0:0:
384,288,6410,1,8,0:0:0:0:
384,288,6610,1,8,0:0:0:0:
96,288,6810,1,0,0:0:0:0:
96,288,7110,1,0,0:0:0:0:
96,288,7410,1,0,0:0:0:0:
96,288,7710,1,0,0:0:0:0:
96,288,8010,1,0,0:0:0:0:
96,288,8310,1,0,0:0:0:0:
96,288,8610,1,0,0:0:0:0:
32,288,8910,1,0,0:0:0:0:
384,288,9210,1,8,0:0:0:0:
384,288,9410,1,8,0:0:0:0:
384,288,9610,1,8,0:0:0:0:
384,288,9810,1,0,0:0:0:0:
96,288,10010,1,0,0:0:0:0:
96,288,10310,1,0,0:0:0:0:
96,288,10610,1,0,0:0:0:0:
96,288,10910,1,0,0:0:0:0:
96,288,11210,1,0,0:0:0:0:
96,288,11510,1,0,0:0:0:0:
96,288,11810,1,0,0:0:0:0:
32,288,12110,1,0,0:0:0:0:
384,288,12410,1,8,0:0:0:0:
384,288,12610,1,8,0:0:0:0:
384,288,12810,1,8,0:0:0:0:
384,288,13010,1,8,0:0:0:0:
160,128,13210,1,4,0:0:0:0:
32,288,13510,1,0,0:0:0:0:
352,288,13810,1,8,0:0:0:0:
32,288,14810,1,0,0:0:0:0:
336,288,15110,1,8,0:0:0:0:
352,288,15410,1,8,0:0:0:0:
0,288,15810,1,0,0:0:0:0:
352,288,16010,1,8,0:0:0:0:
352,288,16210,1,8,0:0:0:0:
32,288,16410,1,0,0:0:0:0:
32,288,16710,1,0,0:0:0:0:
352,288,17010,1,8,0:0:0:0:
384,288,18210,1,8,0:0:0:0:
384,288,18510,1,8,0:0:0:0:
384,288,18810,1,8,0:0:0:0:
384,288,19010,1,8,0:0:0:0:
384,288,19110,1,8,0:0:0:0:
384,288,19210,1,8,0:0:0:0:
384,288,19410,1,8,0:0:0:0:
128,128,19610,1,4,0:0:0:0:
32,288,19910,1,0,0:0:0:0:
352,288,20210,1,8,0:0:0:0:
32,288,21210,1,0,0:0:0:0:
384,288,21510,1,8,0:0:0:0:
352,288,21810,1,8,0:0:0:0:
0,288,22210,1,0,0:0:0:0:
352,288,22410,1,8,0:0:0:0:
352,320,22610,1,8,0:0:0:0:
32,288,22810,1,0,0:0:0:0:
352,320,23110,1,8,0:0:0:0:
352,320,23410,1,8,0:0:0:0:
448,96,24010,1,12,0:0:0:0:
416,320,24410,1,8,0:0:0:0:
416,320,24710,1,8,0:0:0:0:
96,320,25010,1,0,0:0:0:0:
416,320,25210,1,8,0:0:0:0:
128,320,25610,1,0,0:0:0:0:
128,128,26010,1,4,0:0:0:0:
416,320,26410,1,8,0:0:0:0:
416,320,26610,1,8,0:0:0:0:
128,320,27010,1,0,0:0:0:0:
416,320,27210,1,8,0:0:0:0:
384,320,27310,1,8,0:0:0:0:
416,320,27410,1,8,0:0:0:0:
128,320,27610,1,0,0:0:0:0:
384,320,28010,1,8,0:0:0:0:
128,320,28210,1,0,0:0:0:0:
160,320,28610,1,0,0:0:0:0:
384,320,28810,1,8,0:0:0:0:
96,320,29010,1,0,0:0:0:0:
96,320,29110,1,0,0:0:0:0:
128,320,29210,1,0,0:0:0:0:
384,320,29610,1,8,0:0:0:0:
96,320,29810,1,0,0:0:0:0:
128,320,30210,1,0,0:0:0:0:
384,320,30410,1,8,0:0:0:0:
424,304,30510,1,8,0:0:0:0:
416,288,30610,1,8,0:0:0:0:
128,352,30810,1,0,0:0:0:0:
384,320,31210,1,8,0:0:0:0:
160,320,31410,1,0,0:0:0:0:
160,320,31610,1,0,0:0:0:0:
384,320,32010,1,8,0:0:0:0:
160,128,32410,1,4,0:0:0:0:
352,320,32810,1,8,0:0:0:0:
352,320,33010,1,8,0:0:0:0:
192,320,33410,1,0,0:0:0:0:
320,320,33610,1,8,0:0:0:0:
384,320,33710,1,8,0:0:0:0:
320,320,33810,1,8,0:0:0:0:
192,320,34010,1,0,0:0:0:0:
384,320,34410,1,8,0:0:0:0:
160,320,34610,1,0,0:0:0:0:
160,320,35010,1,0,0:0:0:0:
352,320,35210,1,8,0:0:0:0:
160,320,35410,1,0,0:0:0:0:
160,320,35510,1,0,0:0:0:0:
192,320,35610,1,0,0:0:0:0:
384,320,36010,1,8,0:0:0:0:
384,320,36210,1,8,0:0:0:0:
160,320,36410,1,0,0:0:0:0:
160,320,36510,1,0,0:0:0:0:
160,320,36610,1,0,0:0:0:0:
320,352,36810,1,8,0:0:0:0:
320,352,36910,1,8,0:0:0:0:
320,352,37010,1,8,0:0:0:0:
160,320,37210,1,0,0:0:0:0:
320,320,37510,1,8,0:0:0:0:
128,320,37810,1,0,0:0:0:0:
128,128,38010,1,4,0:0:0:0:
352,288,38810,1,8,0:0:0:0:
352,288,39110,1,8,0:0:0:0:
352,288,39410,1,8,0:0:0:0:
384,288,39710,1,8,0:0:0:0:
384,288,40010,1,8,0:0:0:0:
384,288,40310,1,8,0:0:0:0:
352,288,40610,1,8,0:0:0:0:
352,288,40910,1,8,0:0:0:0:
128,320,41210,1,0,0:0:0:0:
128,352,41410,1,0,0:0:0:0:
352,288,41610,1,8,0:0:0:0:
352,288,42010,1,8,0:0:0:0:
352,288,42310,1,8,0:0:0:0:
352,288,42610,1,8,0:0:0:0:
384,288,42910,1,8,0:0:0:0:
384,288,43210,1,8,0:0:0:0:
384,288,43510,1,8,0:0:0:0:
352,288,43810,1,8,0:0:0:0:
384,320,44110,1,8,0:0:0:0:
128,320,44410,1,0,0:0:0:0:
128,320,44610,1,0,0:0:0:0:
320,320,44810,1,8,0:0:0:0:
128,288,45210,1,0,0:0:0:0:
352,288,45510,1,8,0:0:0:0:
128,288,45810,1,0,0:0:0:0:
384,288,46110,1,8,0:0:0:0:
160,288,46410,1,0,0:0:0:0:
384,288,46710,1,8,0:0:0:0:
128,288,47010,1,0,0:0:0:0:
352,288,47310,1,8,0:0:0:0:
128,320,47610,1,0,0:0:0:0:
128,320,47810,1,0,0:0:0:0:
320,256,48010,1,8,0:0:0:0:
128,288,48410,1,0,0:0:0:0:
352,288,48710,1,8,0:0:0:0:
160,288,49010,1,0,0:0:0:0:
384,288,49310,1,8,0:0:0:0:
160,288,49610,1,0,0:0:0:0:
384,288,49910,1,8,0:0:0:0:
128,288,50210,1,0,0:0:0:0:
352,288,50510,1,8,0:0:0:0:
128,320,50810,1,0,0:0:0:0:
160,288,51010,1,0,0:0:0:0:
384,288,51210,1,8,0:0:0:0:
352,288,51410,1,8,0:0:0:0:
128,128,51610,1,4,0:0:0:0:
384,288,52410,1,8,0:0:0:0:
96,320,53210,1,0,0:0:0:0:
384,276,53410,1,8,0:0:0:0:
96,320,53610,1,0,0:0:0:0:
416,288,54010,1,8,0:0:0:0:
192,128,54810,1,4,0:0:0:0:
416,288,55610,1,8,0:0:0:0:
32,288,56410,1,0,0:0:0:0:
352,288,56610,1,8,0:0:0:0:
160,288,56810,1,0,0:0:0:0:
384,320,57210,1,8,0:0:0:0:
416,320,57610,1,8,0:0:0:0:
160,288,58010,1,4,0:0:0:0:
416,288,58810,1,8,0:0:0:0:
128,320,59610,1,0,0:0:0:0:
408,288,59810,1,8,0:0:0:0:
128,320,60010,1,0,0:0:0:0:
416,288,60410,1,8,0:0:0:0:
96,96,61210,1,4,0:0:0:0:
448,288,62010,1,8,0:0:0:0:
384,288,62810,1,8,0:0:0:0:
352,272,63110,1,8,0:0:0:0:
384,288,63410,1,8,0:0:0:0:
160,128,63610,1,4,0:0:0:0:
384,256,63810,1,8,0:0:0:0:
384,256,63910,1,8,0:0:0:0:
352,288,64010,1,8,0:0:0:0:
352,288,64210,1,8,0:0:0:0:
160,128,64410,1,4,0:0:0:0:
32,288,65010,1,0,0:0:0:0:
352,288,65210,1,8,0:0:0:0:
32,288,65610,1,0,0:0:0:0:
32,288,66010,1,0,0:0:0:0:
352,288,66310,1,8,0:0:0:0:
32,288,66610,1,0,0:0:0:0:
0,288,66810,1,0,0:0:0:0:
0,288,66910,1,0,0:0:0:0:
0,288,67010,1,0,0:0:0:0:
0,288,67210,1,0,0:0:0:0:
352,288,67410,1,8,0:0:0:0:
32,288,67610,1,4,0:0:0:0:
352,288,68410,1,8,0:0:0:0:
64,320,68810,1,0,0:0:0:0:
64,288,69210,1,0,0:0:0:0:
64,288,69410,1,0,0:0:0:0:
352,288,69610,1,8,0:0:0:0:
352,288,69710,1,8,0:0:0:0:
352,288,69810,1,8,0:0:0:0:
128,288,70010,1,0,0:0:0:0:
128,288,70210,1,0,0:0:0:0:
352,288,70410,1,8,0:0:0:0:
352,288,70810,1,4,0:0:0:0:
32,288,71410,1,0,0:0:0:0:
352,288,71610,1,8,0:0:0:0:
64,288,72010,1,0,0:0:0:0:
32,288,72410,1,0,0:0:0:0:
352,288,72610,1,8,0:0:0:0:
352,288,72710,1,8,0:0:0:0:
352,288,72810,1,8,0:0:0:0:
320,288,73110,1,8,0:0:0:0:
128,288,73410,1,0,0:0:0:0:
320,288,73610,1,8,0:0:0:0:
128,128,74010,1,4,0:0:0:0:
32,288,74310,1,8,0:0:0:0:
352,288,74610,1,8,0:0:0:0:
352,288,75210,1,8,0:0:0:0:
32,288,75610,1,0,0:0:0:0:
32,288,75710,1,0,0:0:0:0:
32,288,75810,1,0,0:0:0:0:
32,288,76010,1,0,0:0:0:0:
32,288,76110,1,0,0:0:0:0:
32,288,76210,1,0,0:0:0:0:
416,160,76410,1,12,0:0:0:0:
128,128,77210,1,4,0:0:0:0:
416,288,77410,1,8,0:0:0:0:
448,256,77810,1,8,0:0:0:0:
160,288,78010,1,0,0:0:0:0:
416,288,78210,1,8,0:0:0:0:
224,320,78410,1,0,0:0:0:0:
384,288,78610,1,8,0:0:0:0:
416,256,78710,1,8,0:0:0:0:
416,256,78810,1,8,0:0:0:0:
416,288,79010,1,8,0:0:0:0:
448,256,79410,1,8,0:0:0:0:
160,288,79610,1,0,0:0:0:0:
416,288,79810,1,8,0:0:0:0:
224,320,80010,1,0,0:0:0:0:
128,288,80210,1,0,0:0:0:0:
128,288,80310,1,0,0:0:0:0:
128,288,80410,1,0,0:0:0:0:
416,288,80610,1,8,0:0:0:0:
448,256,81010,1,8,0:0:0:0:
160,288,81210,1,0,0:0:0:0:
416,288,81410,1,8,0:0:0:0:
224,320,81610,1,0,0:0:0:0:
416,256,81810,1,8,0:0:0:0:
160,288,82010,1,0,0:0:0:0:
160,288,82110,1,0,0:0:0:0:
160,288,82210,1,0,0:0:0:0:
384,288,82410,1,8,0:0:0:0:
128,288,82610,1,0,0:0:0:0:
352,256,82810,1,8,0:0:0:0:
352,256,82910,1,8,0:0:0:0:
352,256,83010,1,8,0:0:0:0:
96,288,83210,1,0,0:0:0:0:
96,288,83610,1,0,0:0:0:0:
192,288,83710,1,0,0:0:0:0:
96,288,83810,1,0,0:0:0:0:
384,288,84010,1,8,0:0:0:0:
384,320,84210,1,8,0:0:0:0:
192,288,84410,1,0,0:0:0:0:
96,288,84510,1,0,0:0:0:0:
96,288,84610,1,0,0:0:0:0:
416,320,84810,1,8,0:0:0:0:
192,320,85210,1,0,0:0:0:0:
416,320,85410,1,8,0:0:0:0:
416,320,85510,1,8,0:0:0:0:
448,320,85610,1,8,0:0:0:0:
448,320,85810,1,8,0:0:0:0:
160,320,86010,1,0,0:0:0:0:
160,288,86110,1,0,0:0:0:0:
160,288,86210,1,0,0:0:0:0:
448,320,86410,1,8,0:0:0:0:
192,288,86810,1,0,0:0:0:0:
416,320,87110,1,8,0:0:0:0:
416,320,87410,1,8,0:0:0:0:
160,320,87810,1,0,0:0:0:0:
384,320,88010,1,8,0:0:0:0:
160,320,88210,1,0,0:0:0:0:
416,320,88410,1,8,0:0:0:0:
416,320,88710,1,8,0:0:0:0:
192,320,89010,1,0,0:0:0:0:
192,320,89210,1,0,0:0:0:0:
416,320,89610,1,8,0:0:0:0:
96,288,90010,5,0,0:0:0:0:
96,288,90310,1,0,0:0:0:0:
96,288,90610,1,0,0:0:0:0:
96,288,90910,1,0,0:0:0:0:
96,288,91210,1,0,0:0:0:0:
96,288,91510,1,0,0:0:0:0:
96,288,91810,1,0,0:0:0:0:
32,288,92110,1,0,0:0:0:0:
384,288,92410,1,8,0:0:0:0:
384,288,92610,1,8,0:0:0:0:
384,288,92810,1,8,0:0:0:0:
384,288,93010,1,0,0:0:0:0:
96,288,93210,1,0,0:0:0:0:
96,288,93510,1,0,0:0:0:0:
96,288,93810,1,0,0:0:0:0:
96,288,94110,1,0,0:0:0:0:
96,288,94410,1,0,0:0:0:0:
96,288,94710,1,0,0:0:0:0:
96,288,95010,1,0,0:0:0:0:
32,288,95310,1,0,0:0:0:0:
384,288,95610,1,8,0:0:0:0:
384,288,95810,1,8,0:0:0:0:
384,288,96010,1,8,0:0:0:0:
384,288,96210,1,8,0:0:0:0:
96,288,96410,1,0,0:0:0:0:
160,160,96710,1,12,0:0:0:0:
96,288,97010,1,0,0:0:0:0:
160,160,97310,1,12,0:0:0:0:
96,288,97610,1,0,0:0:0:0:
160,160,97910,1,12,0:0:0:0:
96,288,98210,1,0,0:0:0:0:
96,160,98510,1,12,0:0:0:0:
384,288,98810,1,8,0:0:0:0:
384,288,99010,1,8,0:0:0:0:
384,288,99210,1,8,0:0:0:0:
384,288,99410,1,0,0:0:0:0:
384,312,99610,1,8,0:0:0:0:
96,288,99810,1,0,0:0:0:0:
96,288,99910,1,0,0:0:0:0:
96,288,100010,1,0,0:0:0:0:
384,312,100210,1,8,0:0:0:0:
64,288,100510,1,0,0:0:0:0:
396,304,100810,1,8,0:0:0:0:
96,288,101010,1,0,0:0:0:0:
96,288,101110,1,0,0:0:0:0:
96,288,101210,1,0,0:0:0:0:
396,304,101410,1,8,0:0:0:0:
96,288,101710,1,0,0:0:0:0:
384,288,102010,1,8,0:0:0:0:
384,288,102210,1,8,0:0:0:0:
384,288,102410,1,8,0:0:0:0:
384,288,102510,1,8,0:0:0:0:
384,288,102610,1,8,0:0:0:0:
32,288,102810,1,0,0:0:0:0:
256,192,103410,12,0,106010,0:0:0:0:
