osu file format v14

[General]
AudioFilename: RIOTNOCOLOR.mp3
AudioLeadIn: 0
PreviewTime: 13210
Countdown: 0
SampleSet: Normal
StackLeniency: 0.7
Mode: 1
LetterboxInBreaks: 0
WidescreenStoryboard: 0

[Editor]
Bookmarks: 13202,64402
DistanceSpacing: 0.8
BeatDivisor: 4
GridSize: 16
TimelineZoom: 2.1

[Metadata]
Title:Riot of Color
TitleUnicode:Riot of Color
Artist:TAG
ArtistUnicode:TAG
Creator:OzzyOzrock
Version:Kantan
Source:jubeat copious APPEND
Tags:bemani konami metal rock colour GuitarFreaksXG3 & DrumManiaXG3 GITADORA CS jukebeat music pack 10 12 24 pop'n music Sunny Park ミライダガッキ FutureTomTom tasuke912
BeatmapID:709157
BeatmapSetID:251169

[Difficulty]
HPDrainRate:5
CircleSize:5
OverallDifficulty:4
ApproachRate:6
SliderMultiplier:1.4
SliderTickRate:1

[Events]
//Background and Video events
0,0,"a-riot-of-color.jpg",0,0
//Break Periods
//Storyboard Layer 0 (Background)
//Storyboard Layer 1 (Fail)
//Storyboard Layer 2 (Pass)
//Storyboard Layer 3 (Foreground)
//Storyboard Sound Samples

[TimingPoints]
410,400,4,1,0,90,1,0
38810,-100,4,1,0,90,0,1
51610,-100,4,1,0,90,0,0
77210,-100,4,1,0,90,0,1
90010,-100,4,1,0,90,0,0
103410,-100,4,1,0,50,0,0

[Colours]
Combo1 : 0,128,192
Combo2 : 255,128,64

[HitObjects]
96,288,410,5,0,0:0:0:0:
80,288,1610,1,0,0:0:0:0:
384,288,2810,1,8,0:0:0:0:
96,288,3210,1,0,0:0:0:0:
128,288,3610,1,0,0:0:0:0:
112,304,4810,1,0,0:0:0:0:
384,288,6010,1,8,0:0:0:0:
384,288,6410,1,8,0:0:0:0:
96,288,6810,1,0,0:0:0:0:
96,288,8010,1,0,0:0:0:0:
384,288,9210,1,8,0:0:0:0:
384,288,9610,1,0,0:0:0:0:
96,320,10010,1,0,0:0:0:0:
96,288,11210,1,0,0:0:0:0:
384,288,12410,1,8,0:0:0:0:
384,288,12810,1,8,0:0:0:0:
128,288,13210,1,0,0:0:0:0:
384,288,13810,1,8,0:0:0:0:
160,288,14810,1,0,0:0:0:0:
416,288,15610,1,8,0:0:0:0:
128,288,16410,1,0,0:0:0:0:
384,288,17010,1,8,0:0:0:0:
416,288,18810,1,8,0:0:0:0:
128,288,19610,1,0,0:0:0:0:
384,288,20210,1,8,0:0:0:0:
160,288,21210,1,0,0:0:0:0:
416,288,22010,1,8,0:0:0:0:
128,288,22810,1,0,0:0:0:0:
384,288,23410,1,8,0:0:0:0:
384,288,24410,1,8,0:0:0:0:
192,320,25210,1,0,0:0:0:0:
384,288,26010,1,8,0:0:0:0:
192,320,27610,1,0,0:0:0:0:
192,320,28010,1,0,0:0:0:0:
192,320,28410,1,0,0:0:0:0:
384,288,29210,1,8,0:0:0:0:
384,320,30010,1,8,0:0:0:0:
96,288,30810,1,0,0:0:0:0:
400,320,31210,1,8,0:0:0:0:
160,256,31610,1,0,0:0:0:0:
384,320,32410,1,8,0:0:0:0:
192,320,34010,1,0,0:0:0:0:
160,320,34410,1,0,0:0:0:0:
160,320,34810,1,0,0:0:0:0:
416,288,35610,1,8,0:0:0:0:
416,320,36410,1,8,0:0:0:0:
160,320,37210,1,0,0:0:0:0:
416,256,38810,1,8,0:0:0:0:
416,256,39610,1,8,0:0:0:0:
432,272,40010,1,8,0:0:0:0:
416,256,40410,1,8,0:0:0:0:
128,288,41210,1,0,0:0:0:0:
416,256,42010,1,8,0:0:0:0:
416,256,42810,1,8,0:0:0:0:
400,240,43210,1,8,0:0:0:0:
416,256,43610,1,8,0:0:0:0:
128,288,44410,1,0,0:0:0:0:
416,256,45210,1,8,0:0:0:0:
416,256,46010,1,8,0:0:0:0:
416,256,46410,1,8,0:0:0:0:
416,256,46810,1,8,0:0:0:0:
128,288,47610,1,0,0:0:0:0:
416,256,48410,1,8,0:0:0:0:
416,256,48810,1,8,0:0:0:0:
416,256,49210,1,8,0:0:0:0:
416,256,50010,1,8,0:0:0:0:
416,256,50410,1,8,0:0:0:0:
416,256,50810,1,8,0:0:0:0:
160,64,51610,1,4,0:0:0:0:
96,288,53210,1,0,0:0:0:0:
96,288,54010,1,0,0:0:0:0:
128,128,54810,1,4,0:0:0:0:
128,288,56410,1,0,0:0:0:0:
384,248,56810,1,8,0:0:0:0:
128,288,57210,1,0,0:0:0:0:
128,96,58010,1,4,0:0:0:0:
128,288,59610,1,0,0:0:0:0:
416,288,60410,1,8,0:0:0:0:
0,96,61210,1,4,0:0:0:0:
384,276,62810,1,8,0:0:0:0:
96,288,63210,1,0,0:0:0:0:
384,276,63610,1,8,0:0:0:0:
96,128,64410,1,4,0:0:0:0:
384,288,66010,1,8,0:0:0:0:
384,288,66410,1,8,0:0:0:0:
384,288,66810,1,8,0:0:0:0:
96,96,67610,1,4,0:0:0:0:
448,288,69210,1,8,0:0:0:0:
448,288,70010,1,8,0:0:0:0:
128,288,70810,1,4,0:0:0:0:
416,288,72410,1,8,0:0:0:0:
416,288,72810,1,8,0:0:0:0:
448,288,73210,1,8,0:0:0:0:
96,96,74010,1,4,0:0:0:0:
416,288,75610,1,8,0:0:0:0:
416,288,76410,1,8,0:0:0:0:
160,96,77210,1,4,0:0:0:0:
128,288,78010,1,0,0:0:0:0:
416,288,78410,1,8,0:0:0:0:
160,96,78810,1,0,0:0:0:0:
480,288,79610,1,8,0:0:0:0:
128,288,80010,1,0,0:0:0:0:
448,288,80410,1,8,0:0:0:0:
128,288,81210,1,0,0:0:0:0:
448,288,81610,1,8,0:0:0:0:
128,320,82010,1,0,0:0:0:0:
128,320,82410,1,0,0:0:0:0:
96,320,82810,1,0,0:0:0:0:
144,96,83610,1,4,0:0:0:0:
416,320,85210,1,8,0:0:0:0:
400,320,85610,1,8,0:0:0:0:
416,320,86010,1,8,0:0:0:0:
192,352,86810,1,0,0:0:0:0:
416,320,87610,1,8,0:0:0:0:
96,288,88410,1,0,0:0:0:0:
96,288,88810,1,0,0:0:0:0:
384,320,89210,1,8,0:0:0:0:
96,288,90010,1,0,0:0:0:0:
96,288,91210,1,0,0:0:0:0:
384,288,92410,1,8,0:0:0:0:
384,288,92810,1,0,0:0:0:0:
128,288,93210,1,0,0:0:0:0:
96,288,94410,1,0,0:0:0:0:
384,288,95610,1,8,0:0:0:0:
384,288,96010,1,8,0:0:0:0:
96,288,96410,1,0,0:0:0:0:
96,288,97610,1,0,0:0:0:0:
384,288,98810,1,8,0:0:0:0:
384,288,99210,1,0,0:0:0:0:
96,320,99610,1,0,0:0:0:0:
96,288,100810,1,0,0:0:0:0:
384,288,102010,1,8,0:0:0:0:
384,288,102410,1,8,0:0:0:0:
128,288,102810,1,0,0:0:0:0:
256,192,103410,12,0,106010,0:0:0:0:
