osu file format v12

[General]
AudioFilename: chronos.mp3
AudioLeadIn: 2000
PreviewTime: 53579
Countdown: 1
SampleSet: Normal
StackLeniency: 0.7
Mode: 3
LetterboxInBreaks: 1

[Editor]
Bookmarks: 45025,66704,67642
DistanceSpacing: 0.7
BeatDivisor: 4
GridSize: 32

[Metadata]
Title:Chronos
TitleUnicode:Chronos
Artist:TAG
ArtistUnicode:TAG
Creator:ignorethis
Version:Hyper
Source:GuitarFreaks V6 & DrumMania V6: BLAZING!!!!
Tags:dance dance revolution x3
BeatmapID:227458
BeatmapSetID:70062

[Difficulty]
HPDrainRate:5
CircleSize:8
OverallDifficulty:7
ApproachRate:6
SliderMultiplier:1.60000000596046
SliderTickRate:1

[Events]
//Background and Video events
0,0,"bg.jpg",0,0
//Break Periods
//Storyboard Layer 0 (Background)
//Storyboard Layer 1 (Fail)
//Storyboard Layer 2 (Pass)
//Storyboard Layer 3 (Foreground)
//Storyboard Sound Samples
//Background Colour Transformations
3,100,0,0,0

[TimingPoints]
611,468.75,3,1,0,35,1,0
78892,-100,3,2,0,35,0,0
84517,-100,3,1,0,35,0,0

[Colours]
Combo1 : 255,150,0
Combo2 : 5,240,5
Combo3 : 5,5,240
Combo4 : 240,5,5

[HitObjects]
32,192,611,1,0,0:0:0:0:
96,192,611,1,0,0:0:0:0:
224,192,728,1,0,0:0:0:0:
352,192,845,1,0,0:0:0:0:
480,192,962,1,0,0:0:0:0:
352,192,1079,1,0,0:0:0:0:
224,192,1196,1,0,0:0:0:0:
96,192,1314,1,0,0:0:0:0:
224,192,1431,1,0,0:0:0:0:
352,192,1548,1,0,0:0:0:0:
480,192,1665,1,0,0:0:0:0:
352,192,1782,1,0,0:0:0:0:
224,192,1900,1,0,0:0:0:0:
96,192,2017,1,0,0:0:0:0:
224,192,2134,1,0,0:0:0:0:
352,192,2251,1,0,0:0:0:0:
480,192,2368,1,0,0:0:0:0:
352,192,2486,1,0,0:0:0:0:
224,192,2603,1,0,0:0:0:0:
96,192,2720,1,0,0:0:0:0:
160,192,2837,1,0,0:0:0:0:
224,192,2954,1,0,0:0:0:0:
288,192,3071,1,0,0:0:0:0:
352,192,3189,1,0,0:0:0:0:
416,192,3306,1,0,0:0:0:0:
32,192,3423,1,0,0:0:0:0:
480,192,3423,1,0,0:0:0:0:
352,192,3540,1,0,0:0:0:0:
224,192,3657,1,0,0:0:0:0:
160,192,3775,1,0,0:0:0:0:
224,192,3892,1,0,0:0:0:0:
288,192,4009,1,0,0:0:0:0:
352,192,4126,1,0,0:0:0:0:
96,192,4361,1,0,0:0:0:0:
224,192,4595,1,0,0:0:0:0:
352,192,4829,1,0,0:0:0:0:
224,192,4946,1,0,0:0:0:0:
96,192,5064,1,0,0:0:0:0:
416,192,5181,1,0,0:0:0:0:
288,192,5298,1,0,0:0:0:0:
160,192,5415,1,0,0:0:0:0:
96,192,5532,1,0,0:0:0:0:
288,192,5767,1,0,0:0:0:0:
224,192,5884,1,0,0:0:0:0:
288,192,6001,1,0,0:0:0:0:
224,192,6118,1,0,0:0:0:0:
160,192,6236,1,0,0:0:0:0:
32,192,6236,1,0,0:0:0:0:
288,192,6353,1,0,0:0:0:0:
416,192,6470,1,0,0:0:0:0:
352,192,6587,1,0,0:0:0:0:
224,192,6704,1,0,0:0:0:0:
96,192,6821,1,0,0:0:0:0:
160,192,6939,1,0,0:0:0:0:
288,192,7056,1,0,0:0:0:0:
416,192,7173,1,0,0:0:0:0:
352,192,7290,1,0,0:0:0:0:
224,192,7407,1,0,0:0:0:0:
96,192,7525,1,0,0:0:0:0:
160,192,7642,1,0,0:0:0:0:
288,192,7759,1,0,0:0:0:0:
416,192,7876,1,0,0:0:0:0:
352,192,7993,1,0,0:0:0:0:
224,192,8111,1,0,0:0:0:0:
96,192,8228,1,0,0:0:0:0:
160,192,8345,1,0,0:0:0:0:
224,192,8462,1,0,0:0:0:0:
288,192,8579,1,0,0:0:0:0:
352,192,8696,1,0,0:0:0:0:
416,192,8814,1,0,0:0:0:0:
480,192,8931,1,0,0:0:0:0:
32,192,9048,1,4,0:0:0:0:
416,192,9048,1,0,0:0:0:0:
288,192,9165,1,0,0:0:0:0:
160,192,9282,1,0,0:0:0:0:
480,192,9400,1,0,0:0:0:0:
352,192,9517,1,0,0:0:0:0:
224,192,9634,1,0,0:0:0:0:
96,192,9751,1,0,0:0:0:0:
288,192,9986,1,0,0:0:0:0:
480,192,10220,1,0,0:0:0:0:
96,192,10454,1,0,0:0:0:0:
160,192,10571,1,0,0:0:0:0:
224,192,10689,1,0,0:0:0:0:
288,192,10806,1,0,0:0:0:0:
352,192,10923,1,0,0:0:0:0:
416,192,11040,1,0,0:0:0:0:
480,192,11157,1,0,0:0:0:0:
224,192,11157,1,0,0:0:0:0:
352,192,11392,1,0,0:0:0:0:
96,192,11392,1,0,0:0:0:0:
224,192,11626,1,0,0:0:0:0:
480,192,11626,1,0,0:0:0:0:
480,192,11861,1,0,0:0:0:0:
32,192,11861,1,0,0:0:0:0:
288,192,12095,1,0,0:0:0:0:
224,192,12212,1,0,0:0:0:0:
288,192,12329,1,0,0:0:0:0:
224,192,12446,1,0,0:0:0:0:
288,192,12564,1,0,0:0:0:0:
416,192,12564,1,0,0:0:0:0:
288,192,12798,1,0,0:0:0:0:
416,192,12798,1,0,0:0:0:0:
288,192,13032,1,0,0:0:0:0:
416,192,13032,1,0,0:0:0:0:
96,192,13267,1,0,0:0:0:0:
160,192,13384,1,0,0:0:0:0:
224,192,13501,1,0,0:0:0:0:
288,192,13618,1,0,0:0:0:0:
224,192,13736,1,0,0:0:0:0:
288,192,13853,1,0,0:0:0:0:
224,192,13970,1,0,0:0:0:0:
352,192,13970,1,0,0:0:0:0:
224,192,14204,1,0,0:0:0:0:
352,192,14204,1,0,0:0:0:0:
352,192,14439,1,0,0:0:0:0:
224,192,14439,1,0,0:0:0:0:
32,192,14673,1,0,0:0:0:0:
96,192,14673,1,0,0:0:0:0:
224,192,14907,1,0,0:0:0:0:
288,192,15025,1,0,0:0:0:0:
224,192,15142,1,0,0:0:0:0:
288,192,15259,1,0,0:0:0:0:
416,192,15376,1,0,0:0:0:0:
224,192,15376,1,0,0:0:0:0:
224,192,15611,1,0,0:0:0:0:
416,192,15611,1,0,0:0:0:0:
224,192,15845,1,0,0:0:0:0:
416,192,15845,1,0,0:0:0:0:
96,192,16079,1,0,0:0:0:0:
224,192,16079,1,0,0:0:0:0:
160,192,16314,1,0,0:0:0:0:
288,192,16314,1,0,0:0:0:0:
224,192,16548,1,0,0:0:0:0:
352,192,16548,1,0,0:0:0:0:
352,192,16782,1,0,0:0:0:0:
288,192,16841,1,0,0:0:0:0:
224,192,16900,1,0,0:0:0:0:
96,192,17017,1,0,0:0:0:0:
288,192,17017,1,0,0:0:0:0:
96,192,17251,1,0,0:0:0:0:
288,192,17251,1,0,0:0:0:0:
32,192,17486,1,0,0:0:0:0:
160,192,17486,1,0,0:0:0:0:
288,192,17486,1,0,0:0:0:0:
416,192,17720,1,0,0:0:0:0:
352,192,17837,1,0,0:0:0:0:
288,192,17954,1,0,0:0:0:0:
224,192,18071,1,0,0:0:0:0:
160,192,18189,1,0,0:0:0:0:
288,192,18423,1,0,0:0:0:0:
288,192,18657,1,0,0:0:0:0:
352,192,18775,1,0,0:0:0:0:
96,192,18892,1,0,0:0:0:0:
288,192,18892,1,0,0:0:0:0:
160,192,19126,1,0,0:0:0:0:
224,192,19243,1,0,0:0:0:0:
352,192,19478,1,0,0:0:0:0:
288,192,19595,1,0,0:0:0:0:
288,192,19829,1,0,0:0:0:0:
288,192,20064,1,0,0:0:0:0:
480,192,20298,1,0,0:0:0:0:
352,192,20532,1,0,0:0:0:0:
288,192,20650,1,0,0:0:0:0:
224,192,20767,1,0,0:0:0:0:
160,192,20884,1,0,0:0:0:0:
96,192,21001,1,0,0:0:0:0:
288,192,21236,1,0,0:0:0:0:
416,192,21470,1,0,0:0:0:0:
352,192,21587,1,0,0:0:0:0:
416,192,21704,1,0,0:0:0:0:
160,192,21939,1,0,0:0:0:0:
224,192,22056,1,0,0:0:0:0:
416,192,22173,1,0,0:0:0:0:
352,192,22290,1,0,0:0:0:0:
288,192,22407,1,0,0:0:0:0:
416,192,22642,1,0,0:0:0:0:
224,192,22876,1,0,0:0:0:0:
32,192,23111,1,0,0:0:0:0:
96,192,23111,1,0,0:0:0:0:
480,192,23345,1,0,0:0:0:0:
416,192,23462,1,0,0:0:0:0:
352,192,23579,1,0,0:0:0:0:
288,192,23696,1,0,0:0:0:0:
224,192,23814,1,0,0:0:0:0:
416,192,24048,1,0,0:0:0:0:
96,192,24282,1,0,0:0:0:0:
160,192,24400,1,0,0:0:0:0:
96,192,24517,1,0,0:0:0:0:
288,192,24517,1,0,0:0:0:0:
160,192,24868,1,0,0:0:0:0:
352,192,24868,1,0,0:0:0:0:
96,192,25220,1,0,0:0:0:0:
288,192,25220,1,0,0:0:0:0:
224,192,25571,1,0,0:0:0:0:
416,192,25571,1,0,0:0:0:0:
32,192,25923,1,0,0:0:0:0:
480,192,25923,1,0,0:0:0:0:
96,192,25923,1,0,0:0:0:0:
288,192,25923,1,0,0:0:0:0:
160,192,26275,1,0,0:0:0:0:
480,192,26275,1,0,0:0:0:0:
352,192,26275,1,0,0:0:0:0:
416,192,26626,1,0,0:0:0:0:
96,192,26626,1,0,0:0:0:0:
32,192,26626,1,0,0:0:0:0:
224,192,26626,1,0,0:0:0:0:
160,192,26978,1,0,0:0:0:0:
288,192,26978,1,0,0:0:0:0:
480,192,26978,1,0,0:0:0:0:
352,192,27329,1,0,0:0:0:0:
288,192,27446,1,0,0:0:0:0:
224,192,27564,1,0,0:0:0:0:
160,192,27681,1,0,0:0:0:0:
352,192,27798,1,0,0:0:0:0:
288,192,27915,1,0,0:0:0:0:
32,192,28032,128,0,28736:0:0:0:0:
224,192,28032,128,0,28736:0:0:0:0:
160,192,28736,1,0,0:0:0:0:
416,192,28970,1,0,0:0:0:0:
288,192,29204,1,0,0:0:0:0:
160,192,29439,1,0,0:0:0:0:
96,192,29673,1,0,0:0:0:0:
160,192,29907,1,0,0:0:0:0:
224,192,30142,1,0,0:0:0:0:
416,192,30376,1,0,0:0:0:0:
288,192,30611,1,0,0:0:0:0:
96,192,30845,1,0,0:0:0:0:
224,192,30962,1,0,0:0:0:0:
480,192,31079,1,0,0:0:0:0:
352,192,31196,1,0,0:0:0:0:
32,192,31314,1,0,0:0:0:0:
416,192,31548,1,0,0:0:0:0:
288,192,31782,1,0,0:0:0:0:
160,192,32017,1,0,0:0:0:0:
96,192,32251,1,0,0:0:0:0:
160,192,32486,1,0,0:0:0:0:
224,192,32720,1,0,0:0:0:0:
416,192,32954,1,0,0:0:0:0:
288,192,33189,1,0,0:0:0:0:
96,192,33423,1,0,0:0:0:0:
224,192,33540,1,0,0:0:0:0:
352,192,33657,1,0,0:0:0:0:
480,192,33775,1,0,0:0:0:0:
32,192,33892,1,0,0:0:0:0:
416,192,34126,1,0,0:0:0:0:
288,192,34360,1,0,0:0:0:0:
160,192,34595,1,0,0:0:0:0:
96,192,34829,1,0,0:0:0:0:
160,192,35064,1,0,0:0:0:0:
224,192,35298,1,0,0:0:0:0:
480,192,35532,1,0,0:0:0:0:
352,192,35767,1,0,0:0:0:0:
480,192,36001,1,0,0:0:0:0:
288,192,36001,1,0,0:0:0:0:
224,192,36236,1,0,0:0:0:0:
416,192,36236,1,0,0:0:0:0:
160,192,36470,1,0,0:0:0:0:
352,192,36470,1,0,0:0:0:0:
224,192,36704,1,0,0:0:0:0:
96,192,36704,1,0,0:0:0:0:
32,192,36704,1,0,0:0:0:0:
288,192,36939,1,0,0:0:0:0:
160,192,37056,1,0,0:0:0:0:
288,192,37173,1,0,0:0:0:0:
160,192,37290,1,0,0:0:0:0:
288,192,37407,1,0,0:0:0:0:
416,192,37642,1,0,0:0:0:0:
288,192,37642,1,0,0:0:0:0:
224,192,37876,1,0,0:0:0:0:
352,192,37876,1,0,0:0:0:0:
160,192,38111,1,0,0:0:0:0:
288,192,38111,1,0,0:0:0:0:
288,192,38345,1,0,0:0:0:0:
160,192,38462,1,0,0:0:0:0:
288,192,38579,1,0,0:0:0:0:
160,192,38696,1,0,0:0:0:0:
288,192,38814,1,0,0:0:0:0:
96,192,39048,1,0,0:0:0:0:
288,192,39282,1,0,0:0:0:0:
352,192,39400,1,0,0:0:0:0:
416,192,39517,1,0,0:0:0:0:
416,192,39868,1,0,0:0:0:0:
224,192,39868,1,0,0:0:0:0:
416,192,40220,1,0,0:0:0:0:
224,192,40220,1,0,0:0:0:0:
160,192,40337,1,0,0:0:0:0:
224,192,40454,1,0,0:0:0:0:
288,192,40571,1,0,0:0:0:0:
352,192,40689,1,0,0:0:0:0:
480,192,40806,1,0,0:0:0:0:
352,192,41040,1,0,0:0:0:0:
160,192,41040,1,0,0:0:0:0:
160,192,41275,1,0,0:0:0:0:
352,192,41275,1,0,0:0:0:0:
160,192,41509,1,0,0:0:0:0:
352,192,41509,1,0,0:0:0:0:
352,192,41626,1,0,0:0:0:0:
288,192,41743,1,0,0:0:0:0:
224,192,41861,1,0,0:0:0:0:
160,192,41978,1,0,0:0:0:0:
224,192,42095,1,0,0:0:0:0:
288,192,42212,1,0,0:0:0:0:
352,192,42329,1,0,0:0:0:0:
32,192,42329,1,0,0:0:0:0:
96,192,42564,1,0,0:0:0:0:
160,192,42681,1,0,0:0:0:0:
224,192,42798,1,0,0:0:0:0:
288,192,42915,1,0,0:0:0:0:
480,192,43032,1,0,0:0:0:0:
288,192,43267,1,0,0:0:0:0:
96,192,43501,1,0,0:0:0:0:
480,192,43736,1,0,0:0:0:0:
224,192,43853,1,0,0:0:0:0:
288,192,43970,1,0,0:0:0:0:
352,192,44087,1,0,0:0:0:0:
416,192,44204,1,0,0:0:0:0:
480,192,44321,1,0,0:0:0:0:
352,192,44439,1,0,0:0:0:0:
224,192,44673,1,0,0:0:0:0:
96,192,44907,1,0,0:0:0:0:
416,192,45142,1,0,0:0:0:0:
352,192,45259,1,0,0:0:0:0:
416,192,45376,1,0,0:0:0:0:
480,192,45493,1,0,0:0:0:0:
416,192,45611,1,0,0:0:0:0:
352,192,45728,1,0,0:0:0:0:
224,192,45845,1,0,0:0:0:0:
160,192,45962,1,0,0:0:0:0:
96,192,46079,1,0,0:0:0:0:
160,192,46196,1,0,0:0:0:0:
224,192,46314,1,0,0:0:0:0:
160,192,46431,1,0,0:0:0:0:
288,192,46548,1,0,0:0:0:0:
352,192,46665,1,0,0:0:0:0:
416,192,46782,1,0,0:0:0:0:
352,192,46900,1,0,0:0:0:0:
288,192,47017,1,0,0:0:0:0:
352,192,47134,1,0,0:0:0:0:
416,192,47251,1,0,0:0:0:0:
352,192,47368,1,0,0:0:0:0:
288,192,47486,1,0,0:0:0:0:
224,192,47603,1,0,0:0:0:0:
160,192,47720,1,0,0:0:0:0:
96,192,47837,1,0,0:0:0:0:
32,192,47954,1,0,0:0:0:0:
160,192,47954,1,0,0:0:0:0:
416,192,48189,1,0,0:0:0:0:
352,192,48306,1,0,0:0:0:0:
288,192,48423,1,0,0:0:0:0:
224,192,48540,1,0,0:0:0:0:
160,192,48657,1,0,0:0:0:0:
288,192,48657,1,0,0:0:0:0:
224,192,48892,1,0,0:0:0:0:
352,192,48892,1,0,0:0:0:0:
288,192,49126,1,0,0:0:0:0:
416,192,49126,1,0,0:0:0:0:
160,192,49361,1,0,0:0:0:0:
416,192,49478,1,0,0:0:0:0:
352,192,49595,1,0,0:0:0:0:
288,192,49712,1,0,0:0:0:0:
224,192,49829,1,0,0:0:0:0:
160,192,49946,1,0,0:0:0:0:
288,192,50064,1,0,0:0:0:0:
96,192,50064,1,0,0:0:0:0:
352,192,50298,1,0,0:0:0:0:
160,192,50298,1,0,0:0:0:0:
224,192,50532,1,0,0:0:0:0:
416,192,50532,1,0,0:0:0:0:
288,192,50767,1,0,0:0:0:0:
224,192,50884,1,0,0:0:0:0:
288,192,51001,1,0,0:0:0:0:
352,192,51118,1,0,0:0:0:0:
288,192,51236,1,0,0:0:0:0:
224,192,51353,1,0,0:0:0:0:
352,192,51470,1,0,0:0:0:0:
288,192,51587,1,0,0:0:0:0:
352,192,51704,1,0,0:0:0:0:
416,192,51821,1,0,0:0:0:0:
352,192,51939,1,0,0:0:0:0:
288,192,52056,1,0,0:0:0:0:
224,192,52173,1,0,0:0:0:0:
160,192,52290,1,0,0:0:0:0:
224,192,52407,1,0,0:0:0:0:
288,192,52525,1,0,0:0:0:0:
224,192,52642,1,0,0:0:0:0:
160,192,52759,1,0,0:0:0:0:
96,192,52876,1,0,0:0:0:0:
160,192,52993,1,0,0:0:0:0:
224,192,53111,1,0,0:0:0:0:
288,192,53228,1,0,0:0:0:0:
352,192,53345,1,0,0:0:0:0:
416,192,53462,1,0,0:0:0:0:
480,192,53579,1,0,0:0:0:0:
32,192,53579,1,0,0:0:0:0:
224,192,53814,1,0,0:0:0:0:
352,192,53814,1,0,0:0:0:0:
160,192,54048,1,0,0:0:0:0:
288,192,54165,1,0,0:0:0:0:
416,192,54282,1,0,0:0:0:0:
224,192,54517,1,0,0:0:0:0:
352,192,54517,1,0,0:0:0:0:
480,192,54751,1,0,0:0:0:0:
288,192,54751,1,0,0:0:0:0:
32,192,54751,1,0,0:0:0:0:
224,192,54986,1,0,0:0:0:0:
416,192,54986,1,0,0:0:0:0:
32,192,54986,1,0,0:0:0:0:
160,192,55220,1,0,0:0:0:0:
352,192,55220,1,0,0:0:0:0:
32,192,55220,1,0,0:0:0:0:
96,192,55454,1,0,0:0:0:0:
160,192,55571,1,0,0:0:0:0:
224,192,55689,1,0,0:0:0:0:
288,192,55806,1,0,0:0:0:0:
352,192,55923,1,0,0:0:0:0:
416,192,56040,1,0,0:0:0:0:
480,192,56157,1,0,0:0:0:0:
224,192,56392,1,0,0:0:0:0:
416,192,56392,1,0,0:0:0:0:
32,192,56392,1,0,0:0:0:0:
160,192,56626,1,0,0:0:0:0:
352,192,56626,1,0,0:0:0:0:
32,192,56626,1,0,0:0:0:0:
96,192,56861,1,0,0:0:0:0:
288,192,56861,1,0,0:0:0:0:
32,192,56861,1,0,0:0:0:0:
224,192,56978,1,0,0:0:0:0:
288,192,57095,1,0,0:0:0:0:
352,192,57212,1,0,0:0:0:0:
224,192,57329,1,0,0:0:0:0:
288,192,57446,1,0,0:0:0:0:
352,192,57564,1,0,0:0:0:0:
416,192,57681,1,0,0:0:0:0:
480,192,57798,1,0,0:0:0:0:
32,192,58032,1,0,0:0:0:0:
352,192,58032,1,0,0:0:0:0:
160,192,58032,1,0,0:0:0:0:
32,192,58267,1,0,0:0:0:0:
224,192,58267,1,0,0:0:0:0:
416,192,58267,1,0,0:0:0:0:
32,192,58501,1,0,0:0:0:0:
288,192,58501,1,0,0:0:0:0:
480,192,58501,1,0,0:0:0:0:
96,192,58736,1,0,0:0:0:0:
160,192,58853,1,0,0:0:0:0:
352,192,58853,1,0,0:0:0:0:
32,192,58853,1,0,0:0:0:0:
224,192,59087,1,0,0:0:0:0:
32,192,59204,1,0,0:0:0:0:
288,192,59204,1,0,0:0:0:0:
480,192,59204,1,0,0:0:0:0:
96,192,59439,1,0,0:0:0:0:
160,192,59556,1,0,0:0:0:0:
416,192,59556,1,0,0:0:0:0:
32,192,59556,1,0,0:0:0:0:
224,192,59790,1,0,0:0:0:0:
288,192,59907,1,0,0:0:0:0:
480,192,59907,1,0,0:0:0:0:
32,192,59907,1,0,0:0:0:0:
96,192,60142,1,0,0:0:0:0:
160,192,60259,1,0,0:0:0:0:
224,192,60376,1,0,0:0:0:0:
288,192,60493,1,0,0:0:0:0:
352,192,60611,1,0,0:0:0:0:
416,192,60728,1,0,0:0:0:0:
480,192,60845,1,0,0:0:0:0:
224,192,61079,1,0,0:0:0:0:
352,192,61079,1,0,0:0:0:0:
32,192,61079,1,0,0:0:0:0:
160,192,61314,1,0,0:0:0:0:
288,192,61314,1,0,0:0:0:0:
32,192,61314,1,0,0:0:0:0:
96,192,61548,1,0,0:0:0:0:
224,192,61548,1,0,0:0:0:0:
32,192,61548,1,0,0:0:0:0:
160,192,61782,1,0,0:0:0:0:
224,192,61900,1,0,0:0:0:0:
288,192,62017,1,0,0:0:0:0:
160,192,62134,1,0,0:0:0:0:
224,192,62251,1,0,0:0:0:0:
288,192,62368,1,0,0:0:0:0:
352,192,62486,1,0,0:0:0:0:
480,192,62720,1,0,0:0:0:0:
224,192,62720,1,0,0:0:0:0:
32,192,62720,1,0,0:0:0:0:
416,192,62954,1,0,0:0:0:0:
288,192,62954,1,0,0:0:0:0:
32,192,62954,1,0,0:0:0:0:
160,192,63189,1,0,0:0:0:0:
352,192,63189,1,0,0:0:0:0:
32,192,63189,1,0,0:0:0:0:
160,192,63423,1,0,0:0:0:0:
224,192,63540,1,0,0:0:0:0:
288,192,63657,1,0,0:0:0:0:
224,192,63775,1,0,0:0:0:0:
288,192,63892,1,0,0:0:0:0:
352,192,64009,1,0,0:0:0:0:
416,192,64126,1,0,0:0:0:0:
288,192,64361,1,0,0:0:0:0:
480,192,64361,1,0,0:0:0:0:
32,192,64361,1,0,0:0:0:0:
160,192,64595,1,0,0:0:0:0:
416,192,64595,1,0,0:0:0:0:
32,192,64595,1,0,0:0:0:0:
224,192,64829,1,0,0:0:0:0:
352,192,64829,1,0,0:0:0:0:
32,192,64829,1,0,0:0:0:0:
160,192,65181,1,0,0:0:0:0:
288,192,65181,1,0,0:0:0:0:
32,192,65181,1,0,0:0:0:0:
352,192,65532,1,0,0:0:0:0:
480,192,65532,1,0,0:0:0:0:
32,192,65532,1,0,0:0:0:0:
288,192,65884,1,0,0:0:0:0:
416,192,65884,1,0,0:0:0:0:
32,192,65884,1,0,0:0:0:0:
416,192,66236,1,0,0:0:0:0:
32,192,66236,1,0,0:0:0:0:
288,192,66353,1,0,0:0:0:0:
160,192,66470,1,0,0:0:0:0:
352,192,66587,1,0,0:0:0:0:
32,192,66587,1,0,0:0:0:0:
224,192,66704,1,0,0:0:0:0:
96,192,66821,1,0,0:0:0:0:
32,192,66939,1,0,0:0:0:0:
480,192,66939,1,0,0:0:0:0:
352,192,67056,1,0,0:0:0:0:
288,192,67114,1,0,0:0:0:0:
224,192,67173,1,0,0:0:0:0:
96,192,67290,1,0,0:0:0:0:
32,192,67290,1,0,0:0:0:0:
160,192,67407,1,0,0:0:0:0:
224,192,67525,1,0,0:0:0:0:
288,192,67642,1,0,0:0:0:0:
32,192,67642,1,0,0:0:0:0:
160,192,67642,1,0,0:0:0:0:
416,192,67642,1,0,0:0:0:0:
288,192,67876,1,0,0:0:0:0:
224,192,67993,1,0,0:0:0:0:
160,192,68111,1,0,0:0:0:0:
224,192,68228,1,0,0:0:0:0:
288,192,68345,1,0,0:0:0:0:
416,192,68345,1,0,0:0:0:0:
352,192,68579,1,0,0:0:0:0:
160,192,68579,1,0,0:0:0:0:
224,192,68814,1,0,0:0:0:0:
480,192,68814,1,0,0:0:0:0:
288,192,69048,1,0,0:0:0:0:
352,192,69165,1,0,0:0:0:0:
416,192,69282,1,0,0:0:0:0:
160,192,69400,1,0,0:0:0:0:
224,192,69517,1,0,0:0:0:0:
288,192,69634,1,0,0:0:0:0:
352,192,69751,1,0,0:0:0:0:
160,192,69751,1,0,0:0:0:0:
224,192,69986,1,0,0:0:0:0:
416,192,69986,1,0,0:0:0:0:
96,192,70220,1,0,0:0:0:0:
352,192,70220,1,0,0:0:0:0:
32,192,70454,1,0,0:0:0:0:
224,192,70454,1,0,0:0:0:0:
416,192,70454,1,0,0:0:0:0:
160,192,70689,1,0,0:0:0:0:
224,192,70806,1,0,0:0:0:0:
288,192,70923,1,0,0:0:0:0:
352,192,71040,1,0,0:0:0:0:
416,192,71157,1,0,0:0:0:0:
224,192,71157,1,0,0:0:0:0:
160,192,71392,1,0,0:0:0:0:
352,192,71392,1,0,0:0:0:0:
96,192,71626,1,0,0:0:0:0:
288,192,71626,1,0,0:0:0:0:
160,192,71743,1,0,0:0:0:0:
224,192,71861,1,0,0:0:0:0:
160,192,71978,1,0,0:0:0:0:
96,192,72095,1,0,0:0:0:0:
224,192,72212,1,0,0:0:0:0:
160,192,72329,1,0,0:0:0:0:
96,192,72446,1,0,0:0:0:0:
224,192,72564,1,0,0:0:0:0:
416,192,72564,1,0,0:0:0:0:
160,192,72798,1,0,0:0:0:0:
352,192,72798,1,0,0:0:0:0:
96,192,73032,1,0,0:0:0:0:
288,192,73032,1,0,0:0:0:0:
160,192,73150,1,0,0:0:0:0:
224,192,73267,1,0,0:0:0:0:
32,192,73267,1,0,0:0:0:0:
416,192,73267,1,0,0:0:0:0:
160,192,73501,1,0,0:0:0:0:
352,192,73501,1,0,0:0:0:0:
224,192,73618,1,0,0:0:0:0:
416,192,73618,1,0,0:0:0:0:
288,192,73736,1,0,0:0:0:0:
480,192,73736,1,0,0:0:0:0:
224,192,73853,1,0,0:0:0:0:
416,192,73853,1,0,0:0:0:0:
160,192,73970,1,0,0:0:0:0:
352,192,73970,1,0,0:0:0:0:
160,192,74204,1,0,0:0:0:0:
352,192,74204,1,0,0:0:0:0:
96,192,74439,1,0,0:0:0:0:
224,192,74439,1,0,0:0:0:0:
288,192,74556,1,0,0:0:0:0:
352,192,74673,1,0,0:0:0:0:
160,192,74673,1,0,0:0:0:0:
288,192,74790,1,0,0:0:0:0:
352,192,74907,1,0,0:0:0:0:
416,192,75025,1,0,0:0:0:0:
480,192,75142,1,0,0:0:0:0:
416,192,75259,1,0,0:0:0:0:
352,192,75376,1,0,0:0:0:0:
160,192,75376,1,0,0:0:0:0:
96,192,75611,1,0,0:0:0:0:
288,192,75611,1,0,0:0:0:0:
160,192,75845,1,0,0:0:0:0:
352,192,75845,1,0,0:0:0:0:
32,192,76079,1,0,0:0:0:0:
224,192,76079,1,0,0:0:0:0:
416,192,76079,1,0,0:0:0:0:
32,192,76782,1,0,0:0:0:0:
480,192,76782,1,0,0:0:0:0:
416,192,76900,1,0,0:0:0:0:
352,192,77017,1,0,0:0:0:0:
288,192,77134,1,0,0:0:0:0:
224,192,77251,1,0,0:0:0:0:
160,192,77368,1,0,0:0:0:0:
32,192,77486,1,0,0:0:0:0:
96,192,77486,1,0,0:0:0:0:
224,192,77486,1,0,0:0:0:0:
288,192,77603,1,0,0:0:0:0:
416,192,77603,1,0,0:0:0:0:
32,192,77720,1,0,0:0:0:0:
96,192,77720,1,0,0:0:0:0:
224,192,77720,1,0,0:0:0:0:
288,192,77837,1,0,0:0:0:0:
416,192,77837,1,0,0:0:0:0:
96,192,77954,1,0,0:0:0:0:
32,192,77954,1,0,0:0:0:0:
224,192,77954,1,0,0:0:0:0:
288,192,78071,1,0,0:0:0:0:
416,192,78071,1,0,0:0:0:0:
32,192,78189,1,0,0:0:0:0:
96,192,78189,1,0,0:0:0:0:
224,192,78189,1,0,0:0:0:0:
480,192,78423,1,0,0:0:0:0:
32,192,78423,1,0,0:0:0:0:
416,192,78540,1,0,0:0:0:0:
352,192,78657,1,0,0:0:0:0:
32,192,78657,1,0,0:0:0:0:
288,192,78775,1,0,0:0:0:0:
32,192,78892,1,4,0:0:0:0:
224,192,78892,1,0,0:0:0:0:
96,192,78892,1,0,0:0:0:0:
160,192,79126,1,0,0:0:0:0:
224,192,79243,1,0,0:0:0:0:
288,192,79361,1,0,0:0:0:0:
352,192,79478,1,0,0:0:0:0:
416,192,79595,1,0,0:0:0:0:
288,192,79595,1,0,0:0:0:0:
224,192,79829,1,0,0:0:0:0:
352,192,79829,1,0,0:0:0:0:
160,192,80064,1,0,0:0:0:0:
288,192,80064,1,0,0:0:0:0:
416,192,80298,1,0,0:0:0:0:
96,192,80415,1,0,0:0:0:0:
160,192,80532,1,0,0:0:0:0:
224,192,80650,1,0,0:0:0:0:
288,192,80767,1,0,0:0:0:0:
352,192,80884,1,0,0:0:0:0:
416,192,81001,1,0,0:0:0:0:
288,192,81001,1,0,0:0:0:0:
224,192,81236,1,0,0:0:0:0:
352,192,81236,1,0,0:0:0:0:
160,192,81470,1,0,0:0:0:0:
288,192,81470,1,0,0:0:0:0:
160,192,81704,1,0,0:0:0:0:
288,192,81821,1,0,0:0:0:0:
416,192,81939,1,0,0:0:0:0:
288,192,82056,1,0,0:0:0:0:
160,192,82173,1,0,0:0:0:0:
288,192,82290,1,0,0:0:0:0:
480,192,82407,1,0,0:0:0:0:
288,192,82525,1,0,0:0:0:0:
96,192,82642,1,0,0:0:0:0:
288,192,82759,1,0,0:0:0:0:
480,192,82876,1,0,0:0:0:0:
288,192,82993,1,0,0:0:0:0:
96,192,83111,1,0,0:0:0:0:
224,192,83228,1,0,0:0:0:0:
352,192,83345,1,0,0:0:0:0:
480,192,83462,1,0,0:0:0:0:
352,192,83579,1,0,0:0:0:0:
224,192,83696,1,0,0:0:0:0:
96,192,83814,1,0,0:0:0:0:
416,192,83931,1,0,0:0:0:0:
352,192,84048,1,0,0:0:0:0:
288,192,84165,1,0,0:0:0:0:
224,192,84282,1,0,0:0:0:0:
160,192,84400,1,0,0:0:0:0:
96,192,84517,1,0,0:0:0:0:
32,192,84517,1,0,0:0:0:0:
224,192,84751,1,0,0:0:0:0:
288,192,84868,1,0,0:0:0:0:
352,192,84985,1,0,0:0:0:0:
416,192,85103,1,0,0:0:0:0:
32,192,85220,1,0,0:0:0:0:
480,192,85220,1,0,0:0:0:0:
288,192,85220,1,0,0:0:0:0:
416,192,85454,1,0,0:0:0:0:
224,192,85454,1,0,0:0:0:0:
352,192,85689,1,0,0:0:0:0:
160,192,85689,1,0,0:0:0:0:
32,192,85923,1,0,0:0:0:0:
480,192,85923,1,0,0:0:0:0:
96,192,86040,1,0,0:0:0:0:
160,192,86157,1,0,0:0:0:0:
224,192,86275,1,0,0:0:0:0:
288,192,86392,1,0,0:0:0:0:
352,192,86509,1,0,0:0:0:0:
32,192,86626,1,0,0:0:0:0:
416,192,86626,1,0,0:0:0:0:
224,192,86626,1,0,0:0:0:0:
160,192,86861,1,0,0:0:0:0:
352,192,86861,1,0,0:0:0:0:
96,192,87095,1,0,0:0:0:0:
288,192,87095,1,0,0:0:0:0:
32,192,87329,5,0,0:0:0:0:
288,192,87329,1,0,0:0:0:0:
224,192,87446,1,0,0:0:0:0:
32,192,87564,1,0,0:0:0:0:
288,192,87564,1,0,0:0:0:0:
352,192,87681,1,0,0:0:0:0:
32,192,87798,1,0,0:0:0:0:
288,192,87798,1,0,0:0:0:0:
224,192,87915,1,0,0:0:0:0:
32,192,88032,1,0,0:0:0:0:
160,192,88032,1,0,0:0:0:0:
224,192,88150,1,0,0:0:0:0:
32,192,88267,1,0,0:0:0:0:
160,192,88267,1,0,0:0:0:0:
96,192,88384,1,0,0:0:0:0:
32,192,88501,1,0,0:0:0:0:
160,192,88501,1,0,0:0:0:0:
224,192,88618,1,0,0:0:0:0:
32,192,88736,1,0,0:0:0:0:
288,192,88736,1,0,0:0:0:0:
352,192,88853,1,0,0:0:0:0:
32,192,88970,1,0,0:0:0:0:
288,192,88970,1,0,0:0:0:0:
224,192,89087,1,0,0:0:0:0:
32,192,89204,1,0,0:0:0:0:
288,192,89204,1,0,0:0:0:0:
352,192,89321,1,0,0:0:0:0:
32,192,89439,1,0,0:0:0:0:
416,192,89439,1,0,0:0:0:0:
352,192,89556,1,0,0:0:0:0:
32,192,89673,1,0,0:0:0:0:
288,192,89673,1,0,0:0:0:0:
224,192,89790,1,0,0:0:0:0:
32,192,89907,1,0,0:0:0:0:
160,192,89907,1,0,0:0:0:0:
96,192,90025,1,0,0:0:0:0:
480,192,90142,1,0,0:0:0:0:
32,192,90142,1,0,0:0:0:0:
352,192,90142,1,0,0:0:0:0:
224,192,90142,1,0,0:0:0:0:
96,192,90376,1,0,0:0:0:0:
288,192,90376,1,0,0:0:0:0:
160,192,90611,1,0,0:0:0:0:
288,192,90728,1,0,0:0:0:0:
416,192,90845,1,0,0:0:0:0:
224,192,91080,1,0,0:0:0:0:
352,192,91080,1,0,0:0:0:0:
480,192,91314,1,0,0:0:0:0:
32,192,91314,1,0,0:0:0:0:
288,192,91314,1,0,0:0:0:0:
224,192,91549,1,0,0:0:0:0:
416,192,91549,1,0,0:0:0:0:
32,192,91549,1,0,0:0:0:0:
160,192,91783,1,0,0:0:0:0:
352,192,91783,1,0,0:0:0:0:
32,192,91783,1,0,0:0:0:0:
96,192,92017,1,0,0:0:0:0:
160,192,92134,1,0,0:0:0:0:
224,192,92252,1,0,0:0:0:0:
288,192,92369,1,0,0:0:0:0:
352,192,92486,1,0,0:0:0:0:
416,192,92603,1,0,0:0:0:0:
480,192,92720,1,0,0:0:0:0:
224,192,92955,1,0,0:0:0:0:
416,192,92955,1,0,0:0:0:0:
32,192,92955,1,0,0:0:0:0:
160,192,93189,1,0,0:0:0:0:
32,192,93189,1,0,0:0:0:0:
352,192,93189,1,0,0:0:0:0:
288,192,93424,1,0,0:0:0:0:
96,192,93424,1,0,0:0:0:0:
32,192,93424,1,0,0:0:0:0:
224,192,93541,1,0,0:0:0:0:
288,192,93658,1,0,0:0:0:0:
352,192,93775,1,0,0:0:0:0:
224,192,93892,1,0,0:0:0:0:
288,192,94009,1,0,0:0:0:0:
352,192,94127,1,0,0:0:0:0:
416,192,94244,1,0,0:0:0:0:
480,192,94361,1,0,0:0:0:0:
352,192,94595,1,0,0:0:0:0:
160,192,94595,1,0,0:0:0:0:
32,192,94595,1,0,0:0:0:0:
32,192,94830,1,0,0:0:0:0:
416,192,94830,1,0,0:0:0:0:
224,192,94830,1,0,0:0:0:0:
480,192,95064,1,0,0:0:0:0:
32,192,95064,1,0,0:0:0:0:
288,192,95064,1,0,0:0:0:0:
96,192,95299,1,0,0:0:0:0:
160,192,95416,1,0,0:0:0:0:
352,192,95416,1,0,0:0:0:0:
32,192,95416,1,0,0:0:0:0:
224,192,95650,1,0,0:0:0:0:
288,192,95767,1,0,0:0:0:0:
32,192,95767,1,0,0:0:0:0:
480,192,95767,1,0,0:0:0:0:
96,192,96002,1,0,0:0:0:0:
160,192,96119,1,0,0:0:0:0:
416,192,96119,1,0,0:0:0:0:
32,192,96119,1,0,0:0:0:0:
224,192,96353,1,0,0:0:0:0:
480,192,96470,1,0,0:0:0:0:
288,192,96470,1,0,0:0:0:0:
32,192,96470,1,0,0:0:0:0:
96,192,96705,1,0,0:0:0:0:
160,192,96822,1,0,0:0:0:0:
224,192,96939,1,0,0:0:0:0:
288,192,97056,1,0,0:0:0:0:
352,192,97174,1,0,0:0:0:0:
416,192,97291,1,0,0:0:0:0:
480,192,97408,1,0,0:0:0:0:
352,192,97642,1,0,0:0:0:0:
224,192,97642,1,0,0:0:0:0:
32,192,97642,1,0,0:0:0:0:
288,192,97877,1,0,0:0:0:0:
160,192,97877,1,0,0:0:0:0:
32,192,97877,1,0,0:0:0:0:
224,192,98111,1,0,0:0:0:0:
96,192,98111,1,0,0:0:0:0:
32,192,98111,1,0,0:0:0:0:
288,192,98345,1,0,0:0:0:0:
224,192,98423,1,0,0:0:0:0:
160,192,98501,1,0,0:0:0:0:
96,192,98579,1,0,0:0:0:0:
160,192,98697,1,0,0:0:0:0:
224,192,98814,1,0,0:0:0:0:
288,192,98931,1,0,0:0:0:0:
352,192,99049,1,0,0:0:0:0:
416,192,99165,1,0,0:0:0:0:
224,192,99283,1,0,0:0:0:0:
480,192,99283,1,0,0:0:0:0:
32,192,99283,1,0,0:0:0:0:
416,192,99400,1,0,0:0:0:0:
352,192,99517,1,0,0:0:0:0:
32,192,99517,1,0,0:0:0:0:
288,192,99634,1,0,0:0:0:0:
160,192,99752,1,0,0:0:0:0:
352,192,99752,1,0,0:0:0:0:
32,192,99752,1,0,0:0:0:0:
160,192,99986,1,0,0:0:0:0:
224,192,100103,1,0,0:0:0:0:
288,192,100220,1,0,0:0:0:0:
224,192,100338,1,0,0:0:0:0:
288,192,100455,1,0,0:0:0:0:
352,192,100572,1,0,0:0:0:0:
416,192,100689,1,0,0:0:0:0:
32,192,100924,1,0,0:0:0:0:
480,192,100924,1,0,0:0:0:0:
288,192,100924,1,0,0:0:0:0:
416,192,101158,1,0,0:0:0:0:
160,192,101158,1,0,0:0:0:0:
32,192,101158,1,0,0:0:0:0:
224,192,101392,1,0,0:0:0:0:
352,192,101392,1,0,0:0:0:0:
32,192,101392,1,0,0:0:0:0:
288,192,101744,1,0,0:0:0:0:
160,192,101744,1,0,0:0:0:0:
32,192,101744,1,0,0:0:0:0:
352,192,102095,1,0,0:0:0:0:
480,192,102095,1,0,0:0:0:0:
32,192,102095,1,0,0:0:0:0:
32,192,102447,1,0,0:0:0:0:
288,192,102447,1,0,0:0:0:0:
416,192,102447,1,0,0:0:0:0:
32,192,102799,1,0,0:0:0:0:
416,192,102799,1,0,0:0:0:0:
288,192,102916,1,0,0:0:0:0:
160,192,103033,1,0,0:0:0:0:
352,192,103150,1,0,0:0:0:0:
32,192,103150,1,0,0:0:0:0:
224,192,103267,1,0,0:0:0:0:
96,192,103384,1,0,0:0:0:0:
480,192,103502,1,0,0:0:0:0:
32,192,103502,1,0,0:0:0:0:
352,192,103619,1,0,0:0:0:0:
288,192,103677,1,0,0:0:0:0:
224,192,103736,1,0,0:0:0:0:
32,192,103853,1,0,0:0:0:0:
96,192,103853,1,0,0:0:0:0:
160,192,103970,1,0,0:0:0:0:
224,192,104088,1,0,0:0:0:0:
288,192,104205,1,0,0:0:0:0:
160,192,104205,1,0,0:0:0:0:
416,192,104205,1,0,0:0:0:0:
32,192,104205,1,0,0:0:0:0:
352,192,104321,1,0,0:0:0:0:
288,192,104439,1,0,0:0:0:0:
224,192,104556,1,0,0:0:0:0:
160,192,104674,1,0,0:0:0:0:
224,192,104791,1,0,0:0:0:0:
288,192,104908,1,0,0:0:0:0:
224,192,105025,1,0,0:0:0:0:
160,192,105142,1,0,0:0:0:0:
96,192,105259,1,0,0:0:0:0:
160,192,105376,1,0,0:0:0:0:
224,192,105493,1,0,0:0:0:0:
96,192,105611,1,0,0:0:0:0:
160,192,105728,1,0,0:0:0:0:
224,192,105845,1,0,0:0:0:0:
288,192,105962,1,0,0:0:0:0:
352,192,106079,1,0,0:0:0:0:
288,192,106196,1,0,0:0:0:0:
480,192,106314,1,0,0:0:0:0:
224,192,106314,1,0,0:0:0:0:
160,192,106548,1,0,0:0:0:0:
416,192,106549,1,0,0:0:0:0:
352,192,106783,1,0,0:0:0:0:
96,192,106783,1,0,0:0:0:0:
160,192,106900,1,0,0:0:0:0:
416,192,106900,1,0,0:0:0:0:
32,192,107017,1,0,0:0:0:0:
224,192,107017,1,0,0:0:0:0:
480,192,107017,1,0,0:0:0:0:
96,192,107134,1,0,0:0:0:0:
160,192,107252,1,0,0:0:0:0:
224,192,107369,1,0,0:0:0:0:
288,192,107486,1,0,0:0:0:0:
352,192,107603,1,0,0:0:0:0:
416,192,107720,1,0,0:0:0:0:
480,192,107837,1,0,0:0:0:0:
96,192,107954,1,0,0:0:0:0:
160,192,108071,1,0,0:0:0:0:
224,192,108189,1,0,0:0:0:0:
288,192,108306,1,0,0:0:0:0:
352,192,108423,1,0,0:0:0:0:
416,192,108540,1,0,0:0:0:0:
160,192,108540,1,0,0:0:0:0:
160,192,108775,1,0,0:0:0:0:
416,192,108775,1,0,0:0:0:0:
32,192,109478,128,0,111353:0:0:0:0:
160,192,109478,128,0,111353:0:0:0:0:
416,192,109478,128,0,111353:0:0:0:0:
