osu file format v12

[General]
AudioFilename: Alstroemeria.mp3
AudioLeadIn: 1996
PreviewTime: 50350
Countdown: 0
SampleSet: Normal
StackLeniency: 0.7
Mode: 0
LetterboxInBreaks: 1

[Editor]
Bookmarks: 50350,57016,63683,80350,87016,93683,100350,107016
DistanceSpacing: 0.9
BeatDivisor: 8
GridSize: 4

[Metadata]
Title:Alstroemeria
TitleUnicode:アルストロメリア
Artist:TAG
ArtistUnicode:TAG
Creator:wring
Version:Extreme
Source:jubeat copious
Tags:Alstremeria pop'n music Sunny Park reflec beat collet spring numbers 596108
BeatmapID:130542
BeatmapSetID:41292

[Difficulty]
HPDrainRate:6
CircleSize:5
OverallDifficulty:7
ApproachRate:8
SliderMultiplier:2.1
SliderTickRate:1

[Events]
//Background and Video events
0,0,"meria.jpg",0,0
//Break Periods
2,63896,69404
//Storyboard Layer 0 (Background)
//Storyboard Layer 1 (Fail)
//Storyboard Layer 2 (Pass)
//Storyboard Layer 3 (Foreground)
//Storyboard Sound Samples
//Background Colour Transformations
3,100,163,162,255

[TimingPoints]
363,416.666666666667,4,1,1,65,1,0
12654,-100,4,1,1,70,0,0
12863,-100,4,1,1,75,0,0
13071,-100,4,1,1,60,0,0
13279,-100,4,1,1,65,0,0
13488,-100,4,1,1,70,0,0
13696,-100,4,1,1,65,0,0
14998,-100,4,1,1,70,0,0
16769,-100,4,1,1,65,0,0
17758,-100,4,1,1,75,0,0
18279,-66.6666666666667,4,1,1,75,0,0
18592,-100,4,1,1,75,0,0
18800,-100,4,1,1,65,0,0
19425,-100,4,1,1,75,0,0
20050,-100,4,1,1,65,0,0
33279,-100,4,1,1,70,0,0
33488,-100,4,1,1,75,0,0
33696,-100,4,1,1,80,0,0
33904,-100,4,1,1,65,0,0
39269,-100,4,2,1,65,0,0
39477,-100,4,1,1,65,0,0
49894,-100,4,1,1,85,0,0
50258,-100,4,2,1,65,0,0
55310,-100,4,1,1,65,0,0
56925,-100,4,2,1,65,0,0
62029,-100,4,1,1,75,0,0
62967,-100,4,1,1,65,0,0
70779,-80,4,1,1,65,0,0
71092,-100,4,1,1,65,0,0
71613,-80,4,1,1,65,0,0
71925,-100,4,1,1,65,0,0
74425,-100,4,1,1,60,0,0
75258,-100,4,1,1,65,0,0
76092,-100,4,1,1,70,0,0
77029,-100,4,1,1,65,0,0
79008,-80,4,1,1,65,0,0
79217,-100,4,1,1,65,0,0
79633,-133.333333333333,4,1,1,65,0,0
79946,-200,4,1,1,65,0,0
80154,-100,4,1,1,65,0,0
80310,-100,4,1,1,30,0,0
91196,-100,4,1,1,45,0,0
91404,-100,4,1,1,55,0,0
91613,-100,4,1,1,65,0,0
106560,-100,4,2,0,60,0,0
107029,-100,4,1,1,65,0,0
120363,-100,4,2,0,65,0,0
120779,-100,4,1,1,30,0,0

[Colours]
Combo1 : 187,119,255
Combo2 : 134,255,255
Combo3 : 255,186,117
Combo4 : 251,164,255

[HitObjects]
456,285,363,1,0,0:0:0:0:
456,285,467,1,0,0:0:0:0:
456,285,571,2,0,B|419:248,1,52.5
314,143,779,2,0,B|350:179,1,52.5
359,310,988,6,0,B|372:259,1,52.5
411,117,1196,2,0,B|397:167,1,52.5
288,240,1404,6,0,B|338:226,1,52.5
481,188,1612,2,0,B|430:201,1,52.5
232,308,1925,1,0,0:0:0:0:
38,256,2133,6,0,B|88:269,1,52.5
232,308,2341,2,0,B|181:294,1,52.5
109,185,2550,6,0,B|122:235,1,52.5
161,378,2758,2,0,B|147:327,1,52.5
206,211,2966,6,0,B|169:247,1,52.5
64,352,3174,2,0,B|100:315,2,52.5
284,204,3592,1,0,0:0:0:0:
328,8,3800,6,0,B|316:58,1,52.5
284,204,4009,2,0,B|295:153,1,52.5
401,76,4217,6,0,B|351:91,1,52.5
210,135,4425,2,0,B|259:119,1,52.5
379,174,4634,6,0,B|340:138,1,52.5
233,37,4842,2,0,B|271:72,2,52.5
352,308,5258,6,0,P|300:296|252:320,1,105
220,348,5571,1,0,0:0:0:0:
52,360,5779,2,0,B|40:304,1,52.5
128,216,6092,1,0,0:0:0:0:
148,172,6196,6,0,P|164:120|148:72,1,105
112,16,6508,1,0,0:0:0:0:
112,16,6613,2,0,B|224:56,1,105
432,124,7029,5,0,0:0:0:0:
432,124,7133,1,0,0:0:0:0:
432,124,7238,2,0,B|472:90,1,52.5
359,185,7446,2,0,B|318:218,1,52.5
440,170,7654,6,0,B|489:187,1,52.5
350,138,7863,2,0,B|300:120,1,52.5
403,201,8071,6,0,B|412:252,1,52.5
387,107,8279,2,0,B|377:55,1,52.5
132,148,8592,1,0,0:0:0:0:
60,87,8801,6,0,B|19:53,1,52.5
132,148,9009,2,0,B|172:181,1,52.5
104,71,9217,6,0,B|113:19,1,52.5
88,164,9426,2,0,B|78:215,1,52.5
141,102,9634,6,0,B|190:84,1,52.5
51,133,9842,2,0,B|1:150,2,52.5
288,248,10258,1,0,0:0:0:0:
227,321,10467,6,0,B|193:361,1,52.5
288,248,10675,2,0,B|321:207,1,52.5
210,277,10883,6,0,B|158:267,1,52.5
305,293,11092,2,0,B|356:302,1,52.5
242,241,11300,6,0,B|224:191,1,52.5
274,330,11508,2,0,B|291:379,2,52.5
492,304,11925,6,0,P|440:256|440:168,1,157.5
396,12,12446,1,0,0:0:0:0:
360,44,12550,1,0,0:0:0:0:
316,60,12654,1,0,0:0:0:0:
268,56,12758,1,0,0:0:0:0:
224,40,12863,2,0,B|188:4,1,52.5
120,28,13071,6,0,B|156:64,1,52.5
172,112,13279,1,0,0:0:0:0:
164,160,13383,1,0,0:0:0:0:
132,196,13488,1,0,0:0:0:0:
88,212,13592,1,0,0:0:0:0:
40,204,13696,6,0,B|-4:232|4:320|56:336,1,157.5
120,356,14113,2,0,B|232:344,1,105
336,84,14738,2,0,P|348:136|332:184,1,105
296,244,15050,2,0,B|320:236|348:232,1,52.5
396,228,15258,1,0,0:0:0:0:
440,240,15363,1,0,0:0:0:0:
180,28,15571,6,0,B|152:24|128:16,1,52.5
96,180,15883,1,0,0:0:0:0:
96,180,15988,2,0,P|100:236|80:292,1,105
24,312,16300,2,0,B|36:372,2,52.5
412,296,16821,5,0,0:0:0:0:
412,296,16925,1,0,0:0:0:0:
412,296,17029,2,0,P|364:316|304:320,1,105
260,368,17342,2,0,P|260:312|232:268,1,105
200,240,17654,1,0,0:0:0:0:
280,44,17863,2,0,P|332:60|384:56,1,105
440,24,18175,1,0,0:0:0:0:
440,24,18383,6,0,B|456:148|456:148|448:180|448:180,1,157.500006008148
456,228,18696,1,0,0:0:0:0:
296,312,18904,1,0,0:0:0:0:
300,264,19008,1,0,0:0:0:0:
212,108,19217,1,0,0:0:0:0:
220,156,19321,1,0,0:0:0:0:
52,224,19529,5,0,0:0:0:0:
48,176,19633,1,0,0:0:0:0:
20,136,19738,1,0,0:0:0:0:
28,88,19842,1,0,0:0:0:0:
120,356,20154,5,0,0:0:0:0:
120,356,20258,1,0,0:0:0:0:
120,356,20363,2,0,B|228:368,1,105
284,332,20675,2,0,P|312:288|312:236,1,105
284,172,20988,2,0,P|264:120|272:72,1,105
500,76,21404,5,0,0:0:0:0:
488,212,21613,1,0,0:0:0:0:
356,184,21821,1,0,0:0:0:0:
364,48,22029,1,0,0:0:0:0:
152,28,22238,1,0,0:0:0:0:
160,76,22342,1,0,0:0:0:0:
116,296,22550,1,0,0:0:0:0:
96,252,22654,1,0,0:0:0:0:
68,216,22758,1,0,0:0:0:0:
28,188,22863,6,0,P|108:192|176:156,1,157.5
208,124,23279,1,0,0:0:0:0:
292,16,23488,1,0,0:0:0:0:
292,16,23592,1,0,0:0:0:0:
292,16,23696,2,0,P|372:24|420:84,1,157.5
488,80,24113,2,0,B|464:132|492:184,1,105
436,364,24529,2,0,P|384:360|340:328,1,105
364,264,24842,1,0,0:0:0:0:
364,264,24946,2,0,P|312:316|228:336,1,157.5
184,332,25363,5,0,0:0:0:0:
80,244,25571,2,0,B|136:256,1,52.5
172,124,25883,2,0,B|116:136,1,52.5
48,16,26196,1,0,0:0:0:0:
88,40,26300,1,0,0:0:0:0:
136,48,26404,6,0,P|184:28|236:32,1,105
428,20,26821,1,0,0:0:0:0:
496,184,27029,2,0,P|388:200|304:148,1,210
168,280,27654,2,0,P|276:264|360:316,1,210
208,28,28488,5,0,0:0:0:0:
208,28,28592,2,0,P|144:76|64:72,1,157.5
28,56,29008,1,0,0:0:0:0:
180,200,29217,1,0,0:0:0:0:
216,232,29321,2,0,P|264:252|316:248,1,105
444,80,29738,1,0,0:0:0:0:
460,336,29946,2,0,P|468:284|452:236,1,105
320,28,30363,5,0,0:0:0:0:
12,88,30675,2,0,P|52:120|104:120,1,105
168,92,30988,2,0,B|136:104|116:148|124:184,1,105
264,200,31404,1,0,0:0:0:0:
72,324,31613,1,0,0:0:0:0:
212,340,31821,1,0,0:0:0:0:
256,352,31925,1,0,0:0:0:0:
304,360,32029,6,0,B|356:380|404:352,1,105
484,180,32446,2,0,B|464:200|460:228,1,52.5
380,56,32758,2,0,B|404:80|412:104,2,52.5
340,32,33071,5,0,0:0:0:0:
184,20,33279,1,0,0:0:0:0:
92,148,33488,1,0,0:0:0:0:
248,140,33696,6,0,B|272:216|204:304|144:308,1,210
40,312,34321,1,0,0:0:0:0:
240,360,34529,1,0,0:0:0:0:
240,360,34633,1,0,0:0:0:0:
240,360,34738,2,0,P|288:336|340:344,1,105
480,208,35154,2,0,P|392:256|288:224,1,210
232,44,35779,5,0,0:0:0:0:
108,240,36092,1,0,0:0:0:0:
148,216,36196,2,0,P|180:172|184:116,1,105
376,16,36613,1,0,0:0:0:0:
376,16,36925,6,0,P|348:112|372:220,1,210
392,260,37446,1,0,0:0:0:0:
312,364,37654,1,0,0:0:0:0:
264,360,37758,1,0,0:0:0:0:
216,352,37863,1,0,0:0:0:0:
80,280,38071,1,0,0:0:0:0:
128,276,38175,1,0,0:0:0:0:
176,268,38279,1,0,0:0:0:0:
292,188,38488,1,0,0:0:0:0:
244,180,38592,1,0,0:0:0:0:
196,172,38696,6,0,B|156:172|120:148|120:148|108:112|116:68,1,157.5
124,24,39113,1,0,0:0:0:0:
12,248,39321,1,0,0:0:0:0:
40,208,39425,1,0,0:0:0:0:
76,176,39529,2,0,P|112:140|164:120,1,105
332,80,39946,2,0,P|288:48|232:40,1,105
412,60,40363,6,0,P|476:132|472:240,1,210
472,336,40988,1,0,0:0:0:0:
384,300,41196,1,0,0:0:0:0:
292,324,41404,1,0,0:0:0:0:
160,200,41613,1,0,0:0:0:0:
56,256,41821,2,0,P|128:292|204:280,1,157.5
240,252,42238,1,0,0:0:0:0:
348,8,42446,6,0,P|312:72|316:156,1,157.5
324,224,42863,2,0,P|288:180|236:164,1,105
76,160,43279,1,0,0:0:0:0:
96,364,43592,6,0,P|60:324|24:172,1,210
36,128,44113,1,0,0:0:0:0:
208,28,44321,1,0,0:0:0:0:
208,28,44425,1,0,0:0:0:0:
208,28,44529,2,0,P|216:80|196:128,1,105
152,180,44842,1,0,0:0:0:0:
152,180,44946,2,0,B|244:236,1,105
224,300,45258,1,0,0:0:0:0:
224,300,45363,6,0,B|260:276|332:272|376:288,1,157.5
376,288,45779,1,0,0:0:0:0:
408,156,45988,1,0,0:0:0:0:
408,156,46092,1,0,0:0:0:0:
408,156,46196,1,0,0:0:0:0:
328,44,46404,1,0,0:0:0:0:
328,44,46613,6,0,B|392:32,1,52.5
360,104,46821,2,0,B|416:92,1,52.5
296,104,47029,2,0,P|216:108|124:124,1,157.5
92,128,47446,1,0,0:0:0:0:
68,264,47654,1,0,0:0:0:0:
108,236,47758,1,0,0:0:0:0:
240,208,47967,1,0,0:0:0:0:
284,224,48071,1,0,0:0:0:0:
356,340,48279,2,0,B|416:328,2,52.5
288,352,48592,6,0,P|316:320|320:260,1,105
360,204,48904,2,0,P|308:188|280:144,1,105
292,80,49217,2,0,P|236:88|192:68,1,105
159,35,49529,1,0,0:0:0:0:
112,20,49634,1,0,0:0:0:0:
64,28,49738,1,0,0:0:0:0:
88,188,49946,1,0,0:0:0:0:
489,233,50363,5,0,0:0:0:0:
441,237,50467,1,0,0:0:0:0:
401,265,50571,1,0,0:0:0:0:
377,305,50675,1,0,0:0:0:0:
373,353,50779,5,0,0:0:0:0:
417,331,50883,1,0,0:0:0:0:
450,301,50988,1,0,0:0:0:0:
462,254,51092,1,0,0:0:0:0:
467,206,51196,2,0,B|472:174|460:148,3,52.5
443,109,51613,2,0,B|427:81|397:68,3,52.5
361,61,52029,5,0,0:0:0:0:
333,97,52133,1,0,0:0:0:0:
329,145,52238,1,0,0:0:0:0:
345,189,52342,1,0,0:0:0:0:
385,217,52446,5,0,0:0:0:0:
386,167,52550,1,0,0:0:0:0:
372,119,52654,1,0,0:0:0:0:
341,81,52758,1,0,0:0:0:0:
298,58,52863,2,0,B|266:41|236:48,3,52.5
201,53,53279,2,0,B|167:52|151:78,3,52.5
125,113,53696,5,0,0:0:0:0:
149,150,53800,1,0,0:0:0:0:
192,173,53905,1,0,0:0:0:0:
240,182,54009,1,0,0:0:0:0:
285,169,54113,5,0,0:0:0:0:
248,136,54217,1,0,0:0:0:0:
201,123,54321,1,0,0:0:0:0:
156,128,54425,1,0,0:0:0:0:
112,144,54530,2,0,B|80:157|68:188,3,52.5
52,220,54946,2,0,B|40:248|43:274,3,52.5
52,336,55363,6,0,P|152:360|256:324,1,210
372,176,55988,1,0,0:0:0:0:
484,292,56196,2,0,P|412:304|332:272,1,157.5
296,244,56613,1,0,0:0:0:0:
124,192,56821,1,0,0:0:0:0:
176,272,57029,5,0,0:0:0:0:
132,284,57133,1,0,0:0:0:0:
84,276,57238,1,0,0:0:0:0:
48,244,57342,1,0,0:0:0:0:
32,200,57446,1,0,0:0:0:0:
40,152,57550,1,0,0:0:0:0:
72,116,57654,1,0,0:0:0:0:
116,100,57758,1,0,0:0:0:0:
164,108,57863,2,0,B|192:116|208:148,3,52.5
216,184,58279,2,0,B|220:212|200:240,3,52.5
244,260,58696,5,0,0:0:0:0:
243,305,58800,1,0,0:0:0:0:
263,349,58905,1,0,0:0:0:0:
304,376,59009,1,0,0:0:0:0:
350,380,59113,1,0,0:0:0:0:
395,360,59217,1,0,0:0:0:0:
421,320,59321,1,0,0:0:0:0:
425,273,59425,1,0,0:0:0:0:
405,229,59530,2,0,B|390:204|354:196,3,52.5
318,198,59946,2,0,B|289:201|268:227,3,52.5
236,192,60363,5,0,0:0:0:0:
202,159,60467,1,0,0:0:0:0:
185,114,60572,1,0,0:0:0:0:
195,65,60676,1,0,0:0:0:0:
225,30,60780,1,0,0:0:0:0:
270,13,60884,1,0,0:0:0:0:
317,23,60988,1,0,0:0:0:0:
354,53,61092,1,0,0:0:0:0:
370,98,61197,2,0,B|377:126|357:156,3,52.5
331,182,61613,2,0,B|308:199|274:196,3,52.5
276,108,62029,5,0,0:0:0:0:
308,312,62342,1,0,0:0:0:0:
120,236,62654,1,0,0:0:0:0:
120,236,62863,1,0,0:0:0:0:
256,192,62967,12,0,63696,0:0:0:0:
452,212,70154,5,0,0:0:0:0:
440,260,70258,1,0,0:0:0:0:
412,300,70363,2,0,P|372:332|316:332,1,105
264,296,70675,1,0,0:0:0:0:
264,296,70779,2,0,B|132:292,1,131.25
76,136,71196,2,0,P|128:140|176:120,1,105
208,60,71508,1,0,0:0:0:0:
208,60,71613,2,0,B|340:64,1,131.25
404,216,72029,6,0,P|328:232|248:204,1,157.5
212,260,72446,2,0,P|208:200|196:156,1,105
60,32,72863,2,0,P|64:92|76:136,1,105
80,184,73175,1,0,0:0:0:0:
68,232,73279,1,0,0:0:0:0:
128,352,73488,5,0,0:0:0:0:
172,332,73592,1,0,0:0:0:0:
220,336,73696,2,0,P|272:340|320:316,1,105
384,308,74008,1,0,0:0:0:0:
384,308,74113,2,0,P|400:256|396:204,1,105
200,60,74529,6,0,P|176:132|192:224,1,157.5
204,256,74946,1,0,0:0:0:0:
112,236,75154,1,0,0:0:0:0:
288,240,75363,6,0,P|368:248|440:216,1,157.5
468,184,75779,1,0,0:0:0:0:
496,276,75988,1,0,0:0:0:0:
380,148,76196,6,0,P|320:92|240:68,1,157.5
204,64,76613,1,0,0:0:0:0:
36,140,76821,1,0,0:0:0:0:
72,172,76925,1,0,0:0:0:0:
116,192,77029,2,0,P|192:216|268:200,1,157.5
324,160,77446,2,0,P|332:212|324:264,1,105
196,316,77863,6,0,B|168:260|164:164|184:108,1,210
208,48,78383,1,0,0:0:0:0:
208,48,78488,1,0,0:0:0:0:
208,48,78592,1,0,0:0:0:0:
404,132,78904,5,0,0:0:0:0:
404,132,79008,2,0,B|416:196|404:264,1,131.249998044223
336,252,79321,2,0,B|344:196|336:144,1,105
268,164,79633,2,0,B|272:204|268:244,1,78.7499976530672
200,232,79946,2,0,B|204:200|200:168,1,52.5
152,76,80363,5,0,0:0:0:0:
188,64,80467,1,0,0:0:0:0:
224,72,80571,1,0,0:0:0:0:
256,92,80675,1,0,0:0:0:0:
276,124,80779,1,0,0:0:0:0:
284,160,80883,1,0,0:0:0:0:
296,196,80988,1,0,0:0:0:0:
320,224,81092,1,0,0:0:0:0:
352,240,81196,5,0,0:0:0:0:
388,244,81300,1,0,0:0:0:0:
424,236,81404,1,0,0:0:0:0:
456,216,81508,1,0,0:0:0:0:
476,184,81613,1,0,0:0:0:0:
456,92,81821,1,0,0:0:0:0:
376,44,82029,5,0,0:0:0:0:
340,44,82133,1,0,0:0:0:0:
308,60,82238,1,0,0:0:0:0:
288,88,82342,1,0,0:0:0:0:
276,124,82446,1,0,0:0:0:0:
272,160,82550,1,0,0:0:0:0:
268,196,82654,1,0,0:0:0:0:
252,228,82758,1,0,0:0:0:0:
224,256,82863,5,0,0:0:0:0:
188,268,82967,1,0,0:0:0:0:
152,264,83071,1,0,0:0:0:0:
116,252,83175,1,0,0:0:0:0:
92,224,83279,1,0,0:0:0:0:
76,132,83488,1,0,0:0:0:0:
164,96,83696,5,0,0:0:0:0:
200,92,83800,1,0,0:0:0:0:
236,104,83904,1,0,0:0:0:0:
260,132,84008,1,0,0:0:0:0:
272,168,84113,1,0,0:0:0:0:
268,204,84217,1,0,0:0:0:0:
256,240,84321,1,0,0:0:0:0:
248,276,84425,1,0,0:0:0:0:
252,312,84529,5,0,0:0:0:0:
272,340,84633,1,0,0:0:0:0:
304,360,84738,1,0,0:0:0:0:
340,364,84842,1,0,0:0:0:0:
376,352,84946,1,0,0:0:0:0:
452,292,85154,1,0,0:0:0:0:
404,208,85363,6,0,B|312:132|364:20,1,210
108,176,86196,2,0,B|200:252|148:364,1,210
147,364,86821,1,0,0:0:0:0:
52,304,87029,5,0,0:0:0:0:
80,280,87133,1,0,0:0:0:0:
112,260,87238,1,0,0:0:0:0:
148,252,87342,1,0,0:0:0:0:
184,252,87446,1,0,0:0:0:0:
220,260,87550,1,0,0:0:0:0:
252,276,87654,1,0,0:0:0:0:
280,300,87758,1,0,0:0:0:0:
304,272,87863,5,0,0:0:0:0:
316,236,87967,1,0,0:0:0:0:
316,200,88071,1,0,0:0:0:0:
308,164,88175,1,0,0:0:0:0:
292,132,88279,1,0,0:0:0:0:
212,80,88488,1,0,0:0:0:0:
212,176,88696,5,0,0:0:0:0:
224,140,88800,1,0,0:0:0:0:
244,108,88904,1,0,0:0:0:0:
272,84,89008,1,0,0:0:0:0:
304,68,89113,1,0,0:0:0:0:
340,60,89217,1,0,0:0:0:0:
376,64,89321,1,0,0:0:0:0:
412,76,89425,1,0,0:0:0:0:
444,96,89529,5,0,0:0:0:0:
420,124,89633,1,0,0:0:0:0:
408,160,89738,1,0,0:0:0:0:
404,196,89842,1,0,0:0:0:0:
412,232,89946,1,0,0:0:0:0:
456,316,90154,1,0,0:0:0:0:
504,236,90363,5,0,0:0:0:0:
476,260,90467,1,0,0:0:0:0:
444,276,90571,1,0,0:0:0:0:
408,280,90675,1,0,0:0:0:0:
372,272,90779,1,0,0:0:0:0:
340,252,90883,1,0,0:0:0:0:
316,224,90988,1,0,0:0:0:0:
308,188,91092,1,0,0:0:0:0:
312,140,91196,5,0,0:0:0:0:
272,164,91300,1,0,0:0:0:0:
224,172,91404,1,0,0:0:0:0:
176,164,91508,1,0,0:0:0:0:
136,140,91613,1,0,0:0:0:0:
64,56,91821,1,0,0:0:0:0:
64,56,92029,6,0,P|32:128|52:208,1,157.5
120,348,92654,1,0,0:0:0:0:
120,348,92758,1,0,0:0:0:0:
120,348,92863,2,0,P|136:272|200:224,1,157.5
240,212,93279,1,0,0:0:0:0:
136,116,93488,1,0,0:0:0:0:
184,116,93592,1,0,0:0:0:0:
228,96,93696,5,0,0:0:0:0:
260,60,93800,1,0,0:0:0:0:
300,40,93904,1,0,0:0:0:0:
348,36,94008,1,0,0:0:0:0:
396,48,94113,1,0,0:0:0:0:
432,80,94217,1,0,0:0:0:0:
452,124,94321,1,0,0:0:0:0:
448,172,94425,1,0,0:0:0:0:
428,216,94529,5,0,0:0:0:0:
388,240,94633,1,0,0:0:0:0:
340,236,94738,1,0,0:0:0:0:
308,200,94842,1,0,0:0:0:0:
304,248,94946,2,0,B|300:308,1,52.5
244,260,95154,2,0,B|240:320,1,52.5
208,344,95363,5,0,0:0:0:0:
164,364,95467,1,0,0:0:0:0:
116,364,95571,1,0,0:0:0:0:
72,352,95675,1,0,0:0:0:0:
36,324,95779,1,0,0:0:0:0:
16,280,95883,1,0,0:0:0:0:
20,232,95988,1,0,0:0:0:0:
44,192,96092,1,0,0:0:0:0:
84,168,96196,5,0,0:0:0:0:
132,160,96300,1,0,0:0:0:0:
176,172,96404,1,0,0:0:0:0:
212,204,96508,1,0,0:0:0:0:
224,156,96613,2,0,B|236:100,1,52.5
288,148,96821,2,0,B|272:216,1,52.5
272,248,97029,5,0,0:0:0:0:
276,296,97133,1,0,0:0:0:0:
308,332,97238,1,0,0:0:0:0:
356,340,97342,1,0,0:0:0:0:
400,320,97446,1,0,0:0:0:0:
424,280,97550,1,0,0:0:0:0:
432,232,97654,1,0,0:0:0:0:
428,184,97758,1,0,0:0:0:0:
412,140,97863,5,0,0:0:0:0:
384,100,97967,1,0,0:0:0:0:
348,68,98071,1,0,0:0:0:0:
304,52,98175,1,0,0:0:0:0:
256,48,98279,2,0,B|196:56,1,52.5
240,112,98488,2,0,B|176:120,1,52.5
140,72,98696,6,0,P|80:128|76:208,1,157.5
372,312,99321,1,0,0:0:0:0:
372,312,99529,2,0,P|432:256|436:176,1,157.5
432,136,99946,1,0,0:0:0:0:
384,56,100154,1,0,0:0:0:0:
288,56,100363,5,0,0:0:0:0:
280,104,100467,1,0,0:0:0:0:
248,140,100571,1,0,0:0:0:0:
204,160,100674,1,0,0:0:0:0:
156,164,100779,1,0,0:0:0:0:
112,148,100883,1,0,0:0:0:0:
84,112,100987,1,0,0:0:0:0:
72,68,101091,1,0,0:0:0:0:
120,56,101196,5,0,0:0:0:0:
164,68,101300,1,0,0:0:0:0:
200,96,101404,1,0,0:0:0:0:
224,136,101508,1,0,0:0:0:0:
232,184,101613,2,0,B|236:212|224:240,1,52.5
292,220,101821,2,0,B|280:248|292:280,1,52.5
328,300,102029,5,0,0:0:0:0:
372,312,102134,1,0,0:0:0:0:
420,304,102238,1,0,0:0:0:0:
460,280,102342,1,0,0:0:0:0:
480,240,102446,1,0,0:0:0:0:
484,192,102550,1,0,0:0:0:0:
476,144,102654,1,0,0:0:0:0:
456,100,102758,1,0,0:0:0:0:
424,136,102863,5,0,0:0:0:0:
408,180,102967,1,0,0:0:0:0:
404,228,103071,1,0,0:0:0:0:
420,272,103175,1,0,0:0:0:0:
452,308,103279,2,0,B|476:328|508:328,1,52.5
452,376,103488,2,0,B|428:360|392:352,1,52.5
356,352,103696,5,0,0:0:0:0:
312,336,103800,1,0,0:0:0:0:
276,304,103904,1,0,0:0:0:0:
240,272,104008,1,0,0:0:0:0:
196,252,104113,1,0,0:0:0:0:
148,248,104217,1,0,0:0:0:0:
104,260,104321,1,0,0:0:0:0:
68,288,104425,1,0,0:0:0:0:
104,316,104529,5,0,0:0:0:0:
148,328,104633,1,0,0:0:0:0:
196,320,104738,1,0,0:0:0:0:
240,304,104842,1,0,0:0:0:0:
268,268,104946,2,0,B|272:204,1,52.5
328,256,105154,2,0,B|332:192,1,52.5
388,244,105363,6,0,B|392:180,1,52.5
216,88,105675,1,0,0:0:0:0:
216,88,105779,2,0,P|204:140|208:200,1,105
228,340,106196,1,0,0:0:0:0:
416,144,106613,6,0,B|424:112,1,26.25
400,140,106717,2,0,B|404:100,1,26.25
384,140,106821,2,0,B|380:100,1,26.25
368,140,106925,2,0,B|352:100,1,26.25
352,144,107029,1,0,0:0:0:0:
165,68,107238,6,0,B|213:86,1,52.5
352,144,107446,2,0,B|304:125,1,52.5
243,9,107655,6,0,B|251:60,1,52.5
274,205,107863,2,0,B|266:153,1,52.5
337,42,108071,6,0,B|297:75,1,52.5
179,169,108279,2,0,B|220:136,1,52.5
82,364,108592,1,0,0:0:0:0:
113,166,108800,6,0,B|105:218,1,52.5
82,364,109008,2,0,B|90:313,1,52.5
191,228,109217,6,0,B|143:247,1,52.5
4,300,109426,2,0,B|52:282,1,52.5
175,327,109633,6,0,B|134:295,1,52.5
20,201,109842,2,0,B|60:235,2,52.5
288,180,110258,1,0,0:0:0:0:
430,322,110467,6,0,B|393:285,1,52.5
288,180,110675,2,0,B|324:216,1,52.5
333,347,110884,6,0,B|346:296,1,52.5
385,154,111092,2,0,B|371:204,1,52.5
262,277,111300,6,0,B|312:263,1,52.5
455,225,111508,2,0,B|404:238,2,52.5
320,104,111925,1,0,0:0:0:0:
320,104,112238,6,0,P|268:100|224:60,1,105
200,28,112550,1,0,0:0:0:0:
188,72,112654,1,0,0:0:0:0:
164,112,112758,1,0,0:0:0:0:
136,148,112863,6,0,B|80:188,1,52.5
153,210,113071,2,0,B|105:246,1,52.5
171,273,113279,2,0,B|123:309,2,52.5
328,128,113696,5,0,0:0:0:0:
328,128,113800,1,0,0:0:0:0:
328,128,113904,2,0,B|276:119,1,52.5
423,144,114112,2,0,B|474:154,1,52.5
359,91,114320,6,0,B|340:42,1,52.5
392,181,114529,2,0,B|410:230,1,52.5
406,100,114737,6,0,B|439:60,1,52.5
345,173,114945,2,0,B|311:214,1,52.5
208,320,115258,1,0,0:0:0:0:
147,247,115467,6,0,B|113:206,1,52.5
208,320,115675,2,0,B|241:360,1,52.5
193,238,115883,6,0,B|209:188,1,52.5
162,328,116092,2,0,B|144:378,1,52.5
225,276,116300,6,0,B|276:267,1,52.5
130,291,116508,2,0,B|78:301,2,52.5
160,144,116925,1,0,0:0:0:0:
223,71,117133,6,0,B|257:31,1,52.5
160,144,117341,2,0,B|124:183,1,52.5
237,115,117549,6,0,B|288:124,1,52.5
144,98,117758,2,0,B|91:88,1,52.5
206,152,117966,6,0,B|222:200,1,52.5
175,62,118174,2,0,B|156:12,2,52.5
240,88,118488,5,0,0:0:0:0:
240,88,118592,2,0,P|316:88|384:132,1,157.5
448,264,119113,5,0,0:0:0:0:
404,280,119217,1,0,0:0:0:0:
356,280,119321,1,0,0:0:0:0:
312,264,119425,1,0,0:0:0:0:
288,224,119529,5,0,0:0:0:0:
244,208,119633,1,0,0:0:0:0:
196,208,119738,1,0,0:0:0:0:
152,228,119842,1,0,0:0:0:0:
104,232,119946,5,0,0:0:0:0:
116,276,120050,1,0,0:0:0:0:
152,308,120154,1,0,0:0:0:0:
196,320,120258,1,0,0:0:0:0:
236,292,120363,6,0,B|308:264|324:192|324:192|308:168|332:148|352:168|344:192,1,210
