osu file format v12

[General]
AudioFilename: Hide and seek.mp3
AudioLeadIn: 0
PreviewTime: 177776
Countdown: 0
SampleSet: None
StackLeniency: 0.7
Mode: 0
LetterboxInBreaks: 1
WidescreenStoryboard: 1

[Editor]
Bookmarks: 30084,44853,59622,74392,89161,103930,118699,133469,146392,148238,163007,163930,222084,229469,236853
DistanceSpacing: 0.8
BeatDivisor: 4
GridSize: 32

[Metadata]
Title:Hide and seek * Spirit away
TitleUnicode:Hide and seek * Spirit away
Artist:T.Piacere
ArtistUnicode:T.Piacere
Creator:caren_sk
Version:Insane-AR9-
Source:
Tags:
BeatmapID:291332
BeatmapSetID:112110

[Difficulty]
HPDrainRate:7
CircleSize:4
OverallDifficulty:8
ApproachRate:9
SliderMultiplier:1.5
SliderTickRate:1

[Events]
//Background and Video events
0,0,"BG.jpg",0,0
//Break Periods
2,118899,132869
//Storyboard Layer 0 (Background)
//Storyboard Layer 1 (Fail)
//Storyboard Layer 2 (Pass)
//Storyboard Layer 3 (Foreground)
//Storyboard Sound Samples
//Background Colour Transformations
3,100,163,162,255

[TimingPoints]
546,461.538461538462,4,2,0,50,1,0
30084,-100,4,2,0,55,0,0
59622,-86.9565217391304,4,2,0,60,0,0
74392,-80,4,2,0,65,0,0
77507,-80,4,2,0,5,0,0
77622,-80,4,2,0,70,0,0
89161,-66.6666666666667,4,2,0,75,0,1
102084,-66.6666666666667,4,2,0,60,0,0
103930,-66.6666666666667,4,2,0,75,0,1
118699,-66.6666666666667,4,2,0,50,0,0
133469,-80,4,2,0,50,0,0
148238,-80,4,2,0,65,0,0
170392,-80,4,2,0,70,0,0
177776,-66.6666666666667,4,2,0,75,0,1
190699,-66.6666666666667,4,2,0,60,0,0
192546,-66.6666666666667,4,2,0,75,0,1
205469,-66.6666666666667,4,2,0,70,0,0
222084,-80,4,2,0,60,0,0

[Colours]
Combo1 : 249,68,68
Combo2 : 2,232,151
Combo3 : 98,98,255
Combo4 : 255,74,255
Combo5 : 233,172,61

[HitObjects]
34,102,30084,2,0,P|19:172|39:259,2,150,2|0|0,0:0|0:0|0:0,0:0:0:0:
97,43,31238,2,0,P|131:34|187:26,1,75
305,84,31699,1,0,0:0:0:0:
179,191,31930,2,0,P|170:157|162:101,2,75,2|0|0,0:0|0:0|0:0,0:0:0:0:
215,277,32622,2,0,P|290:295|366:270,1,150,2|0,0:0|0:0,0:0:0:0:
431,208,33315,5,2,0:0:0:0:
459,312,33546,1,0,0:0:0:0:
431,208,33776,2,0,P|469:196|505:192,1,75,2|0,0:0|0:0,0:0:0:0:
357,272,34238,2,0,P|319:284|283:288,1,75
147,253,34699,2,0,L|123:330,1,75,2|0,0:0|0:0,0:0:0:0:
73,165,35161,2,0,L|1:202,1,75,2|0,0:0|0:0,0:0:0:0:
129,47,35622,5,2,0:0:0:0:
297,124,35853,1,0,0:0:0:0:
296,20,36084,1,0,0:0:0:0:
201,150,36315,1,0,0:0:0:0:
390,170,36546,2,0,L|393:89,1,75,2|0,0:0|0:0,0:0:0:0:
471,33,37007,2,0,P|492:68|495:121,1,75,2|0,0:0|0:0,0:0:0:0:
461,250,37469,6,0,P|393:273|314:255,1,150,2|0,0:0|0:0,0:0:0:0:
235,203,38161,1,0,0:0:0:0:
53,288,38392,2,0,P|47:245|52:203,1,75,2|0,0:0|0:0,0:0:0:0:
307,111,38853,2,0,P|313:154|308:196,1,75,2|0,0:0|0:0,0:0:0:0:
244,286,39315,5,2,0:0:0:0:
402,220,39546,1,0,0:0:0:0:
332,325,39776,1,0,0:0:0:0:
174,150,40007,1,0,0:0:0:0:
53,288,40238,2,0,P|47:245|52:203,1,75,2|0,0:0|0:0,0:0:0:0:
307,111,40699,2,0,P|313:154|308:196,1,75,2|0,0:0|0:0,0:0:0:0:
332,325,41161,6,0,B|384:305|441:338|488:314,1,150,2|0,0:0|0:0,0:0:0:0:
480,317,41853,1,0,0:0:0:0:
127,218,42315,1,0,0:0:0:0:
270,31,42776,1,0,0:0:0:0:
326,116,43007,6,0,L|408:120,1,75,2|0,0:0|0:0,0:0:0:0:
220,183,43469,1,2,0:0:0:0:
174,67,43699,2,0,L|91:62,1,75
195,259,44161,1,0,0:0:0:0:
245,107,44392,1,2,0:0:0:0:
426,190,44622,1,0,0:0:0:0:
512,113,44853,6,0,P|527:182|504:270,1,150,2|0,0:0|0:0,0:0:0:0:
447,335,45546,2,0,P|378:350|290:327,1,150,2|0,0:0|0:0,0:0:0:0:
196,259,46238,1,0,0:0:0:0:
163,327,46469,1,0,0:0:0:0:
91,348,46699,2,0,P|55:334|24:306,1,75,2|0,0:0|0:0,0:0:0:0:
197,186,47161,2,0,P|202:224|194:265,1,75,2|0,0:0|0:0,0:0:0:0:
19,200,47622,2,0,P|49:175|88:162,2,75,2|0|2,0:0|0:0|0:0,0:0:0:0:
148,36,48315,5,0,0:0:0:0:
148,36,48546,2,0,P|216:64|294:58,1,150,2|0,0:0|0:0,0:0:0:0:
390,45,49238,2,0,L|379:121,1,75,0|2,0:0|0:0,0:0:0:0:
355,271,49699,1,0,0:0:0:0:
502,261,49930,2,0,P|501:299|489:345,1,75,2|0,0:0|0:0,0:0:0:0:
368,192,50392,5,0,0:0:0:0:
237,300,50622,2,0,P|237:261|249:215,1,75,2|0,0:0|0:0,0:0:0:0:
380,112,51084,1,0,0:0:0:0:
502,261,51315,2,0,P|464:264|422:248,1,75,2|0,0:0|0:0,0:0:0:0:
288,181,51776,1,2,0:0:0:0:
337,348,52007,1,0,0:0:0:0:
474,177,52238,5,2,0:0:0:0:
474,177,52469,1,0,0:0:0:0:
390,269,52699,2,0,L|303:261,1,75,2|0,0:0|0:0,0:0:0:0:
89,218,53161,2,0,P|85:256|89:298,1,75
224,75,53622,2,0,P|228:113|224:155,1,75,2|0,0:0|0:0,0:0:0:0:
183,241,54084,5,2,0:0:0:0:
103,100,54315,1,0,0:0:0:0:
183,241,54546,2,0,L|270:233,1,75,2|0,0:0|0:0,0:0:0:0:
484,190,55007,2,0,P|488:228|484:270,1,75,2|0,0:0|0:0,0:0:0:0:
349,47,55469,2,0,P|345:85|349:127,1,75,2|0,0:0|0:0,0:0:0:0:
360,298,55930,6,0,P|287:316|212:303,1,150,2|0,0:0|0:0,0:0:0:0:
125,267,56622,1,0,0:0:0:0:
442,109,57084,1,0,0:0:0:0:
290,14,57546,5,0,0:0:0:0:
257,81,57776,1,2,0:0:0:0:
189,129,58007,1,0,0:0:0:0:
92,143,58238,1,2,0:0:0:0:
1,106,58469,1,0,0:0:0:0:
92,143,58699,5,2,0:0:0:0:
129,216,58930,1,0,0:0:0:0:
109,296,59161,1,2,0:0:0:0:
43,346,59392,1,0,0:0:0:0:
109,296,59622,6,0,P|190:313|287:294,1,172.500003290176,2|0,0:0|0:0,0:0:0:0:
357,191,60315,2,0,L|367:290,1,86.2500016450882,2|0,0:0|0:0,0:0:0:0:
512,197,60776,1,0,0:0:0:0:
432,65,61007,2,0,L|442:164,1,86.2500016450882,2|0,0:0|0:0,0:0:0:0:
432,65,61469,6,0,P|351:48|254:67,1,172.500003290176,2|0,0:0|0:0,0:0:0:0:
131,128,62161,1,0,0:0:0:0:
18,83,62392,2,0,P|14:126|28:170,1,86.2500016450882,2|0,0:0|0:0,0:0:0:0:
0,277,62853,2,0,P|43:281|86:267,1,86.2500016450882,2|0,0:0|0:0,0:0:0:0:
230,197,63315,6,0,P|254:284|230:369,1,172.500003290176,2|0,0:0|0:0,0:0:0:0:
337,255,64007,2,0,P|424:279|509:255,1,172.500003290176,2|0,0:0|0:0,0:0:0:0:
316,156,64699,1,0,0:0:0:0:
253,276,64930,1,0,0:0:0:0:
155,220,65161,2,0,L|149:321,1,86.2500016450882,2|0,0:0|0:0,0:0:0:0:
1,243,65622,2,0,L|7:142,1,86.2500016450882,2|0,0:0|0:0,0:0:0:0:
242,98,66084,2,0,L|236:199,1,86.2500016450882,2|0,0:0|0:0,0:0:0:0:
83,252,66546,5,0,0:0:0:0:
14,75,66776,1,0,0:0:0:0:
113,31,67007,2,0,P|123:75|110:122,1,86.2500016450882,2|0,0:0|0:0,0:0:0:0:
242,98,67469,2,0,L|335:90,1,86.2500016450882,2|0,0:0|0:0,0:0:0:0:
488,31,67930,2,0,P|498:75|485:122,1,86.2500016450882,2|0,0:0|0:0,0:0:0:0:
459,250,68392,2,0,L|366:242,1,86.2500016450882,2|0,0:0|0:0,0:0:0:0:
301,354,68853,6,0,L|394:346,1,86.2500016450882,2|0,0:0|0:0,0:0:0:0:
203,272,69315,2,0,P|193:316|206:363,1,86.2500016450882,2|0,0:0|0:0,0:0:0:0:
459,250,69776,2,0,P|469:206|456:159,1,86.2500016450882,2|0,0:0|0:0,0:0:0:0:
294,19,70238,2,0,P|284:63|297:110,1,86.2500016450882,2|0,0:0|0:0,0:0:0:0:
328,186,70699,6,0,P|241:202|155:186,1,172.500003290176,2|0,0:0|0:0,0:0:0:0:
0,147,71392,2,0,P|45:148|99:161,1,86.2500016450882,2|0,0:0|0:0,0:0:0:0:
27,308,71853,2,0,L|42:216,1,86.2500016450882,2|0,0:0|0:0,0:0:0:0:
67,76,72315,1,2,0:0:0:0:
218,232,72546,1,2,0:0:0:0:
256,192,72661,12,6,74392,0:0:0:0:
231,124,74622,5,0,0:0:0:0:
167,236,74853,1,2,0:0:0:0:
199,140,75084,1,0,0:0:0:0:
207,217,75315,1,2,0:0:0:0:
167,140,75546,1,0,0:0:0:0:
247,236,75776,1,2,0:0:0:0:
135,124,76007,1,0,0:0:0:0:
36,247,76238,6,0,P|22:199|23:150,1,93.75,2|0,0:0|0:0,0:0:0:0:
291,56,76699,2,0,P|305:104|304:153,1,93.75,2|0,0:0|0:0,0:0:0:0:
319,243,77161,2,0,P|393:228|460:239,1,140.625,2|0,0:0|0:0,0:0:0:0:
503,248,77622,5,2,0:0:0:0:
475,47,77853,1,0,0:0:0:0:
394,111,78084,2,0,L|300:104,1,93.75,2|0,0:0|0:0,0:0:0:0:
174,33,78546,1,2,0:0:0:0:
221,135,78776,1,0,0:0:0:0:
49,224,79007,1,2,0:0:0:0:
60,113,79237,1,0,0:0:0:0:
175,264,79469,1,2,0:0:0:0:
73,312,79699,1,0,0:0:0:0:
235,359,79930,6,0,P|255:313|262:264,1,93.75,2|0,0:0|0:0,0:0:0:0:
356,221,80392,2,0,L|461:223,1,93.75
150,170,80853,2,0,L|45:168,1,93.75,2|0,0:0|0:0,0:0:0:0:
220,25,81315,2,0,P|227:74|221:123,1,93.75
229,197,81776,5,2,0:0:0:0:
317,127,82007,1,0,0:0:0:0:
429,132,82238,1,2,0:0:0:0:
349,331,82469,1,2,0:0:0:0:
468,359,82699,1,2,0:0:0:0:
505,211,82930,1,0,0:0:0:0:
349,331,83161,2,0,P|343:277|346:228,1,93.75,2|0,0:0|0:0,0:0:0:0:
377,53,83622,5,0,0:0:0:0:
281,169,83853,1,0,0:0:0:0:
134,140,84084,1,2,0:0:0:0:
117,10,84315,1,0,0:0:0:0:
134,140,84546,2,0,P|83:151|35:141,1,93.75,2|0,0:0|0:0,0:0:0:0:
286,57,85007,2,0,P|337:46|385:56,1,93.75,2|0,0:0|0:0,0:0:0:0:
480,80,85469,5,2,0:0:0:0:
256,320,85930,1,2,0:0:0:0:
256,320,86161,1,2,0:0:0:0:
32,80,86622,1,2,0:0:0:0:
256,16,87084,1,2,0:0:0:0:
256,192,87315,12,4,88699,0:0:0:0:
256,256,89161,5,6,0:0:0:0:
80,192,89392,1,0,0:0:0:0:
80,192,89507,1,0,0:0:0:0:
80,192,89622,1,10,0:0:0:0:
171,90,89853,1,0,0:0:0:0:
20,63,90084,1,2,2:0:0:0:
16,95,90199,1,0,2:0:0:0:
12,126,90315,1,0,2:0:0:0:
10,158,90430,1,0,2:0:0:0:
5,189,90545,1,10,2:0:0:0:
124,141,90776,5,0,0:0:0:0:
154,276,91007,1,2,0:0:0:0:
432,192,91238,1,0,0:0:0:0:
432,192,91353,1,0,0:0:0:0:
432,192,91469,1,10,0:0:0:0:
343,90,91699,1,0,0:0:0:0:
471,17,91930,1,10,0:0:0:0:
481,72,92046,1,0,0:0:0:0:
322,196,92276,1,0,0:0:0:0:
332,141,92392,1,10,0:0:0:0:
485,284,92622,1,0,0:0:0:0:
392,383,92853,5,2,0:0:0:0:
305,296,93084,2,0,L|177:303,1,112.500004291535,0|10,0:0|0:0,0:0:0:0:
2,274,93546,1,0,0:0:0:0:
91,378,93776,2,0,P|121:297|113:209,1,168.750006437302,2|0,0:0|0:0,0:0:0:0:
112,176,94238,5,10,0:0:0:0:
256,240,94469,1,0,0:0:0:0:
400,176,94699,1,2,0:0:0:0:
256,32,94930,1,0,0:0:0:0:
256,32,95046,1,0,0:0:0:0:
256,32,95161,1,10,0:0:0:0:
176,224,95392,1,0,0:0:0:0:
312,115,95622,2,0,P|330:164|335:224,1,112.500004291535,2|0,0:0|0:0,0:0:0:0:
336,224,95969,1,0,0:0:0:0:
335,223,96084,2,0,P|388:246|448:237,1,112.500004291535,10|0,0:0|0:0,0:0:0:0:
512,154,96546,5,2,0:0:0:0:
430,363,96777,1,0,0:0:0:0:
430,363,96892,1,0,0:0:0:0:
430,363,97007,1,10,0:0:0:0:
336,224,97238,1,0,0:0:0:0:
224,320,97469,1,2,0:0:0:0:
190,320,97584,1,0,0:0:0:0:
158,307,97700,1,0,0:0:0:0:
134,282,97815,1,0,0:0:0:0:
128,248,97930,1,10,0:0:0:0:
13,302,98161,5,0,0:0:0:0:
69,139,98392,1,2,0:0:0:0:
215,231,98622,1,0,0:0:0:0:
215,231,98738,1,0,0:0:0:0:
215,231,98853,1,10,0:0:0:0:
297,39,99084,1,0,0:0:0:0:
370,153,99315,1,10,0:0:0:0:
389,112,99431,1,0,0:0:0:0:
235,271,99661,1,0,0:0:0:0:
216,230,99777,1,10,0:0:0:0:
397,196,100007,1,0,0:0:0:0:
412,367,100238,5,2,0:0:0:0:
512,277,100469,2,0,L|382:281,1,112.500004291535,0|10,0:0|0:0,0:0:0:0:
204,189,100930,1,0,0:0:0:0:
65,266,101161,2,0,P|43:182|60:95,1,168.750006437302,2|0,0:0|0:0,0:0:0:0:
69,55,101622,2,0,L|199:59,1,112.500004291535,2|0,0:0|0:0,0:0:0:0:
288,32,102084,5,2,0:0:0:0:
224,352,102430,1,0,0:0:0:0:
224,352,102545,1,2,0:0:0:0:
384,320,102776,1,0,0:0:0:0:
256,192,103007,1,2,0:0:0:0:
256,192,103122,1,0,0:0:0:0:
256,192,103238,1,0,0:0:0:0:
449,85,103469,1,2,0:0:0:0:
466,119,103584,1,0,0:0:0:0:
477,156,103699,1,2,0:0:0:0:
472,195,103815,1,0,0:0:0:0:
455,230,103930,6,0,P|395:238|336:223,1,112.500004291535,14|0,0:0|0:0,0:0:0:0:
57,154,104392,2,0,P|117:146|176:161,1,112.500004291535,2|0,0:0|0:0,0:0:0:0:
270,283,104853,1,10,0:0:0:0:
242,101,105084,1,0,0:0:0:0:
186,249,105315,1,10,0:0:0:0:
326,135,105546,1,0,0:0:0:0:
328,348,105776,6,0,P|268:356|209:341,1,112.500004291535,10|0,0:0|0:0,0:0:0:0:
57,154,106238,2,0,P|117:146|176:161,1,112.500004291535,2|0,0:0|0:0,0:0:0:0:
299,211,106699,1,10,0:0:0:0:
351,53,106930,1,0,0:0:0:0:
351,53,107046,1,0,0:0:0:0:
351,53,107161,1,10,0:0:0:0:
510,86,107392,1,0,0:0:0:0:
326,135,107622,5,10,0:0:0:0:
510,86,107853,2,0,P|520:141|512:201,1,112.500004291535,0|2,0:0|0:0,0:0:0:0:
436,342,108315,1,0,0:0:0:0:
299,211,108546,2,0,P|289:266|297:326,1,112.500004291535,10|0,0:0|0:0,0:0:0:0:
326,360,108892,1,0,0:0:0:0:
326,360,109007,2,0,P|381:359|439:340,1,112.500004291535,2|0,0:0|0:0,0:0:0:0:
326,135,109469,5,10,0:0:0:0:
219,228,109699,1,0,0:0:0:0:
219,228,109815,1,0,0:0:0:0:
219,228,109930,1,10,0:0:0:0:
178,35,110161,1,0,0:0:0:0:
126,149,110392,2,0,P|66:156|10:151,1,112.500004291535,10|0,0:0|0:0,0:0:0:0:
178,35,110853,2,0,P|238:28|294:33,1,112.500004291535,10|0,0:0|0:0,0:0:0:0:
443,10,111315,6,0,P|450:70|445:126,1,112.500004291535,2|0,0:0|0:0,0:0:0:0:
491,300,111776,2,0,P|431:307|375:302,1,112.500004291535,2|0,0:0|0:0,0:0:0:0:
131,196,112238,1,10,0:0:0:0:
214,380,112469,1,0,0:0:0:0:
233,156,112699,1,10,0:0:0:0:
124,307,112930,1,0,0:0:0:0:
315,324,113161,6,0,P|327:265|327:209,1,112.500004291535,10|0,0:0|0:0,0:0:0:0:
144,85,113622,2,0,P|131:144|131:200,1,112.500004291535,2|0,0:0|0:0,0:0:0:0:
124,307,114084,1,10,0:0:0:0:
328,213,114315,1,0,0:0:0:0:
315,324,114546,1,10,0:0:0:0:
131,196,114776,1,0,0:0:0:0:
214,380,115007,5,2,0:0:0:0:
322,268,115238,2,0,L|435:273,1,112.500004291535,0|2,0:0|0:0,0:0:0:0:
499,124,115699,1,0,0:0:0:0:
219,211,115930,2,0,P|211:147|217:95,1,112.500004291535,2|0,0:0|0:0,0:0:0:0:
348,18,116392,2,0,P|355:81|349:133,1,112.500004291535,2|0,0:0|0:0,0:0:0:0:
322,268,116853,1,6,0:0:0:0:
466,222,117199,5,0,0:0:0:0:
466,222,117315,2,0,P|473:285|467:337,1,112.500004291535,2|0,0:0|0:0,0:0:0:0:
380,355,117776,2,0,P|320:345|264:359,1,112.500004291535,2|0,0:0|0:0,0:0:0:0:
181,374,118238,2,0,P|130:349|97:298,1,112.500004291535,2|0,0:0|0:0,0:0:0:0:
59,215,118699,1,0,0:0:0:0:
256,256,133469,5,2,0:0:0:0:
256,256,133699,1,0,0:0:0:0:
162,192,133930,2,0,P|153:238|157:291,1,93.75
349,294,134392,2,0,P|359:238|355:185,1,93.75,2|0,0:0|0:0,0:0:0:0:
384,32,134853,5,0,0:0:0:0:
256,128,135084,1,0,0:0:0:0:
128,32,135315,2,0,B|93:107|26:101|28:197,1,187.5,2|0,0:0|0:0,0:0:0:0:
28,184,136007,1,2,0:0:0:0:
427,126,136469,1,2,0:0:0:0:
427,126,136699,1,2,0:0:0:0:
351,342,137161,6,0,P|299:356|249:349,1,93.75,0|0,0:0|0:0,0:0:0:0:
34,262,137622,2,0,P|86:248|136:255,1,93.75,2|0,0:0|0:0,0:0:0:0:
194,87,138084,2,0,P|208:139|201:189,1,93.75
221,272,138546,1,2,0:0:0:0:
448,179,138776,1,0,0:0:0:0:
371,243,139007,6,0,P|357:191|364:141,1,93.75,2|0,0:0|0:0,0:0:0:0:
287,60,139469,1,0,0:0:0:0:
120,151,139699,1,0,0:0:0:0:
293,304,139930,2,0,L|290:199,1,93.75,2|0,0:0|0:0,0:0:0:0:
120,255,140392,2,0,L|117:360,1,93.75,2|0,0:0|0:0,0:0:0:0:
33,168,140853,6,0,P|121:151|225:169,1,187.5,2|0,0:0|0:0,0:0:0:0:
346,65,141546,1,0,0:0:0:0:
316,230,141776,1,2,0:0:0:0:
478,178,142007,2,0,P|485:226|484:288,1,93.75,0|2,0:0|0:0,0:0:0:0:
380,157,142469,1,0,0:0:0:0:
382,324,142699,6,0,P|334:331|272:330,1,93.75,2|0,0:0|0:0,0:0:0:0:
154,213,143161,1,0,0:0:0:0:
158,357,143392,1,0,0:0:0:0:
30,290,143622,2,0,L|132:288,1,93.75,2|0,0:0|0:0,0:0:0:0:
308,148,144084,2,0,L|206:150,1,93.75,2|0,0:0|0:0,0:0:0:0:
86,34,144546,6,0,P|63:112|78:223,1,187.5,2|0,0:0|0:0,0:0:0:0:
157,358,145238,2,0,L|270:351,1,93.75,2|0,0:0|0:0,0:0:0:0:
399,275,145699,1,0,0:0:0:0:
493,333,145930,2,0,P|502:283|494:228,1,93.75,2|0,0:0|0:0,0:0:0:0:
312,157,146392,6,0,P|303:207|311:262,1,93.75,2|0,0:0|0:0,0:0:0:0:
395,367,146853,2,0,P|404:317|396:262,1,93.75
172,193,147315,2,0,P|163:243|171:298,1,93.75,2|0,0:0|0:0,0:0:0:0:
395,367,147776,2,0,P|404:317|396:262,1,93.75,2|0,0:0|0:0,0:0:0:0:
313,382,148238,6,0,P|263:390|201:378,1,93.75,2|0,0:0|0:0,0:0:0:0:
78,289,148699,2,0,L|63:387,2,93.75,2|0|0,0:0|0:0|0:0,0:0:0:0:
115,137,149392,2,0,P|65:129|3:141,1,93.75,2|0,0:0|0:0,0:0:0:0:
159,234,149853,1,0,0:0:0:0:
269,135,150084,6,0,L|254:233,1,93.75,2|0,0:0|0:0,0:0:0:0:
341,100,150546,2,0,L|399:179,1,93.75,2|0,0:0|0:0,0:0:0:0:
397,38,151007,2,0,L|495:53,1,93.75,2|0,0:0|0:0,0:0:0:0:
284,27,151469,1,0,0:0:0:0:
474,126,151699,1,0,0:0:0:0:
465,242,151930,6,0,P|413:253|362:241,1,93.75,2|0,0:0|0:0,0:0:0:0:
247,195,152392,1,0,0:0:0:0:
157,292,152622,2,0,L|156:190,1,93.75,2|0,0:0|0:0,0:0:0:0:
162,36,153084,1,0,0:0:0:0:
247,194,153315,2,0,P|195:205|144:193,1,93.75,2|0,0:0|0:0,0:0:0:0:
51,132,153776,5,0,0:0:0:0:
11,274,154007,1,0,0:0:0:0:
128,378,154238,2,0,P|153:334|157:275,1,93.75,2|0,0:0|0:0,0:0:0:0:
155,32,154699,2,0,P|130:76|126:135,1,93.75,2|0,0:0|0:0,0:0:0:0:
135,210,155161,1,2,0:0:0:0:
345,130,155392,1,2,0:0:0:0:
384,224,155622,6,0,L|485:219,1,93.75,2|0,0:0|0:0,0:0:0:0:
352,352,156084,2,0,L|241:345,1,93.75
160,224,156546,2,0,L|261:219,1,93.75,2|0,0:0|0:0,0:0:0:0:
128,352,157008,2,0,L|17:345,1,93.75
162,132,157469,6,0,P|168:184|157:231,1,93.75,2|0,0:0|0:0,0:0:0:0:
55,101,157930,2,0,P|87:59|128:34,1,93.75
269,27,158392,2,0,P|301:68|342:93,1,93.75,2|0,0:0|0:0,0:0:0:0:
485,157,158853,2,0,P|491:105|480:58,1,93.75
334,90,159315,6,0,P|314:186|326:277,1,187.5,2|0,0:0|0:0,0:0:0:0:
301,361,160007,2,0,P|253:357|203:364,1,93.75,2|0,0:0|0:0,0:0:0:0:
176,294,160469,2,0,P|196:198|184:107,1,187.5,2|0,0:0|0:0,0:0:0:0:
67,42,161161,6,0,P|57:89|68:141,1,93.75,2|0,0:0|0:0,0:0:0:0:
101,282,161622,2,0,L|5:269,1,93.75,2|0,0:0|0:0,0:0:0:0:
286,192,162084,1,2,0:0:0:0:
313,296,162315,1,0,0:0:0:0:
407,222,162546,1,2,0:0:0:0:
244,257,162776,1,0,0:0:0:0:
473,279,163007,6,0,P|482:224|479:184,1,93.75,2|0,0:0|0:0,0:0:0:0:
363,67,163469,2,0,P|354:122|357:162,1,93.75
244,257,163930,2,0,L|133:251,1,93.75,2|0,0:0|0:0,0:0:0:0:
43,148,164392,1,2,0:0:0:0:
59,357,164622,1,0,0:0:0:0:
151,253,164853,6,0,L|262:259,1,93.75,2|0,0:0|0:0,0:0:0:0:
475,306,165315,2,0,P|486:256|484:208,1,93.75
333,76,165776,2,0,P|322:126|324:174,1,93.75,2|0,0:0|0:0,0:0:0:0:
244,257,166238,2,0,L|133:251,1,93.75,0|0,0:0|0:0,0:0:0:0:
37,306,166699,6,0,P|26:256|28:208,1,93.75,2|0,0:0|0:0,0:0:0:0:
99,101,167161,2,0,L|7:114,1,93.75,2|0,0:0|0:0,0:0:0:0:
196,28,167622,1,2,0:0:0:0:
218,166,167853,1,0,0:0:0:0:
400,81,168084,1,2,0:0:0:0:
490,243,168315,1,0,0:0:0:0:
321,345,168546,6,0,P|305:277|314:193,1,140.625,2|0,0:0|0:0,0:0:0:0:
311,160,169007,2,0,L|199:166,1,93.75,2|0,0:0|0:0,0:0:0:0:
74,100,169469,1,2,0:0:0:0:
192,272,169699,1,0,0:0:0:0:
192,272,169815,1,0,0:0:0:0:
192,272,169930,1,2,0:0:0:0:
64,352,170161,1,0,0:0:0:0:
192,272,170392,6,0,P|240:283|287:271,1,93.75,2|0,0:0|0:0,0:0:0:0:
469,221,170853,2,0,L|492:314,1,93.75,2|0,0:0|0:0,0:0:0:0:
422,155,171315,2,0,P|470:144|517:156,1,93.75,2|0,0:0|0:0,0:0:0:0:
242,207,171776,2,0,L|219:114,1,93.75,2|0,0:0|0:0,0:0:0:0:
81,27,172238,6,0,L|104:120,1,93.75,2|0,0:0|0:0,0:0:0:0:
104,252,172699,2,0,P|56:263|9:251,1,93.75,2|0,0:0|0:0,0:0:0:0:
190,137,173161,2,0,P|238:126|285:138,1,93.75,2|0,0:0|0:0,0:0:0:0:
468,233,173622,2,0,L|491:140,1,93.75,2|0,0:0|0:0,0:0:0:0:
417,22,174084,6,0,L|353:223,1,187.5,2|0,0:0|0:0,0:0:0:0:
371,300,174776,2,0,P|288:268|186:314,1,187.5,2|0,0:0|0:0,0:0:0:0:
95,362,175469,2,0,L|159:161,1,187.5,2|0,0:0|0:0,0:0:0:0:
256,192,176046,12,4,177315,0:0:0:0:
256,256,177776,5,6,0:0:0:0:
432,192,178007,1,0,0:0:0:0:
432,192,178122,1,0,0:0:0:0:
432,192,178237,1,10,0:0:0:0:
341,90,178468,1,0,0:0:0:0:
492,63,178699,1,2,2:0:0:0:
496,95,178814,1,0,2:0:0:0:
500,126,178930,1,0,2:0:0:0:
502,158,179045,1,0,2:0:0:0:
507,189,179160,1,10,2:0:0:0:
388,141,179391,5,0,0:0:0:0:
358,276,179622,1,2,0:0:0:0:
80,192,179853,1,0,0:0:0:0:
80,192,179968,1,0,0:0:0:0:
80,192,180084,1,10,0:0:0:0:
169,90,180314,1,0,0:0:0:0:
41,17,180545,1,10,0:0:0:0:
31,72,180661,1,0,0:0:0:0:
190,196,180891,1,0,0:0:0:0:
180,141,181007,1,10,0:0:0:0:
27,284,181237,1,0,0:0:0:0:
120,383,181468,5,2,0:0:0:0:
207,296,181699,2,0,L|335:303,1,112.500004291535,0|10,0:0|0:0,0:0:0:0:
510,274,182161,1,0,0:0:0:0:
421,378,182391,2,0,P|391:297|399:209,1,168.750006437302,2|0,0:0|0:0,0:0:0:0:
400,176,182853,5,10,0:0:0:0:
256,240,183084,1,0,0:0:0:0:
112,176,183314,1,2,0:0:0:0:
256,32,183545,1,0,0:0:0:0:
256,32,183661,1,0,0:0:0:0:
256,32,183776,1,10,0:0:0:0:
336,224,184007,1,0,0:0:0:0:
200,115,184237,2,0,P|182:164|177:224,1,112.500004291535,2|0,0:0|0:0,0:0:0:0:
176,224,184584,1,0,0:0:0:0:
177,223,184699,2,0,P|124:246|64:237,1,112.500004291535,10|0,0:0|0:0,0:0:0:0:
0,154,185161,5,2,0:0:0:0:
82,363,185392,1,0,0:0:0:0:
82,363,185507,1,0,0:0:0:0:
82,363,185622,1,10,0:0:0:0:
176,224,185853,1,0,0:0:0:0:
288,320,186084,1,2,0:0:0:0:
322,320,186199,1,0,0:0:0:0:
354,307,186315,1,0,0:0:0:0:
378,282,186430,1,0,0:0:0:0:
384,248,186545,1,10,0:0:0:0:
499,302,186776,5,0,0:0:0:0:
443,139,187007,1,2,0:0:0:0:
297,231,187237,1,0,0:0:0:0:
297,231,187353,1,0,0:0:0:0:
297,231,187468,1,10,0:0:0:0:
215,39,187699,1,0,0:0:0:0:
142,153,187930,1,10,0:0:0:0:
123,112,188046,1,0,0:0:0:0:
277,271,188276,1,0,0:0:0:0:
296,230,188392,1,10,0:0:0:0:
115,196,188622,1,0,0:0:0:0:
100,367,188853,5,2,0:0:0:0:
0,277,189084,2,0,L|130:281,1,112.500004291535,0|10,0:0|0:0,0:0:0:0:
308,189,189545,1,0,0:0:0:0:
447,266,189776,2,0,P|469:182|452:95,1,168.750006437302,2|0,0:0|0:0,0:0:0:0:
443,55,190237,2,0,L|313:59,1,112.500004291535,2|0,0:0|0:0,0:0:0:0:
224,32,190699,5,2,0:0:0:0:
288,352,191045,1,0,0:0:0:0:
288,352,191160,1,2,0:0:0:0:
128,320,191391,1,0,0:0:0:0:
256,192,191622,1,2,0:0:0:0:
256,192,191737,1,0,0:0:0:0:
256,192,191853,1,0,0:0:0:0:
63,85,192084,1,2,0:0:0:0:
46,119,192199,1,0,0:0:0:0:
35,156,192314,1,2,0:0:0:0:
40,195,192430,1,0,0:0:0:0:
57,230,192545,6,0,P|117:238|176:223,1,112.500004291535,14|0,0:0|0:0,0:0:0:0:
455,154,193007,2,0,P|395:146|336:161,1,112.500004291535,2|0,0:0|0:0,0:0:0:0:
242,283,193468,1,10,0:0:0:0:
270,101,193699,1,0,0:0:0:0:
326,249,193930,1,10,0:0:0:0:
186,135,194161,1,0,0:0:0:0:
184,348,194391,6,0,P|244:356|303:341,1,112.500004291535,10|0,0:0|0:0,0:0:0:0:
455,154,194853,2,0,P|395:146|336:161,1,112.500004291535,2|0,0:0|0:0,0:0:0:0:
213,211,195314,1,10,0:0:0:0:
161,53,195545,1,0,0:0:0:0:
161,53,195661,1,0,0:0:0:0:
161,53,195776,1,10,0:0:0:0:
2,86,196007,1,0,0:0:0:0:
186,135,196237,5,10,0:0:0:0:
2,86,196468,2,0,P|-8:141|0:201,1,112.500004291535,0|2,0:0|0:0,0:0:0:0:
76,342,196930,1,0,0:0:0:0:
213,211,197161,2,0,P|223:266|215:326,1,112.500004291535,10|0,0:0|0:0,0:0:0:0:
186,360,197507,1,0,0:0:0:0:
186,360,197622,2,0,P|131:359|73:340,1,112.500004291535,2|0,0:0|0:0,0:0:0:0:
186,135,198084,5,10,0:0:0:0:
293,228,198314,1,0,0:0:0:0:
293,228,198430,1,0,0:0:0:0:
293,228,198545,1,10,0:0:0:0:
334,35,198776,1,0,0:0:0:0:
386,149,199007,2,0,P|446:156|502:151,1,112.500004291535,10|0,0:0|0:0,0:0:0:0:
334,35,199468,2,0,P|274:28|218:33,1,112.500004291535,10|0,0:0|0:0,0:0:0:0:
69,10,199930,6,0,P|62:70|67:126,1,112.500004291535,2|0,0:0|0:0,0:0:0:0:
21,300,200391,2,0,P|81:307|137:302,1,112.500004291535,2|0,0:0|0:0,0:0:0:0:
381,196,200853,1,10,0:0:0:0:
298,380,201084,1,0,0:0:0:0:
279,156,201314,1,10,0:0:0:0:
388,307,201545,1,0,0:0:0:0:
197,324,201776,6,0,P|185:265|185:209,1,112.500004291535,10|0,0:0|0:0,0:0:0:0:
368,85,202237,2,0,P|381:144|381:200,1,112.500004291535,2|0,0:0|0:0,0:0:0:0:
388,307,202699,1,10,0:0:0:0:
184,213,202930,1,0,0:0:0:0:
197,324,203161,1,10,0:0:0:0:
381,196,203391,1,0,0:0:0:0:
298,380,203622,5,2,0:0:0:0:
190,268,203853,2,0,L|77:273,1,112.500004291535,0|2,0:0|0:0,0:0:0:0:
13,124,204314,1,0,0:0:0:0:
293,211,204545,2,0,P|301:147|295:95,1,112.500004291535,2|0,0:0|0:0,0:0:0:0:
164,18,205007,2,0,P|157:81|163:133,1,112.500004291535,2|0,0:0|0:0,0:0:0:0:
190,268,205468,1,6,0:0:0:0:
46,222,205814,5,0,0:0:0:0:
46,222,205930,2,0,P|39:285|45:337,1,112.500004291535,2|0,0:0|0:0,0:0:0:0:
132,355,206391,2,0,P|192:345|248:359,1,112.500004291535,2|0,0:0|0:0,0:0:0:0:
331,374,206853,2,0,P|382:349|415:298,1,112.500004291535,2|0,0:0|0:0,0:0:0:0:
492,186,207315,6,0,P|439:195|372:183,1,112.500004291535,6|0,0:0|0:0,0:0:0:0:
176,121,207776,1,10,0:0:0:0:
250,259,208007,1,0,0:0:0:0:
310,78,208238,1,10,0:0:0:0:
158,276,208469,1,0,0:0:0:0:
333,283,208699,1,10,0:0:0:0:
253,138,208930,1,0,0:0:0:0:
211,341,209161,5,10,0:0:0:0:
314,202,209392,1,0,0:0:0:0:
468,322,209622,2,0,P|479:264|469:202,1,112.500004291535,2|0,0:0|0:0,0:0:0:0:
384,352,210084,1,10,0:0:0:0:
192,224,210315,1,0,0:0:0:0:
44,322,210546,2,0,P|33:264|43:202,1,112.500004291535,10|0,0:0|0:0,0:0:0:0:
61,69,211007,5,2,0:0:0:0:
264,105,211238,1,0,0:0:0:0:
264,105,211353,1,0,0:0:0:0:
264,105,211469,1,2,0:0:0:0:
155,304,211699,1,0,0:0:0:0:
155,304,211815,1,0,0:0:0:0:
155,304,211930,1,2,0:0:0:0:
128,163,212161,1,0,0:0:0:0:
373,194,212392,5,2,0:0:0:0:
386,230,212507,1,0,0:0:0:0:
392,268,212622,1,2,0:0:0:0:
388,307,212738,1,0,0:0:0:0:
374,343,212853,2,0,P|312:355|260:347,1,112.500004291535,2|0,0:0|0:0,0:0:0:0:
214,313,213199,1,0,0:0:0:0:
214,313,213315,2,0,P|152:301|100:309,1,112.500004291535,2|0,0:0|0:0,0:0:0:0:
103,307,213661,1,0,0:0:0:0:
103,307,213776,1,2,0:0:0:0:
12,191,214007,5,0,0:0:0:0:
36,356,214238,1,2,0:0:0:0:
171,166,214469,1,0,0:0:0:0:
324,270,214699,6,0,L|440:257,1,112.500004291535,2|0,0:0|0:0,0:0:0:0:
257,37,215161,1,10,0:0:0:0:
260,166,215392,1,0,0:0:0:0:
115,97,215622,1,10,0:0:0:0:
425,101,215853,1,0,0:0:0:0:
213,235,216084,1,10,0:0:0:0:
175,27,216315,1,0,0:0:0:0:
117,192,216546,6,0,L|1:179,1,112.500004291535,2|0,0:0|0:0,0:0:0:0:
203,101,217007,1,10,0:0:0:0:
207,313,217238,1,0,0:0:0:0:
296,210,217468,1,10,0:0:0:0:
415,368,217699,1,0,0:0:0:0:
423,231,217930,1,10,0:0:0:0:
306,370,218161,1,0,0:0:0:0:
137,251,218392,6,0,P|125:311|130:371,1,112.500004291535,2|0,0:0|0:0,0:0:0:0:
3,177,218853,2,0,L|120:183,1,112.500004291535,2|0,0:0|0:0,0:0:0:0:
115,182,219199,1,0,0:0:0:0:
115,182,219315,1,2,0:0:0:0:
94,41,219546,1,0,0:0:0:0:
265,129,219776,5,2,0:0:0:0:
299,99,219892,1,0,0:0:0:0:
303,53,220007,1,2,0:0:0:0:
270,22,220122,1,0,0:0:0:0:
224,22,220238,2,0,P|189:87|201:193,1,168.750006437302,2|0,0:0|0:0,0:0:0:0:
214,219,220699,5,2,0:0:0:0:
374,156,220930,1,0,0:0:0:0:
355,252,221161,1,2,0:0:0:0:
512,190,221392,1,0,0:0:0:0:
355,252,221622,1,2,0:0:0:0:
442,357,221853,1,0,0:0:0:0:
512,190,222084,6,0,P|515:239|514:288,1,93.75,6|0,0:0|0:0,0:0:0:0:
376,61,222546,2,0,P|373:110|374:159,1,93.75,2|0,0:0|0:0,0:0:0:0:
290,198,223007,2,0,P|240:190|180:206,1,93.75,2|0,0:0|0:0,0:0:0:0:
15,290,223469,2,0,P|12:241|13:192,1,93.75,2|0,0:0|0:0,0:0:0:0:
25,84,223930,5,2,0:0:0:0:
99,192,224161,1,0,0:0:0:0:
243,81,224392,1,2,0:0:0:0:
61,139,224622,1,0,0:0:0:0:
279,132,224853,2,0,P|285:175|279:233,1,93.75,2|0,0:0|0:0,0:0:0:0:
145,327,225315,2,0,P|139:284|145:226,1,93.75,2|0,0:0|0:0,0:0:0:0:
420,267,225776,6,0,P|426:310|420:368,1,93.75,2|0,0:0|0:0,0:0:0:0:
277,383,226238,2,0,P|271:340|277:282,1,93.75,2|0,0:0|0:0,0:0:0:0:
275,290,226584,1,0,0:0:0:0:
275,290,226699,1,2,0:0:0:0:
145,328,226930,1,0,0:0:0:0:
105,191,227161,1,2,0:0:0:0:
105,191,227276,1,0,0:0:0:0:
105,191,227392,1,0,0:0:0:0:
18,274,227622,6,0,P|6:218|16:123,1,140.625,2|0,0:0|0:0,0:0:0:0:
22,90,228084,2,0,L|126:97,1,93.75,2|0,0:0|0:0,0:0:0:0:
353,26,228546,1,2,0:0:0:0:
206,206,228776,1,0,0:0:0:0:
187,61,229007,1,2,0:0:0:0:
365,186,229238,1,0,0:0:0:0:
279,95,229469,6,0,P|277:144|286:196,1,93.75,2|0,0:0|0:0,0:0:0:0:
441,237,229930,2,0,P|443:188|434:136,1,93.75
87,61,230392,2,0,P|85:110|94:162,1,93.75,2|0,0:0|0:0,0:0:0:0:
371,360,230853,2,0,P|373:311|364:259,1,93.75
269,315,231315,6,0,P|220:317|168:308,1,93.75,2|0,0:0|0:0,0:0:0:0:
9,266,231776,2,0,L|1:370,1,93.75
64,177,232237,2,0,L|131:256,1,93.75,2|0,0:0|0:0,2:0:0:0:
125,99,232699,2,0,L|229:107,1,93.75,0|0,0:0|0:0,2:0:0:0:
366,132,233161,6,0,P|373:82|369:34,2,93.75,2|0|0,0:0|0:0|0:0,0:0:0:0:
313,276,233853,1,0,0:0:0:0:
419,206,234084,2,0,L|517:209,1,93.75,2|0,0:0|0:0,0:0:0:0:
343,355,234546,2,0,L|245:352,1,93.75,2|0,0:0|0:0,0:0:0:0:
191,353,234892,1,0,0:0:0:0:
191,353,235007,2,0,P|186:301|191:252,1,93.75,2|0,0:0|0:0,0:0:0:0:
189,259,235353,1,0,0:0:0:0:
189,259,235469,1,2,0:0:0:0:
88,328,235699,5,0,0:0:0:0:
47,143,235930,1,2,0:0:0:0:
3,259,236161,1,0,0:0:0:0:
164,166,236392,1,2,0:0:0:0:
191,353,236622,1,0,0:0:0:0:
96,239,236853,1,6,0:0:0:0:
