osu file format v14

[General]
AudioFilename: top.mp3
AudioLeadIn: 0
PreviewTime: 73465
Countdown: 1
SampleSet: None
StackLeniency: 0.7
Mode: 0
LetterboxInBreaks: 1
WidescreenStoryboard: 0

[Editor]
Bookmarks: 11249,33067,35112,76703,98521,142158,163976
DistanceSpacing: 0.8
BeatDivisor: 8
GridSize: 8
TimelineZoom: 3.599999

[Metadata]
Title:Turn It Up
TitleUnicode:Turn It Up
Artist:T.O.P
ArtistUnicode:T.O.P
Creator:Euny
Version:B.I.N.G.U
Source:
Tags:k-pop kpop 탑 μ΅œμŠΉν˜„ CHOI SEUNG HYUN YG ENTERTAINMENT
BeatmapID:1099224
BeatmapSetID:517324

[Difficulty]
HPDrainRate:6.5
CircleSize:4.2
OverallDifficulty:8
ApproachRate:9
SliderMultiplier:3.2
SliderTickRate:1

[Events]
//Background and Video events
Video,-2454,"TOP TURN IT UP.avi"
0,0,"TOP.jpg",0,0
//Break Periods
2,27642,32467
2,33267,34512
//Storyboard Layer 0 (Background)
//Storyboard Layer 1 (Fail)
//Storyboard Layer 2 (Pass)
//Storyboard Layer 3 (Foreground)
//Storyboard Sound Samples

[TimingPoints]
340,681.818181818182,4,3,0,60,1,0
340,-200,4,3,0,60,0,0
11249,-90.9090909090909,4,3,0,60,0,1
13294,-142.857142857143,4,3,0,60,0,1
13976,-90.9090909090909,4,3,0,60,0,1
17044,-71.4285714285714,4,3,0,60,0,1
17385,-166.666666666667,4,3,0,60,0,1
17726,-90.9090909090909,4,3,0,60,0,1
19771,-71.4285714285714,4,3,0,60,0,1
20112,-166.666666666667,4,3,0,60,0,1
20453,-90.9090909090909,4,3,0,60,0,1
33067,-125,4,3,0,60,0,0
43976,-200,4,3,0,60,0,0
44658,-125,4,3,0,60,0,0
49430,-200,4,3,0,60,0,0
50112,-125,4,3,0,60,0,0
66476,-200,4,3,0,60,0,0
66817,-125,4,3,0,60,0,0
67840,-200,4,3,0,60,0,0
68180,-125,4,3,0,60,0,0
73976,-76.9230769230769,4,3,0,60,0,0
74658,-125,4,3,0,60,0,0
76703,-90.9090909090909,4,3,0,60,0,1
98521,-125,4,3,0,60,0,0
100567,-200,4,3,0,60,0,0
101249,-125,4,3,0,60,0,0
108067,-200,4,3,0,60,0,0
108749,-125,4,3,0,60,0,0
139430,-200,4,3,0,60,0,0
140453,-125,4,3,0,60,0,0
142158,-90.9090909090909,4,3,0,60,0,1
163976,-125,4,3,0,60,0,0

[Colours]
Combo1 : 128,128,128
Combo2 : 255,255,0

[HitObjects]
208,120,340,5,0,0:0:0:0:
212,130,1021,2,0,P|263:147|306:122,1,100
338,93,1533,1,0,0:0:0:0:
347,241,1874,1,0,0:0:0:0:
426,223,2044,1,0,0:0:0:0:
281,305,2385,2,0,P|267:278|262:249,1,60
268,201,2726,1,0,0:0:0:0:
121,126,3067,5,0,0:0:0:0:
128,137,3749,2,0,L|133:248,1,100
134,288,4260,1,0,0:0:0:0:
277,259,4601,1,0,0:0:0:0:
244,181,4771,1,0,0:0:0:0:
309,337,5112,2,0,P|339:317|353:296,1,60
365,248,5453,1,0,0:0:0:0:
365,248,5624,1,0,0:0:0:0:
226,325,5794,5,0,0:0:0:0:
215,323,6476,2,0,B|163:345|169:307|104:328,1,100
74,355,6987,1,0,0:0:0:0:
188,245,7328,1,0,0:0:0:0:
113,208,7499,1,0,0:0:0:0:
214,324,7840,2,0,P|255:299|266:273,1,60
272,239,8180,1,0,0:0:0:0:
151,134,8521,5,0,0:0:0:0:
139,139,9203,2,0,P|103:111|128:73,1,100
176,59,9715,1,0,0:0:0:0:
318,113,10055,1,0,0:0:0:0:
370,48,10226,1,0,0:0:0:0:
316,193,10567,2,0,P|281:183|260:162,1,60
236,122,10908,1,0,0:0:0:0:
236,122,11078,1,0,0:0:0:0:
406,201,11249,6,0,B|394:310|394:310|401:348,1,132.00000402832
437,372,11590,2,0,P|390:353|299:361,1,132.00000402832
265,377,11930,5,0,0:0:0:0:
362,280,12101,1,0,0:0:0:0:
184,343,12271,1,0,0:0:0:0:
236,122,12442,1,0,0:0:0:0:
250,299,12612,5,0,0:0:0:0:
65,286,12783,1,0,0:0:0:0:
79,67,12953,1,0,0:0:0:0:
79,67,13294,6,0,L|90:160,1,83.9999974365235
122,185,13635,1,0,0:0:0:0:
122,185,13976,5,0,0:0:0:0:
12,124,14146,1,0,0:0:0:0:
187,123,14317,2,0,P|203:161|206:218,1,88.000002685547
101,102,14658,6,0,P|119:62|155:38,1,88.000002685547
122,185,14999,1,0,0:0:0:0:
39,46,15169,1,0,0:0:0:0:
260,43,15340,5,0,0:0:0:0:
200,205,15510,1,0,0:0:0:0:
178,33,15680,1,0,0:0:0:0:
346,54,15851,1,0,0:0:0:0:
331,285,16021,5,0,0:0:0:0:
254,135,16192,1,0,0:0:0:0:
474,164,16362,1,0,0:0:0:0:
368,361,16533,1,0,0:0:0:0:
172,139,16703,6,0,P|198:80|257:54,1,132.00000402832
254,21,17044,6,0,B|228:38|228:38|204:19|204:19|161:58|93:39,1,167.999994873047
85,70,17385,6,0,L|97:142,1,71.9999978027344
112,192,17726,1,0,0:0:0:0:
8,19,17896,1,0,0:0:0:0:
8,19,18237,5,0,0:0:0:0:
242,62,18408,1,0,0:0:0:0:
48,103,18578,1,0,0:0:0:0:
311,103,18749,1,0,0:0:0:0:
75,191,18919,5,0,0:0:0:0:
325,181,19090,1,0,0:0:0:0:
51,279,19260,1,0,0:0:0:0:
357,254,19430,2,0,P|395:219|389:135,1,132.00000402832
310,103,19771,6,0,P|309:32|375:59,1,167.999994873047
325,181,20112,6,0,L|243:177,1,71.9999978027344
196,178,20453,1,0,0:0:0:0:
466,256,20624,1,0,0:0:0:0:
466,256,20965,5,0,0:0:0:0:
391,53,21135,1,0,0:0:0:0:
380,253,21305,1,0,0:0:0:0:
312,14,21476,5,0,0:0:0:0:
327,313,21646,1,0,0:0:0:0:
249,76,21817,1,0,0:0:0:0:
276,377,21987,1,0,0:0:0:0:
128,168,22158,6,0,P|123:110|180:117,1,132.00000402832
166,240,22499,2,0,P|109:245|50:188,1,132.00000402832
0,136,22840,2,0,L|12:255,1,88.000002685547
81,100,23180,5,0,0:0:0:0:
0,30,23351,1,0,0:0:0:0:
61,212,23521,1,0,0:0:0:0:
171,113,23692,1,0,0:0:0:0:
76,289,23862,2,0,P|33:289|0:261,1,88.000002685547
166,271,24203,5,0,0:0:0:0:
79,373,24374,1,0,0:0:0:0:
277,283,24544,1,0,0:0:0:0:
97,366,24715,1,0,0:0:0:0:
304,359,24885,6,0,P|342:324|354:285,1,88.000002685547
304,114,25226,2,0,L|318:220,1,88.000002685547
222,75,25567,2,0,P|256:38|296:22,1,88.000002685547
479,96,25908,2,0,L|375:66,1,88.000002685547
489,15,26249,5,0,0:0:0:0:
363,173,26419,1,0,0:0:0:0:
481,172,26590,1,0,0:0:0:0:
320,35,26760,1,0,0:0:0:0:
316,249,26930,5,0,0:0:0:0:
386,87,27101,1,0,0:0:0:0:
189,73,27271,1,0,0:0:0:0:
221,318,27442,1,0,0:0:0:0:
197,191,33067,5,0,0:0:0:0:
217,212,35112,5,0,0:0:0:0:
