osu file format v12

[General]
AudioFilename: 02.mp3
AudioLeadIn: 2000
PreviewTime: 58933
Countdown: 0
SampleSet: Normal
StackLeniency: 0.7
Mode: 1
LetterboxInBreaks: 0
WidescreenStoryboard: 0

[Editor]
Bookmarks: 6468,22276,39522,59642
DistanceSpacing: 0.5
BeatDivisor: 4
GridSize: 32
TimelineZoom: 1

[Metadata]
Title:Preserved Roses -Anime Version-
TitleUnicode:Preserved Roses -アニメバージョン-
Artist:T.M.Revolution x Nana Mizuki
ArtistUnicode:T.M.Revolution×水樹奈々
Creator:qoot8123
Version:Oni
Source:Valvrave the Liberator
Tags:opening Asakura Daisuke Inoue Akio SUNRISE VVV かくめいきヴァルヴレイヴ 革命機ヴァルヴレイヴ
BeatmapID:257298
BeatmapSetID:95888

[Difficulty]
HPDrainRate:5
CircleSize:5
OverallDifficulty:5
ApproachRate:5
SliderMultiplier:1.4
SliderTickRate:1

[Events]
//Background and Video events
0,0,"BG.png",0,75
//Break Periods
//Storyboard Layer 0 (Background)
//Storyboard Layer 1 (Fail)
//Storyboard Layer 2 (Pass)
//Storyboard Layer 3 (Foreground)
//Storyboard Sound Samples
//Background Colour Transformations
3,100,163,162,255

[TimingPoints]
730,359.281437125748,4,1,0,90,1,0
59652,-100,4,1,0,90,0,1
86957,-100,4,1,0,90,0,0

[Colours]
Combo1 : 172,66,109
Combo2 : 160,83,138

[HitObjects]
256,192,730,5,8,0:0:0:0:
256,192,909,1,8,0:0:0:0:
256,192,1089,1,8,0:0:0:0:
256,192,1268,1,0,0:0:0:0:
256,192,1448,1,8,0:0:0:0:
256,192,1807,1,8,0:0:0:0:
256,192,1987,1,8,0:0:0:0:
256,192,2167,1,8,0:0:0:0:
256,192,2346,1,0,0:0:0:0:
256,192,2526,1,8,0:0:0:0:
256,192,2885,1,0,0:0:0:0:
256,192,3244,1,0,0:0:0:0:
256,192,3604,1,8,0:0:0:0:
256,192,3783,1,8,0:0:0:0:
256,192,3963,1,8,0:0:0:0:
256,192,4143,1,0,0:0:0:0:
256,192,4322,1,8,0:0:0:0:
256,192,4682,1,12,0:0:0:0:
256,192,4861,1,0,0:0:0:0:
256,192,5041,12,0,6119,0:0:0:0:
256,192,6478,5,4,0:0:0:0:
256,192,6837,1,8,0:0:0:0:
256,192,7017,1,0,0:0:0:0:
256,192,7376,1,8,0:0:0:0:
256,192,7556,1,8,0:0:0:0:
256,192,7735,1,0,0:0:0:0:
256,192,7915,1,0,0:0:0:0:
256,192,8095,1,0,0:0:0:0:
256,192,8185,1,0,0:0:0:0:
256,192,8274,1,8,0:0:0:0:
256,192,8454,1,8,0:0:0:0:
256,192,8634,1,0,0:0:0:0:
256,192,8993,1,8,0:0:0:0:
256,192,9173,1,0,0:0:0:0:
256,192,9352,1,0,0:0:0:0:
256,192,9712,1,8,0:0:0:0:
256,192,9891,1,0,0:0:0:0:
256,192,10250,1,8,0:0:0:0:
256,192,10610,1,0,0:0:0:0:
256,192,10969,1,0,0:0:0:0:
256,192,11149,1,8,0:0:0:0:
256,192,11328,1,8,0:0:0:0:
256,192,11418,1,8,0:0:0:0:
256,192,11508,1,0,0:0:0:0:
256,192,11688,1,0,0:0:0:0:
256,192,11777,1,0,0:0:0:0:
256,192,11867,1,8,0:0:0:0:
256,192,12047,1,0,0:0:0:0:
256,192,12227,1,8,0:0:0:0:
256,192,12586,1,8,0:0:0:0:
256,192,12765,1,8,0:0:0:0:
256,192,13125,1,8,0:0:0:0:
256,192,13304,1,8,0:0:0:0:
256,192,13484,1,0,0:0:0:0:
256,192,13664,1,8,0:0:0:0:
256,192,13843,1,0,0:0:0:0:
256,192,13933,1,0,0:0:0:0:
256,192,14023,1,8,0:0:0:0:
256,192,14203,1,8,0:0:0:0:
256,192,14382,1,0,0:0:0:0:
256,192,14741,1,8,0:0:0:0:
256,192,14921,1,8,0:0:0:0:
256,192,15011,1,8,0:0:0:0:
256,192,15101,1,8,0:0:0:0:
256,192,16538,1,8,0:0:0:0:
256,192,16897,1,8,0:0:0:0:
256,192,17256,1,0,0:0:0:0:
256,192,17436,1,8,0:0:0:0:
256,192,17616,1,8,0:0:0:0:
256,192,17795,1,0,0:0:0:0:
256,192,17885,1,0,0:0:0:0:
256,192,17975,1,8,0:0:0:0:
256,192,18334,1,8,0:0:0:0:
256,192,18514,1,0,0:0:0:0:
256,192,18694,1,4,0:0:0:0:
256,192,18963,1,8,0:0:0:0:
256,192,19232,1,0,0:0:0:0:
256,192,19412,1,4,0:0:0:0:
256,192,19771,1,8,0:0:0:0:
256,192,19951,1,0,0:0:0:0:
256,192,20131,1,8,0:0:0:0:
256,192,20310,1,8,0:0:0:0:
256,192,20400,1,0,0:0:0:0:
256,192,20490,1,8,0:0:0:0:
256,192,20670,1,8,0:0:0:0:
256,192,20849,1,4,0:0:0:0:
256,192,21029,1,0,0:0:0:0:
256,192,21209,1,8,0:0:0:0:
256,192,21388,1,0,0:0:0:0:
256,192,21568,1,8,0:0:0:0:
256,192,21658,1,0,0:0:0:0:
256,192,21747,1,0,0:0:0:0:
256,192,21837,1,0,0:0:0:0:
256,192,21927,1,8,0:0:0:0:
256,192,22107,1,0,0:0:0:0:
256,192,22286,1,4,0:0:0:0:
256,192,22646,1,8,0:0:0:0:
256,192,22825,1,0,0:0:0:0:
256,192,23185,1,0,0:0:0:0:
256,192,23544,1,8,0:0:0:0:
256,192,23724,1,0,0:0:0:0:
256,192,23903,1,0,0:0:0:0:
256,192,24083,1,8,0:0:0:0:
256,192,24262,1,0,0:0:0:0:
256,192,24442,1,0,0:0:0:0:
256,192,24622,1,0,0:0:0:0:
256,192,24801,1,8,0:0:0:0:
256,192,25161,1,0,0:0:0:0:
256,192,25520,1,8,0:0:0:0:
256,192,25700,1,0,0:0:0:0:
256,192,26059,1,0,0:0:0:0:
256,192,26238,1,8,0:0:0:0:
256,192,26418,1,0,0:0:0:0:
256,192,26598,1,8,0:0:0:0:
256,192,26777,1,0,0:0:0:0:
256,192,26867,1,0,0:0:0:0:
256,192,26957,1,8,0:0:0:0:
256,192,27137,1,0,0:0:0:0:
256,192,27316,1,0,0:0:0:0:
256,192,27406,1,0,0:0:0:0:
256,192,27496,1,0,0:0:0:0:
256,192,27586,1,0,0:0:0:0:
256,192,27676,1,8,0:0:0:0:
256,192,27855,1,0,0:0:0:0:
256,192,28035,1,4,0:0:0:0:
256,192,28394,1,8,0:0:0:0:
256,192,28574,1,0,0:0:0:0:
256,192,28753,1,0,0:0:0:0:
256,192,28933,1,8,0:0:0:0:
256,192,29023,1,8,0:0:0:0:
256,192,29113,1,8,0:0:0:0:
256,192,29292,1,0,0:0:0:0:
256,192,29652,1,0,0:0:0:0:
256,192,29831,1,8,0:0:0:0:
256,192,30011,1,0,0:0:0:0:
256,192,30101,1,0,0:0:0:0:
256,192,30191,1,8,0:0:0:0:
256,192,30370,1,0,0:0:0:0:
256,192,30550,1,8,0:0:0:0:
256,192,30729,1,8,0:0:0:0:
256,192,31089,1,8,0:0:0:0:
256,192,31268,1,0,0:0:0:0:
256,192,31448,1,8,0:0:0:0:
256,192,31807,1,8,0:0:0:0:
256,192,31987,1,8,0:0:0:0:
256,192,32167,1,8,0:0:0:0:
256,192,32346,1,0,0:0:0:0:
256,192,32526,1,8,0:0:0:0:
256,192,32616,1,8,0:0:0:0:
256,192,32706,1,0,0:0:0:0:
256,192,32885,1,8,0:0:0:0:
256,192,33065,1,0,0:0:0:0:
256,192,33244,1,0,0:0:0:0:
256,192,33424,1,8,0:0:0:0:
256,192,33783,1,0,0:0:0:0:
256,192,34143,1,0,0:0:0:0:
256,192,34322,1,8,0:0:0:0:
256,192,34502,1,0,0:0:0:0:
256,192,34682,1,8,0:0:0:0:
256,192,34771,1,8,0:0:0:0:
256,192,34861,1,8,0:0:0:0:
256,192,35041,1,0,0:0:0:0:
256,192,35400,1,8,0:0:0:0:
256,192,35580,1,8,0:0:0:0:
256,192,35759,1,0,0:0:0:0:
256,192,35939,1,0,0:0:0:0:
256,192,36029,1,0,0:0:0:0:
256,192,36119,1,8,0:0:0:0:
256,192,36298,1,0,0:0:0:0:
256,192,36478,1,8,0:0:0:0:
256,192,36837,1,8,0:0:0:0:
256,192,37017,1,0,0:0:0:0:
256,192,37197,1,8,0:0:0:0:
256,192,37556,1,8,0:0:0:0:
256,192,37735,1,8,0:0:0:0:
256,192,37915,1,0,0:0:0:0:
256,192,38005,1,0,0:0:0:0:
256,192,38095,1,0,0:0:0:0:
256,192,38274,1,8,0:0:0:0:
256,192,38454,1,8,0:0:0:0:
256,192,38634,1,0,0:0:0:0:
256,192,38724,1,0,0:0:0:0:
256,192,38813,1,8,0:0:0:0:
256,192,38993,1,0,0:0:0:0:
256,192,39173,1,8,0:0:0:0:
256,192,39532,1,4,0:0:0:0:
256,192,39891,1,8,0:0:0:0:
256,192,40071,1,8,0:0:0:0:
256,192,40250,1,0,0:0:0:0:
256,192,40610,1,8,0:0:0:0:
256,192,40789,1,8,0:0:0:0:
256,192,40969,1,0,0:0:0:0:
256,192,41149,1,0,0:0:0:0:
256,192,41238,1,0,0:0:0:0:
256,192,41328,1,8,0:0:0:0:
256,192,41508,1,0,0:0:0:0:
256,192,41867,1,0,0:0:0:0:
256,192,42047,1,8,0:0:0:0:
256,192,42406,1,0,0:0:0:0:
256,192,42765,1,8,0:0:0:0:
256,192,42945,1,0,0:0:0:0:
256,192,43125,1,8,0:0:0:0:
256,192,43484,1,0,0:0:0:0:
256,192,43664,1,0,0:0:0:0:
256,192,43843,1,8,0:0:0:0:
256,192,44023,1,8,0:0:0:0:
256,192,44113,1,8,0:0:0:0:
256,192,44203,1,0,0:0:0:0:
256,192,44382,1,8,0:0:0:0:
256,192,44562,1,0,0:0:0:0:
256,192,44741,1,0,0:0:0:0:
256,192,45101,1,0,0:0:0:0:
256,192,45280,1,0,0:0:0:0:
256,192,45640,1,8,0:0:0:0:
256,192,45819,1,8,0:0:0:0:
256,192,45999,1,0,0:0:0:0:
256,192,46358,1,8,0:0:0:0:
256,192,46538,1,8,0:0:0:0:
256,192,46718,1,0,0:0:0:0:
256,192,46897,1,0,0:0:0:0:
256,192,47077,1,8,0:0:0:0:
256,192,47256,1,0,0:0:0:0:
256,192,47436,1,0,0:0:0:0:
256,192,47795,1,8,0:0:0:0:
256,192,47975,1,8,0:0:0:0:
256,192,48065,1,8,0:0:0:0:
256,192,48155,1,0,0:0:0:0:
256,192,48334,1,0,0:0:0:0:
256,192,48514,1,8,0:0:0:0:
256,192,48873,1,8,0:0:0:0:
256,192,49053,1,8,0:0:0:0:
256,192,49232,1,0,0:0:0:0:
256,192,49412,1,8,0:0:0:0:
256,192,49771,1,8,0:0:0:0:
256,192,49951,1,8,0:0:0:0:
256,192,50131,1,0,0:0:0:0:
256,192,50221,1,0,0:0:0:0:
256,192,50310,1,8,0:0:0:0:
256,192,50490,1,8,0:0:0:0:
256,192,50849,1,8,0:0:0:0:
256,192,50939,1,8,0:0:0:0:
256,192,51029,1,0,0:0:0:0:
256,192,51209,1,0,0:0:0:0:
256,192,51388,1,8,0:0:0:0:
256,192,51747,1,0,0:0:0:0:
256,192,51927,1,8,0:0:0:0:
256,192,52107,1,0,0:0:0:0:
256,192,52286,1,8,0:0:0:0:
256,192,52646,1,8,0:0:0:0:
256,192,52825,1,8,0:0:0:0:
256,192,53005,1,0,0:0:0:0:
256,192,53095,1,0,0:0:0:0:
256,192,53185,1,8,0:0:0:0:
256,192,53364,1,0,0:0:0:0:
256,192,53724,1,0,0:0:0:0:
256,192,53813,1,0,0:0:0:0:
256,192,53903,1,8,0:0:0:0:
256,192,54083,1,0,0:0:0:0:
256,192,54262,1,8,0:0:0:0:
256,192,54622,1,0,0:0:0:0:
256,192,54801,1,8,0:0:0:0:
256,192,54981,1,0,0:0:0:0:
256,192,55161,1,8,0:0:0:0:
256,192,55520,1,8,0:0:0:0:
256,192,55700,1,8,0:0:0:0:
256,192,55879,1,0,0:0:0:0:
256,192,55969,1,0,0:0:0:0:
256,192,56059,1,8,0:0:0:0:
256,192,56238,1,8,0:0:0:0:
256,192,56418,1,0,0:0:0:0:
256,192,56508,1,0,0:0:0:0:
256,192,56598,1,0,0:0:0:0:
256,192,56688,1,0,0:0:0:0:
256,192,56777,1,8,0:0:0:0:
256,192,56957,1,8,0:0:0:0:
256,192,57047,1,8,0:0:0:0:
256,192,57137,1,0,0:0:0:0:
256,192,57316,1,0,0:0:0:0:
256,192,57496,1,8,0:0:0:0:
256,192,57676,1,0,0:0:0:0:
256,192,57765,1,0,0:0:0:0:
256,192,57855,1,8,0:0:0:0:
256,192,58035,1,4,0:0:0:0:
256,192,58933,1,0,0:0:0:0:
256,192,59292,1,8,0:0:0:0:
256,192,59652,5,4,0:0:0:0:
256,192,60011,1,0,0:0:0:0:
256,192,60191,1,8,0:0:0:0:
256,192,60550,1,8,0:0:0:0:
256,192,60729,1,0,0:0:0:0:
256,192,60909,1,0,0:0:0:0:
256,192,61089,1,8,0:0:0:0:
256,192,61268,1,0,0:0:0:0:
256,192,61358,1,0,0:0:0:0:
256,192,61448,1,8,0:0:0:0:
256,192,61628,1,8,0:0:0:0:
256,192,61807,1,0,0:0:0:0:
256,192,61897,1,0,0:0:0:0:
256,192,61987,1,0,0:0:0:0:
256,192,62167,1,8,0:0:0:0:
256,192,62346,1,8,0:0:0:0:
256,192,62436,1,8,0:0:0:0:
256,192,62526,1,0,0:0:0:0:
256,192,62885,1,8,0:0:0:0:
256,192,63065,1,0,0:0:0:0:
256,192,63424,1,8,0:0:0:0:
256,192,63604,1,0,0:0:0:0:
256,192,63783,1,8,0:0:0:0:
256,192,63873,1,8,0:0:0:0:
256,192,63963,1,0,0:0:0:0:
256,192,64143,1,0,0:0:0:0:
256,192,64232,1,0,0:0:0:0:
256,192,64322,1,8,0:0:0:0:
256,192,64502,1,8,0:0:0:0:
256,192,64682,1,0,0:0:0:0:
256,192,64771,1,0,0:0:0:0:
256,192,64861,1,0,0:0:0:0:
256,192,64951,1,0,0:0:0:0:
256,192,65041,1,8,0:0:0:0:
256,192,65221,1,0,0:0:0:0:
256,192,65400,1,12,0:0:0:0:
256,192,65759,1,0,0:0:0:0:
256,192,65939,1,8,0:0:0:0:
256,192,66298,1,8,0:0:0:0:
256,192,66478,1,0,0:0:0:0:
256,192,66658,1,8,0:0:0:0:
256,192,66837,1,0,0:0:0:0:
256,192,67017,1,0,0:0:0:0:
256,192,67107,1,0,0:0:0:0:
256,192,67197,1,8,0:0:0:0:
256,192,67376,1,8,0:0:0:0:
256,192,67556,1,0,0:0:0:0:
256,192,67646,1,0,0:0:0:0:
256,192,67735,1,0,0:0:0:0:
256,192,67915,1,8,0:0:0:0:
256,192,68095,1,8,0:0:0:0:
256,192,68185,1,8,0:0:0:0:
256,192,68274,1,0,0:0:0:0:
256,192,68454,1,0,0:0:0:0:
256,192,68544,1,0,0:0:0:0:
256,192,68634,1,8,0:0:0:0:
256,192,68813,1,8,0:0:0:0:
256,192,68993,1,0,0:0:0:0:
256,192,69083,1,8,0:0:0:0:
256,192,69173,1,0,0:0:0:0:
256,192,69262,1,0,0:0:0:0:
256,192,69352,1,8,0:0:0:0:
256,192,69532,1,8,0:0:0:0:
256,192,69891,1,8,0:0:0:0:
256,192,70071,1,8,0:0:0:0:
256,192,70250,1,8,0:0:0:0:
256,192,70430,1,0,0:0:0:0:
256,192,70520,1,0,0:0:0:0:
256,192,70610,1,0,0:0:0:0:
256,192,70700,1,0,0:0:0:0:
256,192,70789,1,8,0:0:0:0:
256,192,70969,1,8,0:0:0:0:
256,192,71149,1,4,0:0:0:0:
256,192,71508,1,0,0:0:0:0:
256,192,71688,1,8,0:0:0:0:
256,192,72047,1,8,0:0:0:0:
256,192,72227,1,8,0:0:0:0:
256,192,72406,1,0,0:0:0:0:
256,192,72586,1,0,0:0:0:0:
256,192,72765,1,0,0:0:0:0:
256,192,72855,1,0,0:0:0:0:
256,192,72945,1,8,0:0:0:0:
256,192,73125,1,8,0:0:0:0:
256,192,73304,1,0,0:0:0:0:
256,192,73394,1,0,0:0:0:0:
256,192,73484,1,0,0:0:0:0:
256,192,73664,1,8,0:0:0:0:
256,192,73843,1,8,0:0:0:0:
256,192,74023,1,0,0:0:0:0:
256,192,74382,1,8,0:0:0:0:
256,192,74562,1,0,0:0:0:0:
256,192,74921,1,8,0:0:0:0:
256,192,75101,1,0,0:0:0:0:
256,192,75280,1,8,0:0:0:0:
256,192,75460,1,0,0:0:0:0:
256,192,75640,1,8,0:0:0:0:
256,192,75729,1,8,0:0:0:0:
256,192,75819,1,0,0:0:0:0:
256,192,75999,1,8,0:0:0:0:
256,192,76179,1,0,0:0:0:0:
256,192,76268,1,0,0:0:0:0:
256,192,76358,1,0,0:0:0:0:
256,192,76448,1,0,0:0:0:0:
256,192,76538,1,8,0:0:0:0:
256,192,76718,1,8,0:0:0:0:
256,192,76897,1,4,0:0:0:0:
256,192,77256,1,0,0:0:0:0:
256,192,77436,1,8,0:0:0:0:
256,192,77795,1,8,0:0:0:0:
256,192,77975,1,0,0:0:0:0:
256,192,78155,1,8,0:0:0:0:
256,192,78334,1,0,0:0:0:0:
256,192,78514,1,8,0:0:0:0:
256,192,78604,1,8,0:0:0:0:
256,192,78694,1,0,0:0:0:0:
256,192,78873,1,8,0:0:0:0:
256,192,79053,1,0,0:0:0:0:
256,192,79412,1,8,0:0:0:0:
256,192,79592,1,0,0:0:0:0:
256,192,79682,1,0,0:0:0:0:
256,192,79771,1,8,0:0:0:0:
256,192,79951,1,0,0:0:0:0:
256,192,80131,1,8,0:0:0:0:
256,192,80310,1,8,0:0:0:0:
256,192,80400,1,8,0:0:0:0:
256,192,80490,1,0,0:0:0:0:
256,192,80670,1,0,0:0:0:0:
256,192,80759,1,0,0:0:0:0:
256,192,80849,1,8,0:0:0:0:
256,192,81029,1,8,0:0:0:0:
256,192,81209,1,0,0:0:0:0:
256,192,81568,1,8,0:0:0:0:
256,192,81747,1,0,0:0:0:0:
256,192,81927,1,0,0:0:0:0:
256,192,82107,1,8,0:0:0:0:
256,192,82197,1,8,0:0:0:0:
256,192,82286,1,0,0:0:0:0:
256,192,82376,1,0,0:0:0:0:
256,192,82466,1,8,0:0:0:0:
256,192,82646,1,4,0:0:0:0:
256,192,83005,1,0,0:0:0:0:
256,192,83185,1,8,0:0:0:0:
256,192,83364,1,4,0:0:0:0:
256,192,83634,1,8,0:0:0:0:
256,192,83903,1,0,0:0:0:0:
256,192,84083,1,4,0:0:0:0:
256,192,84442,1,0,0:0:0:0:
256,192,84622,1,8,0:0:0:0:
256,192,84801,1,0,0:0:0:0:
256,192,85161,1,8,0:0:0:0:
256,192,85340,1,8,0:0:0:0:
256,192,85430,1,8,0:0:0:0:
256,192,85520,1,0,0:0:0:0:
256,192,85700,1,0,0:0:0:0:
256,192,85879,1,8,0:0:0:0:
256,192,86059,1,0,0:0:0:0:
256,192,86238,1,8,0:0:0:0:
256,192,86328,1,0,0:0:0:0:
256,192,86418,1,0,0:0:0:0:
256,192,86508,1,0,0:0:0:0:
256,192,86598,1,8,0:0:0:0:
256,192,86777,1,0,0:0:0:0:
256,192,86957,1,4,0:0:0:0:
256,192,87137,12,0,89831,0:0:0:0:
