osu file format v12

[General]
AudioFilename: 02.mp3
AudioLeadIn: 2000
PreviewTime: 58933
Countdown: 0
SampleSet: Normal
StackLeniency: 0.7
Mode: 1
LetterboxInBreaks: 0
WidescreenStoryboard: 0

[Editor]
Bookmarks: 6468,22276,39522,59642
DistanceSpacing: 0.5
BeatDivisor: 4
GridSize: 32
TimelineZoom: 1

[Metadata]
Title:Preserved Roses -Anime Version-
TitleUnicode:Preserved Roses -アニメバージョン-
Artist:T.M.Revolution x Nana Mizuki
ArtistUnicode:T.M.Revolution×水樹奈々
Creator:qoot8123
Version:Futsuu
Source:Valvrave the Liberator
Tags:opening Asakura Daisuke Inoue Akio SUNRISE VVV かくめいきヴァルヴレイヴ 革命機ヴァルヴレイヴ
BeatmapID:257295
BeatmapSetID:95888

[Difficulty]
HPDrainRate:4
CircleSize:5
OverallDifficulty:4
ApproachRate:5
SliderMultiplier:1.2
SliderTickRate:1

[Events]
//Background and Video events
0,0,"BG.png",0,75
//Break Periods
//Storyboard Layer 0 (Background)
//Storyboard Layer 1 (Fail)
//Storyboard Layer 2 (Pass)
//Storyboard Layer 3 (Foreground)
//Storyboard Sound Samples
//Background Colour Transformations
3,100,163,162,255

[TimingPoints]
730,359.281437125748,4,1,0,90,1,0
59652,-100,4,1,0,90,0,1
86957,-100,4,1,0,90,0,0

[Colours]
Combo1 : 172,66,109
Combo2 : 160,83,138

[HitObjects]
256,192,730,5,4,0:0:0:0:
256,192,1807,1,0,0:0:0:0:
256,192,2885,1,0,0:0:0:0:
256,192,3244,1,0,0:0:0:0:
256,192,3604,1,4,0:0:0:0:
256,192,4682,12,0,6119,0:0:0:0:
256,192,6478,5,4,0:0:0:0:
256,192,6837,1,8,0:0:0:0:
256,192,7556,1,8,0:0:0:0:
256,192,7915,1,0,0:0:0:0:
256,192,8274,1,8,0:0:0:0:
256,192,8993,1,8,0:0:0:0:
256,192,9352,1,0,0:0:0:0:
256,192,9712,1,8,0:0:0:0:
256,192,10430,1,8,0:0:0:0:
256,192,10789,1,0,0:0:0:0:
256,192,11149,1,8,0:0:0:0:
256,192,11508,1,8,0:0:0:0:
256,192,12227,1,0,0:0:0:0:
256,192,12586,1,8,0:0:0:0:
256,192,13304,1,8,0:0:0:0:
256,192,13664,1,0,0:0:0:0:
256,192,14023,1,8,0:0:0:0:
256,192,14382,1,8,0:0:0:0:
256,192,15101,1,4,0:0:0:0:
256,192,17975,5,4,0:0:0:0:
256,192,18694,1,4,0:0:0:0:
256,192,19412,1,4,0:0:0:0:
256,192,20131,1,0,0:0:0:0:
256,192,20490,1,0,0:0:0:0:
256,192,20849,12,0,21927,0:0:0:0:
256,192,22286,5,4,0:0:0:0:
256,192,23005,1,8,0:0:0:0:
256,192,23724,1,0,0:0:0:0:
256,192,24442,1,0,0:0:0:0:
256,192,24801,1,8,0:0:0:0:
256,192,25161,1,0,0:0:0:0:
256,192,25879,1,0,0:0:0:0:
256,192,26598,1,0,0:0:0:0:
256,192,27316,1,0,0:0:0:0:
256,192,27676,1,8,0:0:0:0:
256,192,28035,1,4,0:0:0:0:
256,192,28753,1,0,0:0:0:0:
256,192,29472,1,0,0:0:0:0:
256,192,30191,1,0,0:0:0:0:
256,192,30550,1,8,0:0:0:0:
256,192,30909,1,0,0:0:0:0:
256,192,31268,1,8,0:0:0:0:
256,192,31807,1,8,0:0:0:0:
256,192,32167,1,8,0:0:0:0:
256,192,32706,1,0,0:0:0:0:
256,192,33065,1,0,0:0:0:0:
256,192,33424,1,8,0:0:0:0:
256,192,33783,1,0,0:0:0:0:
256,192,34502,1,8,0:0:0:0:
256,192,35221,1,0,0:0:0:0:
256,192,35939,1,0,0:0:0:0:
256,192,36298,1,8,0:0:0:0:
256,192,36658,1,0,0:0:0:0:
256,192,37017,1,8,0:0:0:0:
256,192,37556,1,8,0:0:0:0:
256,192,37915,1,8,0:0:0:0:
256,192,38454,1,0,0:0:0:0:
256,192,38813,1,8,0:0:0:0:
256,192,39173,1,8,0:0:0:0:
256,192,39532,1,4,0:0:0:0:
256,192,40250,1,8,0:0:0:0:
256,192,40969,1,8,0:0:0:0:
256,192,41328,1,0,0:0:0:0:
256,192,41508,1,0,0:0:0:0:
256,192,42406,1,8,0:0:0:0:
256,192,43125,1,0,0:0:0:0:
256,192,43843,1,0,0:0:0:0:
256,192,44203,1,8,0:0:0:0:
256,192,44562,1,0,0:0:0:0:
256,192,44741,1,0,0:0:0:0:
256,192,45280,1,0,0:0:0:0:
256,192,45999,1,8,0:0:0:0:
256,192,46718,1,0,0:0:0:0:
256,192,47077,1,8,0:0:0:0:
256,192,47256,1,8,0:0:0:0:
256,192,47795,1,8,0:0:0:0:
256,192,48155,1,0,0:0:0:0:
256,192,48514,1,8,0:0:0:0:
256,192,49232,1,0,0:0:0:0:
256,192,49592,1,8,0:0:0:0:
256,192,49951,1,8,0:0:0:0:
256,192,50310,1,0,0:0:0:0:
256,192,51029,1,4,0:0:0:0:
256,192,51388,1,8,0:0:0:0:
256,192,52107,1,8,0:0:0:0:
256,192,52466,1,0,0:0:0:0:
256,192,52825,1,8,0:0:0:0:
256,192,53185,1,8,0:0:0:0:
256,192,53903,1,12,0:0:0:0:
256,192,54262,1,0,0:0:0:0:
256,192,54981,1,0,0:0:0:0:
256,192,55340,1,8,0:0:0:0:
256,192,55700,1,8,0:0:0:0:
256,192,56059,1,0,0:0:0:0:
256,192,56777,1,0,0:0:0:0:
256,192,57137,1,8,0:0:0:0:
256,192,57496,1,0,0:0:0:0:
256,192,57855,1,0,0:0:0:0:
256,192,58035,1,0,0:0:0:0:
256,192,58933,1,8,0:0:0:0:
256,192,59652,1,4,0:0:0:0:
256,192,60011,1,8,0:0:0:0:
256,192,60191,1,8,0:0:0:0:
256,192,60550,1,0,0:0:0:0:
256,192,60729,1,0,0:0:0:0:
256,192,61089,1,0,0:0:0:0:
256,192,61807,1,0,0:0:0:0:
256,192,62526,1,0,0:0:0:0:
256,192,62885,1,8,0:0:0:0:
256,192,63065,1,8,0:0:0:0:
256,192,63424,1,0,0:0:0:0:
256,192,63783,1,0,0:0:0:0:
256,192,64322,1,0,0:0:0:0:
256,192,64682,1,0,0:0:0:0:
256,192,65400,1,12,0:0:0:0:
256,192,65759,1,0,0:0:0:0:
256,192,65939,1,8,0:0:0:0:
256,192,66298,1,8,0:0:0:0:
256,192,66478,1,0,0:0:0:0:
256,192,66837,1,0,0:0:0:0:
256,192,67197,1,8,0:0:0:0:
256,192,67556,1,0,0:0:0:0:
256,192,68274,1,0,0:0:0:0:
256,192,68634,1,8,0:0:0:0:
256,192,68813,1,8,0:0:0:0:
256,192,69173,1,0,0:0:0:0:
256,192,69532,1,8,0:0:0:0:
256,192,70071,1,8,0:0:0:0:
256,192,70430,1,8,0:0:0:0:
256,192,71149,1,4,0:0:0:0:
256,192,71508,1,8,0:0:0:0:
256,192,71688,1,0,0:0:0:0:
256,192,72047,1,0,0:0:0:0:
256,192,72227,1,8,0:0:0:0:
256,192,72586,1,8,0:0:0:0:
256,192,73304,1,0,0:0:0:0:
256,192,74023,1,8,0:0:0:0:
256,192,74382,1,8,0:0:0:0:
256,192,74562,1,0,0:0:0:0:
256,192,74921,1,0,0:0:0:0:
256,192,75280,1,8,0:0:0:0:
256,192,75819,1,8,0:0:0:0:
256,192,76179,1,8,0:0:0:0:
256,192,76897,1,12,0:0:0:0:
256,192,77256,1,8,0:0:0:0:
256,192,77436,1,8,0:0:0:0:
256,192,77795,1,8,0:0:0:0:
256,192,77975,1,0,0:0:0:0:
256,192,78334,1,0,0:0:0:0:
256,192,79053,1,0,0:0:0:0:
256,192,79771,1,0,0:0:0:0:
256,192,80131,1,8,0:0:0:0:
256,192,80490,1,8,0:0:0:0:
256,192,80849,1,0,0:0:0:0:
256,192,81029,1,0,0:0:0:0:
256,192,81209,1,8,0:0:0:0:
256,192,81927,1,0,0:0:0:0:
256,192,82286,1,8,0:0:0:0:
256,192,82646,1,4,0:0:0:0:
256,192,83364,1,4,0:0:0:0:
256,192,84083,1,4,0:0:0:0:
256,192,84801,1,0,0:0:0:0:
256,192,85161,1,8,0:0:0:0:
256,192,85520,1,0,0:0:0:0:
256,192,86059,1,0,0:0:0:0:
256,192,86238,1,0,0:0:0:0:
256,192,86957,1,4,0:0:0:0:
256,192,87137,12,0,89831,0:0:0:0:
